  0
SECTION
  2
HEADER
  9
$ACADVER
  1
AC1015
  9
$ACADMAINTVER
 70
     6
  9
$DWGCODEPAGE
  3
ANSI_932
  9
$INSBASE
 10
0.0
 20
0.0
 30
0.0
  9
$EXTMIN
 10
0.0
 20
0.0
 30
0.0
  9
$EXTMAX
 10
594.0
 20
420.0
 30
0.0
  9
$LIMMIN
 10
0.0
 20
0.0
  9
$LIMMAX
 10
12.0
 20
9.0
  9
$ORTHOMODE
 70
     0
  9
$REGENMODE
 70
     1
  9
$FILLMODE
 70
     1
  9
$QTEXTMODE
 70
     0
  9
$MIRRTEXT
 70
     1
  9
$LTSCALE
 40
7.274861
  9
$ATTMODE
 70
     1
  9
$TEXTSIZE
 40
3.2
  9
$TRACEWID
 40
1.0
  9
$TEXTSTYLE
  7
Standard
  9
$CLAYER
  8
0
  9
$CELTYPE
  6
ByLayer
  9
$CECOLOR
 62
   256
  9
$CELTSCALE
 40
1.0
  9
$DISPSILH
 70
     0
  9
$DIMSCALE
 40
1.0
  9
$DIMASZ
 40
2.5
  9
$DIMEXO
 40
0.625
  9
$DIMDLI
 40
3.75
  9
$DIMRND
 40
0.0
  9
$DIMDLE
 40
0.0
  9
$DIMEXE
 40
1.25
  9
$DIMTP
 40
0.0
  9
$DIMTM
 40
0.0
  9
$DIMTXT
 40
2.5
  9
$DIMCEN
 40
0.09
  9
$DIMTSZ
 40
0.0
  9
$DIMTOL
 70
     0
  9
$DIMLIM
 70
     0
  9
$DIMTIH
 70
     0
  9
$DIMTOH
 70
     0
  9
$DIMSE1
 70
     0
  9
$DIMSE2
 70
     0
  9
$DIMTAD
 70
     0
  9
$DIMZIN
 70
     8
  9
$DIMBLK
  1

  9
$DIMASO
 70
     1
  9
$DIMSHO
 70
     0
  9
$DIMPOST
  1

  9
$DIMAPOST
  1

  9
$DIMALT
 70
     0
  9
$DIMALTD
 70
     3
  9
$DIMALTF
 40
0.03937
  9
$DIMLFAC
 40
1.0
  9
$DIMTOFL
 70
     1
  9
$DIMTVP
 40
0.0
  9
$DIMTIX
 70
     0
  9
$DIMSOXD
 70
     0
  9
$DIMSAH
 70
     0
  9
$DIMBLK1
  1

  9
$DIMBLK2
  1

  9
$DIMSTYLE
  2
ISO-25
  9
$DIMCLRD
 70
     0
  9
$DIMCLRE
 70
     0
  9
$DIMCLRT
 70
     0
  9
$DIMTFAC
 40
1.0
  9
$DIMGAP
 40
0.625
  9
$DIMJUST
 70
     0
  9
$DIMSD1
 70
     0
  9
$DIMSD2
 70
     0
  9
$DIMTOLJ
 70
     0
  9
$DIMTZIN
 70
     8
  9
$DIMALTZ
 70
     0
  9
$DIMALTTZ
 70
     0
  9
$DIMUPT
 70
     0
  9
$DIMDEC
 70
     2
  9
$DIMTDEC
 70
     2
  9
$DIMALTU
 70
     2
  9
$DIMALTTD
 70
     3
  9
$DIMTXSTY
  7
Standard
  9
$DIMAUNIT
 70
     0
  9
$DIMADEC
 70
     0
  9
$DIMALTRND
 40
0.0
  9
$DIMAZIN
 70
     0
  9
$DIMDSEP
 70
    44
  9
$DIMATFIT
 70
     3
  9
$DIMFRAC
 70
     0
  9
$DIMLDRBLK
  1

  9
$DIMLUNIT
 70
     2
  9
$DIMLWD
 70
    -2
  9
$DIMLWE
 70
    -2
  9
$DIMTMOVE
 70
     0
  9
$LUNITS
 70
     2
  9
$LUPREC
 70
     4
  9
$SKETCHINC
 40
1.0
  9
$FILLETRAD
 40
0.0
  9
$AUNITS
 70
     0
  9
$AUPREC
 70
     0
  9
$MENU
  1
.
  9
$ELEVATION
 40
0.0
  9
$PELEVATION
 40
0.0
  9
$THICKNESS
 40
0.0
  9
$LIMCHECK
 70
     0
  9
$CHAMFERA
 40
10.0
  9
$CHAMFERB
 40
10.0
  9
$CHAMFERC
 40
20.0
  9
$CHAMFERD
 40
0.0
  9
$SKPOLY
 70
     0
  9
$TDCREATE
 40
2455588.677802003
  9
$TDUCREATE
 40
2455588.302802003
  9
$TDUPDATE
 40
2455588.677802014
  9
$TDUUPDATE
 40
2455588.302802014
  9
$TDINDWG
 40
0.0000000116
  9
$TDUSRTIMER
 40
0.0000000116
  9
$USRTIMER
 70
     1
  9
$ANGBASE
 50
0.0
  9
$ANGDIR
 70
     0
  9
$PDMODE
 70
     0
  9
$PDSIZE
 40
0.0
  9
$PLINEWID
 40
0.0
  9
$SPLFRAME
 70
     0
  9
$SPLINETYPE
 70
     6
  9
$SPLINESEGS
 70
     8
  9
$HANDSEED
  5
667
  9
$SURFTAB1
 70
     6
  9
$SURFTAB2
 70
     6
  9
$SURFTYPE
 70
     6
  9
$SURFU
 70
     6
  9
$SURFV
 70
     6
  9
$UCSBASE
  2

  9
$UCSNAME
  2

  9
$UCSORG
 10
0.0
 20
0.0
 30
0.0
  9
$UCSXDIR
 10
1.0
 20
0.0
 30
0.0
  9
$UCSYDIR
 10
0.0
 20
1.0
 30
0.0
  9
$UCSORTHOREF
  2

  9
$UCSORTHOVIEW
 70
     0
  9
$UCSORGTOP
 10
0.0
 20
0.0
 30
0.0
  9
$UCSORGBOTTOM
 10
0.0
 20
0.0
 30
0.0
  9
$UCSORGLEFT
 10
0.0
 20
0.0
 30
0.0
  9
$UCSORGRIGHT
 10
0.0
 20
0.0
 30
0.0
  9
$UCSORGFRONT
 10
0.0
 20
0.0
 30
0.0
  9
$UCSORGBACK
 10
0.0
 20
0.0
 30
0.0
  9
$PUCSBASE
  2

  9
$PUCSNAME
  2

  9
$PUCSORG
 10
0.0
 20
0.0
 30
0.0
  9
$PUCSXDIR
 10
1.0
 20
0.0
 30
0.0
  9
$PUCSYDIR
 10
0.0
 20
1.0
 30
0.0
  9
$PUCSORTHOREF
  2

  9
$PUCSORTHOVIEW
 70
     0
  9
$PUCSORGTOP
 10
0.0
 20
0.0
 30
0.0
  9
$PUCSORGBOTTOM
 10
0.0
 20
0.0
 30
0.0
  9
$PUCSORGLEFT
 10
0.0
 20
0.0
 30
0.0
  9
$PUCSORGRIGHT
 10
0.0
 20
0.0
 30
0.0
  9
$PUCSORGFRONT
 10
0.0
 20
0.0
 30
0.0
  9
$PUCSORGBACK
 10
0.0
 20
0.0
 30
0.0
  9
$USERI1
 70
     0
  9
$USERI2
 70
     0
  9
$USERI3
 70
     0
  9
$USERI4
 70
     0
  9
$USERI5
 70
     0
  9
$USERR1
 40
0.0
  9
$USERR2
 40
0.0
  9
$USERR3
 40
0.0
  9
$USERR4
 40
0.0
  9
$USERR5
 40
0.0
  9
$WORLDVIEW
 70
     1
  9
$SHADEDGE
 70
     3
  9
$SHADEDIF
 70
    70
  9
$TILEMODE
 70
     1
  9
$MAXACTVP
 70
    64
  9
$PINSBASE
 10
0.0
 20
0.0
 30
0.0
  9
$PLIMCHECK
 70
     0
  9
$PEXTMIN
 10
1.000000E+20
 20
1.000000E+20
 30
0.0
  9
$PEXTMAX
 10
-1.000000E+20
 20
-1.000000E+20
 30
0.0
  9
$PLIMMIN
 10
0.0
 20
0.0
  9
$PLIMMAX
 10
12.0
 20
9.0
  9
$UNITMODE
 70
     0
  9
$VISRETAIN
 70
     1
  9
$PLINEGEN
 70
     0
  9
$PSLTSCALE
 70
     1
  9
$TREEDEPTH
 70
  3020
  9
$CMLSTYLE
  2
Standard
  9
$CMLJUST
 70
     0
  9
$CMLSCALE
 40
20.0
  9
$PROXYGRAPHICS
 70
     1
  9
$MEASUREMENT
 70
     1
  9
$CELWEIGHT
370
    -1
  9
$ENDCAPS
280
     0
  9
$JOINSTYLE
280
     0
  9
$LWDISPLAY
290
     0
  9
$INSUNITS
 70
     4
  9
$HYPERLINKBASE
  1

  9
$STYLESHEET
  1

  9
$XEDIT
290
     1
  9
$CEPSNTYPE
380
     0
  9
$PSTYLEMODE
290
     1
  9
$FINGERPRINTGUID
  2
{C35E177F-766B-4A5C-811F-55F165CD6FD7}
  9
$VERSIONGUID
  2
{FAEB1C32-E019-11D5-929B-00C0DF256EC4}
  9
$EXTNAMES
290
     1
  9
$PSVPSCALE
 40
0.0
  9
$OLESTARTUP
290
     0
  0
ENDSEC
  0
SECTION
  2
CLASSES
  0
CLASS
  1
ACDBDICTIONARYWDFLT
  2
AcDbDictionaryWithDefault
  3
ObjectDBX Classes
 90
        0
280
     0
281
     0
  0
CLASS
  1
VISUALSTYLE
  2
AcDbVisualStyle
  3
ObjectDBX Classes
 90
     4095
280
     0
281
     0
  0
CLASS
  1
SCALE
  2
AcDbScale
  3
ObjectDBX Classes
 90
     1153
280
     0
281
     0
  0
CLASS
  1
DICTIONARYVAR
  2
AcDbDictionaryVar
  3
ObjectDBX Classes
 90
        0
280
     0
281
     0
  0
CLASS
  1
ACDBPLACEHOLDER
  2
AcDbPlaceHolder
  3
ObjectDBX Classes
 90
        0
280
     0
281
     0
  0
CLASS
  1
LAYOUT
  2
AcDbLayout
  3
ObjectDBX Classes
 90
        0
280
     0
281
     0
  0
ENDSEC
  0
SECTION
  2
TABLES
  0
TABLE
  2
VPORT
  5
8
330
0
100
AcDbSymbolTable
 70
     1
  0
VPORT
  5
29
330
8
100
AcDbSymbolTableRecord
100
AcDbViewportTableRecord
  2
*Active
 70
     0
 10
0.0
 20
0.0
 11
1.0
 21
1.0
 12
297.0
 22
210.0
 13
0.0
 23
0.0
 14
1.0
 24
1.0
 15
0.0
 25
0.0
 16
0.0
 26
0.0
 36
1.0
 17
0.0
 27
0.0
 37
0.0
 40
424.2
 41
1.691288
 42
50.0
 43
0.0
 44
0.0
 50
0.0
 51
0.0
 71
     0
 72
   100
 73
     1
 74
     3
 75
     0
 76
     0
 77
     0
 78
     0
281
     0
 65
     1
110
0.0
120
0.0
130
0.0
111
1.0
121
0.0
131
0.0
112
0.0
122
1.0
132
0.0
 79
     0
146
0.0
  0
ENDTAB
  0
TABLE
  2
LTYPE
  5
5
330
0
100
AcDbSymbolTable
 70
     5
  0
LTYPE
  5
14
330
5
100
AcDbSymbolTableRecord
100
AcDbLinetypeTableRecord
  2
ByBlock
 70
     0
  3

 72
    65
 73
     0
 40
0.0
  0
LTYPE
  5
15
330
5
100
AcDbSymbolTableRecord
100
AcDbLinetypeTableRecord
  2
ByLayer
 70
     0
  3

 72
    65
 73
     0
 40
0.0
  0
LTYPE
  5
16
330
5
100
AcDbSymbolTableRecord
100
AcDbLinetypeTableRecord
  2
Continuous
 70
     0
  3
Solid line
 72
    65
 73
     0
 40
0.0
  0
LTYPE
  5
3B
330
5
100
AcDbSymbolTableRecord
100
AcDbLinetypeTableRecord
  2
DASHED
 70
     0
  3
DASHED
 72
    83
 73
     2
 40
0.75
 49
0.5
 74
     0
 49
-0.25
 74
     0
  0
LTYPE
  5
3C
330
5
100
AcDbSymbolTableRecord
100
AcDbLinetypeTableRecord
  2
HIDDEN
 70
     0
  3
HIDDEN
 72
    83
 73
     2
 40
0.375
 49
0.25
 74
     0
 49
-0.125
 74
     0
  0
LTYPE
  5
3D
330
5
100
AcDbSymbolTableRecord
100
AcDbLinetypeTableRecord
  2
CENTER
 70
     0
  3
CENTER
 72
    83
 73
     4
 40
2.0
 49
1.25
 74
     0
 49
-0.25
 74
     0
 49
0.25
 74
     0
 49
-0.25
 74
     0
  0
LTYPE
  5
3E
330
5
100
AcDbSymbolTableRecord
100
AcDbLinetypeTableRecord
  2
PHANTOM
 70
     0
  3
PHANTOM
 72
    83
 73
     6
 40
2.5
 49
1.25
 74
     0
 49
-0.25
 74
     0
 49
0.25
 74
     0
 49
-0.25
 74
     0
 49
0.25
 74
     0
 49
-0.25
 74
     0
  0
ENDTAB
  0
TABLE
  2
LAYER
  5
2
330
0
100
AcDbSymbolTable
 70
     2
  0
LAYER
  5
10
330
2
100
AcDbSymbolTableRecord
100
AcDbLayerTableRecord
  2
0
 70
     0
 62
     7
  6
Continuous
370
    -3
390
F
  0
LAYER
  5
3F
330
2
100
AcDbSymbolTableRecord
100
AcDbLayerTableRecord
  2
001
 70
     0
 62
     7
  6
Continuous
370
    -3
390
F
  0
ENDTAB
  0
TABLE
  2
STYLE
  5
3
330
0
100
AcDbSymbolTable
 70
     2
  0
STYLE
  5
11
330
3
100
AcDbSymbolTableRecord
100
AcDbTextStyleTableRecord
  2
Standard
 70
     0
 40
0.0
 41
1.0
 50
0.0
 71
     0
 42
0.2
  3
TXT
  4
BIGFONT
  0
STYLE
  5
40
330
3
100
AcDbSymbolTableRecord
100
AcDbTextStyleTableRecord
  2
TATEGAKI
 70
     4
 40
1.0
 41
1.0
 50
0.0
 71
     0
 42
0.2
  3
TXT
  4
BIGFONT
  0
ENDTAB
  0
TABLE
  2
VIEW
  5
6
330
0
100
AcDbSymbolTable
 70
     0
  0
ENDTAB
  0
TABLE
  2
UCS
  5
7
330
0
100
AcDbSymbolTable
 70
     0
  0
ENDTAB
  0
TABLE
  2
APPID
  5
9
330
0
100
AcDbSymbolTable
 70
     1
  0
APPID
  5
12
330
9
100
AcDbSymbolTableRecord
100
AcDbRegAppTableRecord
  2
ACAD
 70
     0
  0
ENDTAB
  0
TABLE
  2
DIMSTYLE
  5
A
330
0
100
AcDbSymbolTable
 70
     2
100
AcDbDimStyleTable
  0
DIMSTYLE
105
27
330
A
100
AcDbSymbolTableRecord
100
AcDbDimStyleTableRecord
  2
ISO-25
 70
     0
 41
2.5
 42
0.625
 43
3.75
 44
1.25
 73
     0
 74
     0
 77
     1
 78
     8
140
2.5
141
2.5
143
0.03937
147
0.625
171
     3
172
     1
271
     2
272
     2
274
     3
278
    44
283
     0
284
     8
340
11
  0
DIMSTYLE
105
41
102
{ACAD_REACTORS
330
43F
330
441
330
442
330
443
330
444
330
445
330
446
330
449
330
44A
330
44B
330
44C
330
44D
330
44E
330
450
102
}
330
A
100
AcDbSymbolTableRecord
100
AcDbDimStyleTableRecord
  2
Standard
 70
     0
 41
2.0
 42
0.0
 44
1.2
 73
     0
 74
     0
 77
     1
 78
     8
 79
     2
140
3.5
146
0.6
147
1.0
172
     1
179
     3
271
     3
340
11
  0
ENDTAB
  0
TABLE
  2
BLOCK_RECORD
  5
1
330
0
100
AcDbSymbolTable
 70
    34
  0
BLOCK_RECORD
  5
1F
330
1
100
AcDbSymbolTableRecord
100
AcDbBlockTableRecord
  2
*Model_Space
340
22
  0
BLOCK_RECORD
  5
1B
330
1
100
AcDbSymbolTableRecord
100
AcDbBlockTableRecord
  2
*Paper_Space
340
1E
  0
BLOCK_RECORD
  5
23
330
1
100
AcDbSymbolTableRecord
100
AcDbBlockTableRecord
  2
*Paper_Space0
340
26
  0
BLOCK_RECORD
  5
42
330
1
100
AcDbSymbolTableRecord
100
AcDbBlockTableRecord
  2
JZB-1
340
0
102
{BLKREFS
331
42F
102
}
  0
BLOCK_RECORD
  5
254
330
1
100
AcDbSymbolTableRecord
100
AcDbBlockTableRecord
  2
JZB-2
340
0
102
{BLKREFS
331
430
102
}
  0
BLOCK_RECORD
  5
25E
330
1
100
AcDbSymbolTableRecord
100
AcDbBlockTableRecord
  2
JZB-3
340
0
102
{BLKREFS
331
431
102
}
  0
BLOCK_RECORD
  5
268
330
1
100
AcDbSymbolTableRecord
100
AcDbBlockTableRecord
  2
JZB-4
340
0
102
{BLKREFS
331
432
102
}
  0
BLOCK_RECORD
  5
272
330
1
100
AcDbSymbolTableRecord
100
AcDbBlockTableRecord
  2
JZB-5
340
0
102
{BLKREFS
331
433
102
}
  0
BLOCK_RECORD
  5
27C
330
1
100
AcDbSymbolTableRecord
100
AcDbBlockTableRecord
  2
JZB-6
340
0
102
{BLKREFS
331
434
102
}
  0
BLOCK_RECORD
  5
286
330
1
100
AcDbSymbolTableRecord
100
AcDbBlockTableRecord
  2
JZB-7
340
0
102
{BLKREFS
331
435
102
}
  0
BLOCK_RECORD
  5
290
330
1
100
AcDbSymbolTableRecord
100
AcDbBlockTableRecord
  2
DIM-8
340
0
102
{BLKREFS
331
436
102
}
  0
BLOCK_RECORD
  5
29A
330
1
100
AcDbSymbolTableRecord
100
AcDbBlockTableRecord
  2
DIM-9
340
0
102
{BLKREFS
331
437
102
}
  0
BLOCK_RECORD
  5
2A4
330
1
100
AcDbSymbolTableRecord
100
AcDbBlockTableRecord
  2
DIM-10
340
0
102
{BLKREFS
331
438
102
}
  0
BLOCK_RECORD
  5
2AE
330
1
100
AcDbSymbolTableRecord
100
AcDbBlockTableRecord
  2
DIM-11
340
0
102
{BLKREFS
331
439
102
}
  0
BLOCK_RECORD
  5
2B8
330
1
100
AcDbSymbolTableRecord
100
AcDbBlockTableRecord
  2
DIM-12
340
0
102
{BLKREFS
331
43A
102
}
  0
BLOCK_RECORD
  5
2C2
330
1
100
AcDbSymbolTableRecord
100
AcDbBlockTableRecord
  2
DIM-13
340
0
102
{BLKREFS
331
43B
102
}
  0
BLOCK_RECORD
  5
2CC
330
1
100
AcDbSymbolTableRecord
100
AcDbBlockTableRecord
  2
DIM-14
340
0
102
{BLKREFS
331
43C
102
}
  0
BLOCK_RECORD
  5
2D6
330
1
100
AcDbSymbolTableRecord
100
AcDbBlockTableRecord
  2
DIM-15
340
0
102
{BLKREFS
331
43D
102
}
  0
BLOCK_RECORD
  5
2E0
330
1
100
AcDbSymbolTableRecord
100
AcDbBlockTableRecord
  2
DIM-16
340
0
102
{BLKREFS
331
43E
102
}
  0
BLOCK_RECORD
  5
2EA
330
1
100
AcDbSymbolTableRecord
100
AcDbBlockTableRecord
  2
*D17
340
0
  0
BLOCK_RECORD
  5
2FE
330
1
100
AcDbSymbolTableRecord
100
AcDbBlockTableRecord
  2
DIM-17
340
0
102
{BLKREFS
331
440
102
}
  0
BLOCK_RECORD
  5
30D
330
1
100
AcDbSymbolTableRecord
100
AcDbBlockTableRecord
  2
*D19
340
0
  0
BLOCK_RECORD
  5
321
330
1
100
AcDbSymbolTableRecord
100
AcDbBlockTableRecord
  2
*D20
340
0
  0
BLOCK_RECORD
  5
335
330
1
100
AcDbSymbolTableRecord
100
AcDbBlockTableRecord
  2
*D21
340
0
  0
BLOCK_RECORD
  5
346
330
1
100
AcDbSymbolTableRecord
100
AcDbBlockTableRecord
  2
*D22
340
0
  0
BLOCK_RECORD
  5
35A
330
1
100
AcDbSymbolTableRecord
100
AcDbBlockTableRecord
  2
*D23
340
0
  0
BLOCK_RECORD
  5
36E
330
1
100
AcDbSymbolTableRecord
100
AcDbBlockTableRecord
  2
*D24
340
0
  0
BLOCK_RECORD
  5
382
330
1
100
AcDbSymbolTableRecord
100
AcDbBlockTableRecord
  2
DIM-18
340
0
102
{BLKREFS
331
447
102
}
  0
BLOCK_RECORD
  5
396
330
1
100
AcDbSymbolTableRecord
100
AcDbBlockTableRecord
  2
DIM-19
340
0
102
{BLKREFS
331
448
102
}
  0
BLOCK_RECORD
  5
3A4
330
1
100
AcDbSymbolTableRecord
100
AcDbBlockTableRecord
  2
*D27
340
0
  0
BLOCK_RECORD
  5
3B8
330
1
100
AcDbSymbolTableRecord
100
AcDbBlockTableRecord
  2
*D28
340
0
  0
BLOCK_RECORD
  5
3CC
330
1
100
AcDbSymbolTableRecord
100
AcDbBlockTableRecord
  2
*D29
340
0
  0
BLOCK_RECORD
  5
3DE
330
1
100
AcDbSymbolTableRecord
100
AcDbBlockTableRecord
  2
*D30
340
0
  0
BLOCK_RECORD
  5
3F2
330
1
100
AcDbSymbolTableRecord
100
AcDbBlockTableRecord
  2
*D31
340
0
  0
BLOCK_RECORD
  5
406
330
1
100
AcDbSymbolTableRecord
100
AcDbBlockTableRecord
  2
*D32
340
0
  0
BLOCK_RECORD
  5
41B
330
1
100
AcDbSymbolTableRecord
100
AcDbBlockTableRecord
  2
*D33
340
0
  0
ENDTAB
  0
ENDSEC
  0
SECTION
  2
BLOCKS
  0
BLOCK
  5
20
330
1F
100
AcDbEntity
  8
0
100
AcDbBlockBegin
  2
*Model_Space
 70
     0
 10
0.0
 20
0.0
 30
0.0
  3
*Model_Space
  1

  0
ENDBLK
  5
21
330
1F
100
AcDbEntity
  8
0
100
AcDbBlockEnd
  0
BLOCK
  5
1C
330
1B
100
AcDbEntity
 67
     1
  8
0
100
AcDbBlockBegin
  2
*Paper_Space
 70
     0
 10
0.0
 20
0.0
 30
0.0
  3
*Paper_Space
  1

  0
ENDBLK
  5
1D
330
1B
100
AcDbEntity
 67
     1
  8
0
100
AcDbBlockEnd
  0
BLOCK
  5
24
330
23
100
AcDbEntity
  8
0
100
AcDbBlockBegin
  2
*Paper_Space0
 70
     0
 10
0.0
 20
0.0
 30
0.0
  3
*Paper_Space0
  1

  0
ENDBLK
  5
25
330
23
100
AcDbEntity
  8
0
100
AcDbBlockEnd
  0
BLOCK
  5
43
330
42
100
AcDbEntity
  8
0
100
AcDbBlockBegin
  2
JZB-1
 70
     0
 10
0.0
 20
0.0
 30
0.0
  3
JZB-1
  1

  0
ARC
  5
45
330
42
100
AcDbEntity
  8
001
 62
     3
370
     9
100
AcDbCircle
 10
428.108275
 20
17.26955
 30
0.0
 40
7.115052733282482
100
AcDbArc
 50
65.353685
 51
105.6584
  0
ARC
  5
46
330
42
100
AcDbEntity
  8
001
 62
     3
370
     9
100
AcDbCircle
 10
428.377365
 20
17.927646
 30
0.0
 40
6.404764311079217
100
AcDbArc
 50
38.417655
 51
65.086559
  0
ARC
  5
47
330
42
100
AcDbEntity
  8
001
 62
     3
370
     9
100
AcDbCircle
 10
430.718042
 20
23.671022
 30
0.0
 40
3.206065079727681
100
AcDbArc
 50
326.628963
 51
341.358949
  0
ARC
  5
48
330
42
100
AcDbEntity
  8
001
 62
     3
370
     9
100
AcDbCircle
 10
432.296966
 20
23.088515
 30
0.0
 40
1.524513419462779
100
AcDbArc
 50
343.135543
 51
2.46562
  0
ARC
  5
49
330
42
100
AcDbEntity
  8
001
 62
     3
370
     9
100
AcDbCircle
 10
432.882975
 20
23.062383
 30
0.0
 40
0.9415708400103575
100
AcDbArc
 50
5.58995
 51
92.810775
  0
ARC
  5
4A
330
42
100
AcDbEntity
  8
001
 62
     3
370
     9
100
AcDbCircle
 10
432.920829
 20
22.530575
 30
0.0
 40
1.474641782086106
100
AcDbArc
 50
93.266515
 51
126.738512
  0
ARC
  5
4B
330
42
100
AcDbEntity
  8
001
 62
     3
370
     9
100
AcDbCircle
 10
428.629687
 20
17.518298
 30
0.0
 40
7.070188113982016
100
AcDbArc
 50
61.172481
 51
78.246063
  0
ARC
  5
4C
330
42
100
AcDbEntity
  8
001
 62
     3
370
     9
100
AcDbCircle
 10
432.904162
 20
21.493648
 30
0.0
 40
4.088420609535032
100
AcDbArc
 50
95.981732
 51
133.790281
  0
ARC
  5
4D
330
42
100
AcDbEntity
  8
001
 62
     3
370
     9
100
AcDbCircle
 10
432.818412
 20
22.561017
 30
0.0
 40
3.018038304222789
100
AcDbArc
 50
67.922327
 51
96.474356
  0
ARC
  5
4E
330
42
100
AcDbEntity
  8
001
 62
     3
370
     9
100
AcDbCircle
 10
12730.232907
 20
-10089.435106
 30
0.0
 40
15924.35983710991
100
AcDbArc
 50
140.576129
 51
140.597874
  0
ARC
  5
4F
330
42
100
AcDbEntity
  8
001
 62
     3
370
     9
100
AcDbCircle
 10
663.947084
 20
-151.586218
 30
0.0
 40
290.8135651916087
100
AcDbArc
 50
143.297678
 51
144.158428
  0
ARC
  5
50
330
42
100
AcDbEntity
  8
001
 62
     3
370
     9
100
AcDbCircle
 10
427.167021
 20
18.587315
 30
0.0
 40
5.128858166253528
100
AcDbArc
 50
22.937304
 51
45.106985
  0
ARC
  5
51
330
42
100
AcDbEntity
  8
001
 62
     3
370
     9
100
AcDbCircle
 10
430.572756
 20
23.197386
 30
0.0
 40
2.924824787366081
100
AcDbArc
 50
285.151265
 51
296.774896
  0
ARC
  5
52
330
42
100
AcDbEntity
  8
001
 62
     3
370
     9
100
AcDbCircle
 10
431.390552
 20
24.290933
 30
0.0
 40
4.074450784676405
100
AcDbArc
 50
269.4096
 51
307.71056
  0
ARC
  5
53
330
42
100
AcDbEntity
  8
001
 62
     3
370
     9
100
AcDbCircle
 10
431.717389
 20
23.924029
 30
0.0
 40
3.584434916728443
100
AcDbArc
 50
307.164846
 51
342.38718
  0
ARC
  5
54
330
42
100
AcDbEntity
  8
001
 62
     3
370
     9
100
AcDbCircle
 10
426.444312
 20
17.549568
 30
0.0
 40
6.418891914826705
100
AcDbArc
 50
65.000408
 51
92.071528
  0
ARC
  5
55
330
42
100
AcDbEntity
  8
001
 62
     3
370
     9
100
AcDbCircle
 10
431.353784
 20
20.29625
 30
0.0
 40
0.0797225595863068
100
AcDbArc
 50
101.997499
 51
266.248641
  0
ARC
  5
56
330
42
100
AcDbEntity
  8
001
 62
     3
370
     9
100
AcDbCircle
 10
431.947618
 20
24.389791
 30
0.0
 40
4.255367512205797
100
AcDbArc
 50
271.489783
 51
300.21413
  0
ARC
  5
57
330
42
100
AcDbEntity
  8
001
 62
     3
370
     9
100
AcDbCircle
 10
427.451105
 20
18.697434
 30
0.0
 40
4.826476856682554
100
AcDbArc
 50
0.012684
 51
17.339226
  0
ARC
  5
58
330
42
100
AcDbEntity
  8
001
 62
     3
370
     9
100
AcDbCircle
 10
429.544641
 20
18.720947
 30
0.0
 40
4.96165970362781
100
AcDbArc
 50
359.751073
 51
23.665155
  0
ARC
  5
59
330
42
100
AcDbEntity
  8
001
 62
     3
370
     9
100
AcDbCircle
 10
433.205811
 20
23.476823
 30
0.0
 40
2.02382932166976
100
AcDbArc
 50
17.968717
 51
68.34064
  0
ARC
  5
5A
330
42
100
AcDbEntity
  8
001
 62
     3
370
     9
100
AcDbCircle
 10
432.966458
 20
23.46538
 30
0.0
 40
2.255916092817202
100
AcDbArc
 50
343.890965
 51
16.369571
  0
ARC
  5
5B
330
42
100
AcDbEntity
  8
001
 62
     3
370
     9
100
AcDbCircle
 10
426.209408
 20
24.043859
 30
0.0
 40
0.0796458653951215
100
AcDbArc
 50
105.6584
 51
272.071528
  0
LINE
  5
5C
330
42
100
AcDbEntity
  8
001
 62
     3
370
     9
100
AcDbLine
 10
428.202214
 20
18.698502
 30
0.0
 11
425.320425
 21
18.698502
 31
0.0
  0
LINE
  5
5D
330
42
100
AcDbEntity
  8
001
 62
     3
370
     9
100
AcDbLine
 10
432.277581
 20
18.698503
 30
0.0
 11
434.50625
 21
18.698503
 31
0.0
  0
LINE
  5
5E
330
42
100
AcDbEntity
  8
001
 62
     3
370
     9
100
AcDbLine
 10
439.346449
 20
18.509219
 30
0.0
 11
439.097719
 21
18.509219
 31
0.0
  0
LINE
  5
5F
330
42
100
AcDbEntity
  8
001
 62
     3
370
     9
100
AcDbLine
 10
439.097719
 20
18.509219
 30
0.0
 11
438.594191
 21
18.509219
 31
0.0
  0
LINE
  5
60
330
42
100
AcDbEntity
  8
001
 62
     3
370
     9
100
AcDbLine
 10
438.594191
 20
18.509219
 30
0.0
 11
438.199863
 21
18.509219
 31
0.0
  0
LINE
  5
61
330
42
100
AcDbEntity
  8
001
 62
     3
370
     9
100
AcDbLine
 10
438.199863
 20
18.509219
 30
0.0
 11
438.152456
 21
18.512824
 31
0.0
  0
LINE
  5
62
330
42
100
AcDbEntity
  8
001
 62
     3
370
     9
100
AcDbLine
 10
438.152456
 20
18.512824
 30
0.0
 11
438.096394
 21
18.626007
 31
0.0
  0
LINE
  5
63
330
42
100
AcDbEntity
  8
001
 62
     3
370
     9
100
AcDbLine
 10
438.096394
 20
18.626007
 30
0.0
 11
437.834291
 21
19.155156
 31
0.0
  0
LINE
  5
64
330
42
100
AcDbEntity
  8
001
 62
     3
370
     9
100
AcDbLine
 10
437.834291
 20
19.155156
 30
0.0
 11
437.550764
 21
19.72756
 31
0.0
  0
LINE
  5
65
330
42
100
AcDbEntity
  8
001
 62
     3
370
     9
100
AcDbLine
 10
437.550764
 20
19.72756
 30
0.0
 11
437.452397
 21
19.925955
 31
0.0
  0
LINE
  5
66
330
42
100
AcDbEntity
  8
001
 62
     3
370
     9
100
AcDbLine
 10
437.452397
 20
19.925955
 30
0.0
 11
437.449718
 21
19.925955
 31
0.0
  0
LINE
  5
67
330
42
100
AcDbEntity
  8
001
 62
     3
370
     9
100
AcDbLine
 10
437.449718
 20
19.925955
 30
0.0
 11
437.445556
 21
19.925955
 31
0.0
  0
LINE
  5
68
330
42
100
AcDbEntity
  8
001
 62
     3
370
     9
100
AcDbLine
 10
437.445556
 20
19.925955
 30
0.0
 11
437.442878
 21
19.925955
 31
0.0
  0
LINE
  5
69
330
42
100
AcDbEntity
  8
001
 62
     3
370
     9
100
AcDbLine
 10
437.442878
 20
19.925955
 30
0.0
 11
437.407805
 21
19.72756
 31
0.0
  0
LINE
  5
6A
330
42
100
AcDbEntity
  8
001
 62
     3
370
     9
100
AcDbLine
 10
437.407805
 20
19.72756
 30
0.0
 11
437.306895
 21
19.155156
 31
0.0
  0
LINE
  5
6B
330
42
100
AcDbEntity
  8
001
 62
     3
370
     9
100
AcDbLine
 10
437.306895
 20
19.155156
 30
0.0
 11
437.21361
 21
18.626007
 31
0.0
  0
LINE
  5
6C
330
42
100
AcDbEntity
  8
001
 62
     3
370
     9
100
AcDbLine
 10
437.21361
 20
18.626007
 30
0.0
 11
437.193656
 21
18.512824
 31
0.0
  0
LINE
  5
6D
330
42
100
AcDbEntity
  8
001
 62
     3
370
     9
100
AcDbLine
 10
437.193656
 20
18.512824
 30
0.0
 11
437.156374
 21
18.509219
 31
0.0
  0
LINE
  5
6E
330
42
100
AcDbEntity
  8
001
 62
     3
370
     9
100
AcDbLine
 10
437.156374
 20
18.509219
 30
0.0
 11
436.839612
 21
18.509219
 31
0.0
  0
LINE
  5
6F
330
42
100
AcDbEntity
  8
001
 62
     3
370
     9
100
AcDbLine
 10
436.839612
 20
18.509219
 30
0.0
 11
436.435131
 21
18.509219
 31
0.0
  0
LINE
  5
70
330
42
100
AcDbEntity
  8
001
 62
     3
370
     9
100
AcDbLine
 10
436.435131
 20
18.509219
 30
0.0
 11
436.235327
 21
18.509219
 31
0.0
  0
LINE
  5
71
330
42
100
AcDbEntity
  8
001
 62
     3
370
     9
100
AcDbLine
 10
436.235327
 20
18.509219
 30
0.0
 11
436.370797
 21
19.277598
 31
0.0
  0
LINE
  5
72
330
42
100
AcDbEntity
  8
001
 62
     3
370
     9
100
AcDbLine
 10
436.370797
 20
19.277598
 30
0.0
 11
436.645042
 21
20.833097
 31
0.0
  0
LINE
  5
73
330
42
100
AcDbEntity
  8
001
 62
     3
370
     9
100
AcDbLine
 10
436.645042
 20
20.833097
 30
0.0
 11
436.859812
 21
22.051259
 31
0.0
  0
LINE
  5
74
330
42
100
AcDbEntity
  8
001
 62
     3
370
     9
100
AcDbLine
 10
436.859812
 20
22.051259
 30
0.0
 11
436.888422
 21
22.192191
 31
0.0
  0
LINE
  5
75
330
42
100
AcDbEntity
  8
001
 62
     3
370
     9
100
AcDbLine
 10
436.888422
 20
22.192191
 30
0.0
 11
437.006573
 21
22.192191
 31
0.0
  0
LINE
  5
76
330
42
100
AcDbEntity
  8
001
 62
     3
370
     9
100
AcDbLine
 10
437.006573
 20
22.192191
 30
0.0
 11
437.558948
 21
22.192191
 31
0.0
  0
LINE
  5
77
330
42
100
AcDbEntity
  8
001
 62
     3
370
     9
100
AcDbLine
 10
437.558948
 20
22.192191
 30
0.0
 11
438.156475
 21
22.192191
 31
0.0
  0
LINE
  5
78
330
42
100
AcDbEntity
  8
001
 62
     3
370
     9
100
AcDbLine
 10
438.156475
 20
22.192191
 30
0.0
 11
438.489581
 21
22.18858
 31
0.0
  0
LINE
  5
79
330
42
100
AcDbEntity
  8
001
 62
     3
370
     9
100
AcDbLine
 10
438.489581
 20
22.18858
 30
0.0
 11
438.77987
 21
22.147368
 31
0.0
  0
LINE
  5
7A
330
42
100
AcDbEntity
  8
001
 62
     3
370
     9
100
AcDbLine
 10
438.77987
 20
22.147368
 30
0.0
 11
439.02886
 21
22.058728
 31
0.0
  0
LINE
  5
7B
330
42
100
AcDbEntity
  8
001
 62
     3
370
     9
100
AcDbLine
 10
439.02886
 20
22.058728
 30
0.0
 11
439.22907
 21
21.920849
 31
0.0
  0
LINE
  5
7C
330
42
100
AcDbEntity
  8
001
 62
     3
370
     9
100
AcDbLine
 10
439.22907
 20
21.920849
 30
0.0
 11
439.373018
 21
21.731916
 31
0.0
  0
LINE
  5
7D
330
42
100
AcDbEntity
  8
001
 62
     3
370
     9
100
AcDbLine
 10
439.373018
 20
21.731916
 30
0.0
 11
439.453222
 21
21.49012
 31
0.0
  0
LINE
  5
7E
330
42
100
AcDbEntity
  8
001
 62
     3
370
     9
100
AcDbLine
 10
439.453222
 20
21.49012
 30
0.0
 11
439.4622
 21
21.193648
 31
0.0
  0
LINE
  5
7F
330
42
100
AcDbEntity
  8
001
 62
     3
370
     9
100
AcDbLine
 10
439.4622
 20
21.193648
 30
0.0
 11
439.41411
 21
20.926718
 31
0.0
  0
LINE
  5
80
330
42
100
AcDbEntity
  8
001
 62
     3
370
     9
100
AcDbLine
 10
439.41411
 20
20.926718
 30
0.0
 11
439.336929
 21
20.715871
 31
0.0
  0
LINE
  5
81
330
42
100
AcDbEntity
  8
001
 62
     3
370
     9
100
AcDbLine
 10
439.336929
 20
20.715871
 30
0.0
 11
439.227423
 21
20.522378
 31
0.0
  0
LINE
  5
82
330
42
100
AcDbEntity
  8
001
 62
     3
370
     9
100
AcDbLine
 10
439.227423
 20
20.522378
 30
0.0
 11
439.087354
 21
20.35156
 31
0.0
  0
LINE
  5
83
330
42
100
AcDbEntity
  8
001
 62
     3
370
     9
100
AcDbLine
 10
439.087354
 20
20.35156
 30
0.0
 11
438.918481
 21
20.208737
 31
0.0
  0
LINE
  5
84
330
42
100
AcDbEntity
  8
001
 62
     3
370
     9
100
AcDbLine
 10
438.918481
 20
20.208737
 30
0.0
 11
438.722565
 21
20.099228
 31
0.0
  0
LINE
  5
85
330
42
100
AcDbEntity
  8
001
 62
     3
370
     9
100
AcDbLine
 10
438.722565
 20
20.099228
 30
0.0
 11
438.501366
 21
20.028354
 31
0.0
  0
LINE
  5
86
330
42
100
AcDbEntity
  8
001
 62
     3
370
     9
100
AcDbLine
 10
438.501366
 20
20.028354
 30
0.0
 11
438.459303
 21
20.010725
 31
0.0
  0
LINE
  5
87
330
42
100
AcDbEntity
  8
001
 62
     3
370
     9
100
AcDbLine
 10
438.459303
 20
20.010725
 30
0.0
 11
438.488388
 21
19.961499
 31
0.0
  0
LINE
  5
88
330
42
100
AcDbEntity
  8
001
 62
     3
370
     9
100
AcDbLine
 10
438.488388
 20
19.961499
 30
0.0
 11
438.783488
 21
19.462038
 31
0.0
  0
LINE
  5
89
330
42
100
AcDbEntity
  8
001
 62
     3
370
     9
100
AcDbLine
 10
438.783488
 20
19.462038
 30
0.0
 11
439.160309
 21
18.824264
 31
0.0
  0
LINE
  5
8A
330
42
100
AcDbEntity
  8
001
 62
     3
370
     9
100
AcDbLine
 10
439.160309
 20
18.824264
 30
0.0
 11
439.346449
 21
18.509219
 31
0.0
  0
LINE
  5
8B
330
42
100
AcDbEntity
  8
001
 62
     3
370
     9
100
AcDbLine
 10
437.551627
 20
20.541918
 30
0.0
 11
437.567494
 21
20.541918
 31
0.0
  0
LINE
  5
8C
330
42
100
AcDbEntity
  8
001
 62
     3
370
     9
100
AcDbLine
 10
437.567494
 20
20.541918
 30
0.0
 11
437.601591
 21
20.541918
 31
0.0
  0
LINE
  5
8D
330
42
100
AcDbEntity
  8
001
 62
     3
370
     9
100
AcDbLine
 10
437.601591
 20
20.541918
 30
0.0
 11
437.633662
 21
20.541918
 31
0.0
  0
LINE
  5
8E
330
42
100
AcDbEntity
  8
001
 62
     3
370
     9
100
AcDbLine
 10
437.633662
 20
20.541918
 30
0.0
 11
437.694351
 21
20.542445
 31
0.0
  0
LINE
  5
8F
330
42
100
AcDbEntity
  8
001
 62
     3
370
     9
100
AcDbLine
 10
437.694351
 20
20.542445
 30
0.0
 11
437.955739
 21
20.568315
 31
0.0
  0
LINE
  5
90
330
42
100
AcDbEntity
  8
001
 62
     3
370
     9
100
AcDbLine
 10
437.955739
 20
20.568315
 30
0.0
 11
438.200231
 21
20.655652
 31
0.0
  0
LINE
  5
91
330
42
100
AcDbEntity
  8
001
 62
     3
370
     9
100
AcDbLine
 10
438.200231
 20
20.655652
 30
0.0
 11
438.301214
 21
20.73206
 31
0.0
  0
LINE
  5
92
330
42
100
AcDbEntity
  8
001
 62
     3
370
     9
100
AcDbLine
 10
438.301214
 20
20.73206
 30
0.0
 11
438.380059
 21
20.835462
 31
0.0
  0
LINE
  5
93
330
42
100
AcDbEntity
  8
001
 62
     3
370
     9
100
AcDbLine
 10
438.380059
 20
20.835462
 30
0.0
 11
438.430797
 21
20.969735
 31
0.0
  0
LINE
  5
94
330
42
100
AcDbEntity
  8
001
 62
     3
370
     9
100
AcDbLine
 10
438.430797
 20
20.969735
 30
0.0
 11
438.444726
 21
21.116266
 31
0.0
  0
LINE
  5
95
330
42
100
AcDbEntity
  8
001
 62
     3
370
     9
100
AcDbLine
 10
438.444726
 20
21.116266
 30
0.0
 11
438.41708
 21
21.231787
 31
0.0
  0
LINE
  5
96
330
42
100
AcDbEntity
  8
001
 62
     3
370
     9
100
AcDbLine
 10
438.41708
 20
21.231787
 30
0.0
 11
438.35488
 21
21.318695
 31
0.0
  0
LINE
  5
97
330
42
100
AcDbEntity
  8
001
 62
     3
370
     9
100
AcDbLine
 10
438.35488
 20
21.318695
 30
0.0
 11
438.156081
 21
21.422222
 31
0.0
  0
LINE
  5
98
330
42
100
AcDbEntity
  8
001
 62
     3
370
     9
100
AcDbLine
 10
438.156081
 20
21.422222
 30
0.0
 11
437.906859
 21
21.457947
 31
0.0
  0
LINE
  5
99
330
42
100
AcDbEntity
  8
001
 62
     3
370
     9
100
AcDbLine
 10
437.906859
 20
21.457947
 30
0.0
 11
437.799953
 21
21.460219
 31
0.0
  0
LINE
  5
9A
330
42
100
AcDbEntity
  8
001
 62
     3
370
     9
100
AcDbLine
 10
437.799953
 20
21.460219
 30
0.0
 11
437.770666
 21
21.460219
 31
0.0
  0
LINE
  5
9B
330
42
100
AcDbEntity
  8
001
 62
     3
370
     9
100
AcDbLine
 10
437.770666
 20
21.460219
 30
0.0
 11
437.735292
 21
21.460219
 31
0.0
  0
LINE
  5
9C
330
42
100
AcDbEntity
  8
001
 62
     3
370
     9
100
AcDbLine
 10
437.735292
 20
21.460219
 30
0.0
 11
437.714121
 21
21.460219
 31
0.0
  0
LINE
  5
9D
330
42
100
AcDbEntity
  8
001
 62
     3
370
     9
100
AcDbLine
 10
437.714121
 20
21.460219
 30
0.0
 11
437.694889
 21
21.355255
 31
0.0
  0
LINE
  5
9E
330
42
100
AcDbEntity
  8
001
 62
     3
370
     9
100
AcDbLine
 10
437.694889
 20
21.355255
 30
0.0
 11
437.638881
 21
21.037284
 31
0.0
  0
LINE
  5
9F
330
42
100
AcDbEntity
  8
001
 62
     3
370
     9
100
AcDbLine
 10
437.638881
 20
21.037284
 30
0.0
 11
437.579336
 21
20.69923
 31
0.0
  0
LINE
  5
A0
330
42
100
AcDbEntity
  8
001
 62
     3
370
     9
100
AcDbLine
 10
437.579336
 20
20.69923
 30
0.0
 11
437.551627
 21
20.541918
 31
0.0
  0
LINE
  5
A1
330
42
100
AcDbEntity
  8
001
 62
     3
370
     9
100
AcDbLine
 10
440.652982
 20
18.509219
 30
0.0
 11
439.695288
 21
18.509219
 31
0.0
  0
LINE
  5
A2
330
42
100
AcDbEntity
  8
001
 62
     3
370
     9
100
AcDbLine
 10
439.695288
 20
18.509219
 30
0.0
 11
440.344621
 21
22.192191
 31
0.0
  0
LINE
  5
A3
330
42
100
AcDbEntity
  8
001
 62
     3
370
     9
100
AcDbLine
 10
440.344621
 20
22.192191
 30
0.0
 11
441.302098
 21
22.192191
 31
0.0
  0
LINE
  5
A4
330
42
100
AcDbEntity
  8
001
 62
     3
370
     9
100
AcDbLine
 10
441.302098
 20
22.192191
 30
0.0
 11
440.652982
 21
18.509219
 31
0.0
  0
LINE
  5
A5
330
42
100
AcDbEntity
  8
001
 62
     3
370
     9
100
AcDbLine
 10
445.160602
 20
22.192191
 30
0.0
 11
443.973549
 21
22.192191
 31
0.0
  0
LINE
  5
A6
330
42
100
AcDbEntity
  8
001
 62
     3
370
     9
100
AcDbLine
 10
443.973549
 20
22.192191
 30
0.0
 11
442.786226
 21
20.926841
 31
0.0
  0
LINE
  5
A7
330
42
100
AcDbEntity
  8
001
 62
     3
370
     9
100
AcDbLine
 10
442.786226
 20
20.926841
 30
0.0
 11
443.009073
 21
22.192191
 31
0.0
  0
LINE
  5
A8
330
42
100
AcDbEntity
  8
001
 62
     3
370
     9
100
AcDbLine
 10
443.009073
 20
22.192191
 30
0.0
 11
442.051596
 21
22.192191
 31
0.0
  0
LINE
  5
A9
330
42
100
AcDbEntity
  8
001
 62
     3
370
     9
100
AcDbLine
 10
442.051596
 20
22.192191
 30
0.0
 11
441.402154
 21
18.509219
 31
0.0
  0
LINE
  5
AA
330
42
100
AcDbEntity
  8
001
 62
     3
370
     9
100
AcDbLine
 10
441.402154
 20
18.509219
 30
0.0
 11
442.359686
 21
18.509219
 31
0.0
  0
LINE
  5
AB
330
42
100
AcDbEntity
  8
001
 62
     3
370
     9
100
AcDbLine
 10
442.359686
 20
18.509219
 30
0.0
 11
442.5974
 21
19.857153
 31
0.0
  0
LINE
  5
AC
330
42
100
AcDbEntity
  8
001
 62
     3
370
     9
100
AcDbLine
 10
442.5974
 20
19.857153
 30
0.0
 11
443.402406
 21
18.509219
 31
0.0
  0
LINE
  5
AD
330
42
100
AcDbEntity
  8
001
 62
     3
370
     9
100
AcDbLine
 10
443.402406
 20
18.509219
 30
0.0
 11
444.643284
 21
18.509219
 31
0.0
  0
LINE
  5
AE
330
42
100
AcDbEntity
  8
001
 62
     3
370
     9
100
AcDbLine
 10
444.643284
 20
18.509219
 30
0.0
 11
443.387647
 21
20.449133
 31
0.0
  0
LINE
  5
AF
330
42
100
AcDbEntity
  8
001
 62
     3
370
     9
100
AcDbLine
 10
443.387647
 20
20.449133
 30
0.0
 11
445.160602
 21
22.192191
 31
0.0
  0
LINE
  5
B0
330
42
100
AcDbEntity
  8
001
 62
     3
370
     9
100
AcDbLine
 10
460.383
 20
18.509219
 30
0.0
 11
459.425632
 21
18.509219
 31
0.0
  0
LINE
  5
B1
330
42
100
AcDbEntity
  8
001
 62
     3
370
     9
100
AcDbLine
 10
459.425632
 20
18.509219
 30
0.0
 11
460.075399
 21
22.192191
 31
0.0
  0
LINE
  5
B2
330
42
100
AcDbEntity
  8
001
 62
     3
370
     9
100
AcDbLine
 10
460.075399
 20
22.192191
 30
0.0
 11
461.032876
 21
22.192191
 31
0.0
  0
LINE
  5
B3
330
42
100
AcDbEntity
  8
001
 62
     3
370
     9
100
AcDbLine
 10
461.032876
 20
22.192191
 30
0.0
 11
460.383
 21
18.509219
 31
0.0
  0
LINE
  5
B4
330
42
100
AcDbEntity
  8
001
 62
     3
370
     9
100
AcDbLine
 10
464.891325
 20
22.192191
 30
0.0
 11
463.704273
 21
22.192191
 31
0.0
  0
LINE
  5
B5
330
42
100
AcDbEntity
  8
001
 62
     3
370
     9
100
AcDbLine
 10
463.704273
 20
22.192191
 30
0.0
 11
462.516732
 21
20.926841
 31
0.0
  0
LINE
  5
B6
330
42
100
AcDbEntity
  8
001
 62
     3
370
     9
100
AcDbLine
 10
462.516732
 20
20.926841
 30
0.0
 11
462.73985
 21
22.192191
 31
0.0
  0
LINE
  5
B7
330
42
100
AcDbEntity
  8
001
 62
     3
370
     9
100
AcDbLine
 10
462.73985
 20
22.192191
 30
0.0
 11
461.782319
 21
22.192191
 31
0.0
  0
LINE
  5
B8
330
42
100
AcDbEntity
  8
001
 62
     3
370
     9
100
AcDbLine
 10
461.782319
 20
22.192191
 30
0.0
 11
461.132715
 21
18.509219
 31
0.0
  0
LINE
  5
B9
330
42
100
AcDbEntity
  8
001
 62
     3
370
     9
100
AcDbLine
 10
461.132715
 20
18.509219
 30
0.0
 11
462.090463
 21
18.509219
 31
0.0
  0
LINE
  5
BA
330
42
100
AcDbEntity
  8
001
 62
     3
370
     9
100
AcDbLine
 10
462.090463
 20
18.509219
 30
0.0
 11
462.328123
 21
19.856719
 31
0.0
  0
LINE
  5
BB
330
42
100
AcDbEntity
  8
001
 62
     3
370
     9
100
AcDbLine
 10
462.328123
 20
19.856719
 30
0.0
 11
463.132966
 21
18.509219
 31
0.0
  0
LINE
  5
BC
330
42
100
AcDbEntity
  8
001
 62
     3
370
     9
100
AcDbLine
 10
463.132966
 20
18.509219
 30
0.0
 11
464.37379
 21
18.509219
 31
0.0
  0
LINE
  5
BD
330
42
100
AcDbEntity
  8
001
 62
     3
370
     9
100
AcDbLine
 10
464.37379
 20
18.509219
 30
0.0
 11
463.118316
 21
20.449133
 31
0.0
  0
LINE
  5
BE
330
42
100
AcDbEntity
  8
001
 62
     3
370
     9
100
AcDbLine
 10
463.118316
 20
20.449133
 30
0.0
 11
464.891325
 21
22.192191
 31
0.0
  0
LINE
  5
BF
330
42
100
AcDbEntity
  8
001
 62
     3
370
     9
100
AcDbLine
 10
446.409511
 20
21.381867
 30
0.0
 11
446.300882
 21
20.766556
 31
0.0
  0
LINE
  5
C0
330
42
100
AcDbEntity
  8
001
 62
     3
370
     9
100
AcDbLine
 10
446.300882
 20
20.766556
 30
0.0
 11
447.85723
 21
20.766556
 31
0.0
  0
LINE
  5
C1
330
42
100
AcDbEntity
  8
001
 62
     3
370
     9
100
AcDbLine
 10
447.85723
 20
20.766556
 30
0.0
 11
447.713982
 21
19.955364
 31
0.0
  0
LINE
  5
C2
330
42
100
AcDbEntity
  8
001
 62
     3
370
     9
100
AcDbLine
 10
447.713982
 20
19.955364
 30
0.0
 11
446.157689
 21
19.955364
 31
0.0
  0
LINE
  5
C3
330
42
100
AcDbEntity
  8
001
 62
     3
370
     9
100
AcDbLine
 10
446.157689
 20
19.955364
 30
0.0
 11
446.04575
 21
19.320628
 31
0.0
  0
LINE
  5
C4
330
42
100
AcDbEntity
  8
001
 62
     3
370
     9
100
AcDbLine
 10
446.04575
 20
19.320628
 30
0.0
 11
447.66097
 21
19.320628
 31
0.0
  0
LINE
  5
C5
330
42
100
AcDbEntity
  8
001
 62
     3
370
     9
100
AcDbLine
 10
447.66097
 20
19.320628
 30
0.0
 11
447.517994
 21
18.509219
 31
0.0
  0
LINE
  5
C6
330
42
100
AcDbEntity
  8
001
 62
     3
370
     9
100
AcDbLine
 10
447.517994
 20
18.509219
 30
0.0
 11
444.945622
 21
18.509219
 31
0.0
  0
LINE
  5
C7
330
42
100
AcDbEntity
  8
001
 62
     3
370
     9
100
AcDbLine
 10
444.945622
 20
18.509219
 30
0.0
 11
445.595227
 21
22.192191
 31
0.0
  0
LINE
  5
C8
330
42
100
AcDbEntity
  8
001
 62
     3
370
     9
100
AcDbLine
 10
445.595227
 20
22.192191
 30
0.0
 11
448.167381
 21
22.192191
 31
0.0
  0
LINE
  5
C9
330
42
100
AcDbEntity
  8
001
 62
     3
370
     9
100
AcDbLine
 10
448.167381
 20
22.192191
 30
0.0
 11
448.024406
 21
21.381867
 31
0.0
  0
LINE
  5
CA
330
42
100
AcDbEntity
  8
001
 62
     3
370
     9
100
AcDbLine
 10
448.024406
 20
21.381867
 30
0.0
 11
446.409511
 21
21.381867
 31
0.0
  0
LINE
  5
CB
330
42
100
AcDbEntity
  8
001
 62
     3
370
     9
100
AcDbLine
 10
457.58496
 20
21.381867
 30
0.0
 11
457.476494
 21
20.766556
 31
0.0
  0
LINE
  5
CC
330
42
100
AcDbEntity
  8
001
 62
     3
370
     9
100
AcDbLine
 10
457.476494
 20
20.766556
 30
0.0
 11
459.032625
 21
20.766556
 31
0.0
  0
LINE
  5
CD
330
42
100
AcDbEntity
  8
001
 62
     3
370
     9
100
AcDbLine
 10
459.032625
 20
20.766556
 30
0.0
 11
458.88916
 21
19.955364
 31
0.0
  0
LINE
  5
CE
330
42
100
AcDbEntity
  8
001
 62
     3
370
     9
100
AcDbLine
 10
458.88916
 20
19.955364
 30
0.0
 11
457.333409
 21
19.955364
 31
0.0
  0
LINE
  5
CF
330
42
100
AcDbEntity
  8
001
 62
     3
370
     9
100
AcDbLine
 10
457.333409
 20
19.955364
 30
0.0
 11
457.22147
 21
19.320628
 31
0.0
  0
LINE
  5
D0
330
42
100
AcDbEntity
  8
001
 62
     3
370
     9
100
AcDbLine
 10
457.22147
 20
19.320628
 30
0.0
 11
458.836148
 21
19.320628
 31
0.0
  0
LINE
  5
D1
330
42
100
AcDbEntity
  8
001
 62
     3
370
     9
100
AcDbLine
 10
458.836148
 20
19.320628
 30
0.0
 11
458.693281
 21
18.509219
 31
0.0
  0
LINE
  5
D2
330
42
100
AcDbEntity
  8
001
 62
     3
370
     9
100
AcDbLine
 10
458.693281
 20
18.509219
 30
0.0
 11
456.120746
 21
18.509219
 31
0.0
  0
LINE
  5
D3
330
42
100
AcDbEntity
  8
001
 62
     3
370
     9
100
AcDbLine
 10
456.120746
 20
18.509219
 30
0.0
 11
456.770405
 21
22.192191
 31
0.0
  0
LINE
  5
D4
330
42
100
AcDbEntity
  8
001
 62
     3
370
     9
100
AcDbLine
 10
456.770405
 20
22.192191
 30
0.0
 11
459.342559
 21
22.192191
 31
0.0
  0
LINE
  5
D5
330
42
100
AcDbEntity
  8
001
 62
     3
370
     9
100
AcDbLine
 10
459.342559
 20
22.192191
 30
0.0
 11
459.199692
 21
21.381867
 31
0.0
  0
LINE
  5
D6
330
42
100
AcDbEntity
  8
001
 62
     3
370
     9
100
AcDbLine
 10
459.199692
 20
21.381867
 30
0.0
 11
457.58496
 21
21.381867
 31
0.0
  0
LINE
  5
D7
330
42
100
AcDbEntity
  8
001
 62
     3
370
     9
100
AcDbLine
 10
448.816986
 20
22.192191
 30
0.0
 11
449.774517
 21
22.192191
 31
0.0
  0
LINE
  5
D8
330
42
100
AcDbEntity
  8
001
 62
     3
370
     9
100
AcDbLine
 10
449.774517
 20
22.192191
 30
0.0
 11
450.696725
 21
20.178591
 31
0.0
  0
LINE
  5
D9
330
42
100
AcDbEntity
  8
001
 62
     3
370
     9
100
AcDbLine
 10
450.696725
 20
20.178591
 30
0.0
 11
450.70622
 21
20.178591
 31
0.0
  0
LINE
  5
DA
330
42
100
AcDbEntity
  8
001
 62
     3
370
     9
100
AcDbLine
 10
450.70622
 20
20.178591
 30
0.0
 11
451.061408
 21
22.192191
 31
0.0
  0
LINE
  5
DB
330
42
100
AcDbEntity
  8
001
 62
     3
370
     9
100
AcDbLine
 10
451.061408
 20
22.192191
 30
0.0
 11
452.019319
 21
22.192191
 31
0.0
  0
LINE
  5
DC
330
42
100
AcDbEntity
  8
001
 62
     3
370
     9
100
AcDbLine
 10
452.019319
 20
22.192191
 30
0.0
 11
451.370041
 21
18.509219
 31
0.0
  0
LINE
  5
DD
330
42
100
AcDbEntity
  8
001
 62
     3
370
     9
100
AcDbLine
 10
451.370041
 20
18.509219
 30
0.0
 11
450.412021
 21
18.509219
 31
0.0
  0
LINE
  5
DE
330
42
100
AcDbEntity
  8
001
 62
     3
370
     9
100
AcDbLine
 10
450.412021
 20
18.509219
 30
0.0
 11
449.490953
 21
20.528462
 31
0.0
  0
LINE
  5
DF
330
42
100
AcDbEntity
  8
001
 62
     3
370
     9
100
AcDbLine
 10
449.490953
 20
20.528462
 30
0.0
 11
449.480969
 21
20.528462
 31
0.0
  0
LINE
  5
E0
330
42
100
AcDbEntity
  8
001
 62
     3
370
     9
100
AcDbLine
 10
449.480969
 20
20.528462
 30
0.0
 11
449.124913
 21
18.509219
 31
0.0
  0
LINE
  5
E1
330
42
100
AcDbEntity
  8
001
 62
     3
370
     9
100
AcDbLine
 10
449.124913
 20
18.509219
 30
0.0
 11
448.167381
 21
18.509219
 31
0.0
  0
LINE
  5
E2
330
42
100
AcDbEntity
  8
001
 62
     3
370
     9
100
AcDbLine
 10
448.167381
 20
18.509219
 30
0.0
 11
448.816986
 21
22.192191
 31
0.0
  0
LINE
  5
E3
330
42
100
AcDbEntity
  8
001
 62
     3
370
     9
100
AcDbLine
 10
455.623342
 20
21.245349
 30
0.0
 11
455.469409
 21
21.365169
 31
0.0
  0
LINE
  5
E4
330
42
100
AcDbEntity
  8
001
 62
     3
370
     9
100
AcDbLine
 10
455.469409
 20
21.365169
 30
0.0
 11
455.288152
 21
21.448822
 31
0.0
  0
LINE
  5
E5
330
42
100
AcDbEntity
  8
001
 62
     3
370
     9
100
AcDbLine
 10
455.288152
 20
21.448822
 30
0.0
 11
455.084922
 21
21.487698
 31
0.0
  0
LINE
  5
E6
330
42
100
AcDbEntity
  8
001
 62
     3
370
     9
100
AcDbLine
 10
455.084922
 20
21.487698
 30
0.0
 11
454.900943
 21
21.473102
 31
0.0
  0
LINE
  5
E7
330
42
100
AcDbEntity
  8
001
 62
     3
370
     9
100
AcDbLine
 10
454.900943
 20
21.473102
 30
0.0
 11
454.726199
 21
21.400403
 31
0.0
  0
LINE
  5
E8
330
42
100
AcDbEntity
  8
001
 62
     3
370
     9
100
AcDbLine
 10
454.726199
 20
21.400403
 30
0.0
 11
454.597518
 21
21.269089
 31
0.0
  0
LINE
  5
E9
330
42
100
AcDbEntity
  8
001
 62
     3
370
     9
100
AcDbLine
 10
454.597518
 20
21.269089
 30
0.0
 11
454.566514
 21
21.181321
 31
0.0
  0
LINE
  5
EA
330
42
100
AcDbEntity
  8
001
 62
     3
370
     9
100
AcDbLine
 10
454.566514
 20
21.181321
 30
0.0
 11
454.567754
 21
21.091241
 31
0.0
  0
LINE
  5
EB
330
42
100
AcDbEntity
  8
001
 62
     3
370
     9
100
AcDbLine
 10
454.567754
 20
21.091241
 30
0.0
 11
454.657985
 21
20.958112
 31
0.0
  0
LINE
  5
EC
330
42
100
AcDbEntity
  8
001
 62
     3
370
     9
100
AcDbLine
 10
454.657985
 20
20.958112
 30
0.0
 11
454.811628
 21
20.872989
 31
0.0
  0
LINE
  5
ED
330
42
100
AcDbEntity
  8
001
 62
     3
370
     9
100
AcDbLine
 10
454.811628
 20
20.872989
 30
0.0
 11
454.933681
 21
20.828809
 31
0.0
  0
LINE
  5
EE
330
42
100
AcDbEntity
  8
001
 62
     3
370
     9
100
AcDbLine
 10
454.933681
 20
20.828809
 30
0.0
 11
455.006083
 21
20.805904
 31
0.0
  0
LINE
  5
EF
330
42
100
AcDbEntity
  8
001
 62
     3
370
     9
100
AcDbLine
 10
455.006083
 20
20.805904
 30
0.0
 11
455.108793
 21
20.77341
 31
0.0
  0
LINE
  5
F0
330
42
100
AcDbEntity
  8
001
 62
     3
370
     9
100
AcDbLine
 10
455.108793
 20
20.77341
 30
0.0
 11
455.16099
 21
20.756897
 31
0.0
  0
LINE
  5
F1
330
42
100
AcDbEntity
  8
001
 62
     3
370
     9
100
AcDbLine
 10
455.16099
 20
20.756897
 30
0.0
 11
455.561745
 21
20.579853
 31
0.0
  0
LINE
  5
F2
330
42
100
AcDbEntity
  8
001
 62
     3
370
     9
100
AcDbLine
 10
455.561745
 20
20.579853
 30
0.0
 11
455.71574
 21
20.455902
 31
0.0
  0
LINE
  5
F3
330
42
100
AcDbEntity
  8
001
 62
     3
370
     9
100
AcDbLine
 10
455.71574
 20
20.455902
 30
0.0
 11
455.82953
 21
20.301644
 31
0.0
  0
LINE
  5
F4
330
42
100
AcDbEntity
  8
001
 62
     3
370
     9
100
AcDbLine
 10
455.82953
 20
20.301644
 30
0.0
 11
455.896153
 21
20.112061
 31
0.0
  0
LINE
  5
F5
330
42
100
AcDbEntity
  8
001
 62
     3
370
     9
100
AcDbLine
 10
455.896153
 20
20.112061
 30
0.0
 11
455.908646
 21
19.882136
 31
0.0
  0
LINE
  5
F6
330
42
100
AcDbEntity
  8
001
 62
     3
370
     9
100
AcDbLine
 10
455.908646
 20
19.882136
 30
0.0
 11
455.832068
 21
19.49672
 31
0.0
  0
LINE
  5
F7
330
42
100
AcDbEntity
  8
001
 62
     3
370
     9
100
AcDbLine
 10
455.832068
 20
19.49672
 30
0.0
 11
455.695301
 21
19.171227
 31
0.0
  0
LINE
  5
F8
330
42
100
AcDbEntity
  8
001
 62
     3
370
     9
100
AcDbLine
 10
455.695301
 20
19.171227
 30
0.0
 11
455.479257
 21
18.882067
 31
0.0
  0
LINE
  5
F9
330
42
100
AcDbEntity
  8
001
 62
     3
370
     9
100
AcDbLine
 10
455.479257
 20
18.882067
 30
0.0
 11
455.178738
 21
18.655717
 31
0.0
  0
LINE
  5
FA
330
42
100
AcDbEntity
  8
001
 62
     3
370
     9
100
AcDbLine
 10
455.178738
 20
18.655717
 30
0.0
 11
454.841562
 21
18.507117
 31
0.0
  0
LINE
  5
FB
330
42
100
AcDbEntity
  8
001
 62
     3
370
     9
100
AcDbLine
 10
454.841562
 20
18.507117
 30
0.0
 11
454.490621
 21
18.428726
 31
0.0
  0
LINE
  5
FC
330
42
100
AcDbEntity
  8
001
 62
     3
370
     9
100
AcDbLine
 10
454.490621
 20
18.428726
 30
0.0
 11
454.123023
 21
18.414626
 31
0.0
  0
LINE
  5
FD
330
42
100
AcDbEntity
  8
001
 62
     3
370
     9
100
AcDbLine
 10
454.123023
 20
18.414626
 30
0.0
 11
453.71393
 21
18.478437
 31
0.0
  0
LINE
  5
FE
330
42
100
AcDbEntity
  8
001
 62
     3
370
     9
100
AcDbLine
 10
453.71393
 20
18.478437
 30
0.0
 11
453.339209
 21
18.620428
 31
0.0
  0
LINE
  5
FF
330
42
100
AcDbEntity
  8
001
 62
     3
370
     9
100
AcDbLine
 10
453.339209
 20
18.620428
 30
0.0
 11
453.009244
 21
18.832176
 31
0.0
  0
LINE
  5
100
330
42
100
AcDbEntity
  8
001
 62
     3
370
     9
100
AcDbLine
 10
453.009244
 20
18.832176
 30
0.0
 11
453.132576
 21
19.006346
 31
0.0
  0
LINE
  5
101
330
42
100
AcDbEntity
  8
001
 62
     3
370
     9
100
AcDbLine
 10
453.132576
 20
19.006346
 30
0.0
 11
453.375263
 21
19.349067
 31
0.0
  0
LINE
  5
102
330
42
100
AcDbEntity
  8
001
 62
     3
370
     9
100
AcDbLine
 10
453.375263
 20
19.349067
 30
0.0
 11
453.546337
 21
19.590657
 31
0.0
  0
LINE
  5
103
330
42
100
AcDbEntity
  8
001
 62
     3
370
     9
100
AcDbLine
 10
453.546337
 20
19.590657
 30
0.0
 11
453.555537
 21
19.603649
 31
0.0
  0
LINE
  5
104
330
42
100
AcDbEntity
  8
001
 62
     3
370
     9
100
AcDbLine
 10
453.555537
 20
19.603649
 30
0.0
 11
453.703987
 21
19.466253
 31
0.0
  0
LINE
  5
105
330
42
100
AcDbEntity
  8
001
 62
     3
370
     9
100
AcDbLine
 10
453.703987
 20
19.466253
 30
0.0
 11
453.930311
 21
19.319346
 31
0.0
  0
LINE
  5
106
330
42
100
AcDbEntity
  8
001
 62
     3
370
     9
100
AcDbLine
 10
453.930311
 20
19.319346
 30
0.0
 11
454.192661
 21
19.234913
 31
0.0
  0
LINE
  5
107
330
42
100
AcDbEntity
  8
001
 62
     3
370
     9
100
AcDbLine
 10
454.192661
 20
19.234913
 30
0.0
 11
454.443742
 21
19.231367
 31
0.0
  0
LINE
  5
108
330
42
100
AcDbEntity
  8
001
 62
     3
370
     9
100
AcDbLine
 10
454.443742
 20
19.231367
 30
0.0
 11
454.647151
 21
19.298242
 31
0.0
  0
LINE
  5
109
330
42
100
AcDbEntity
  8
001
 62
     3
370
     9
100
AcDbLine
 10
454.647151
 20
19.298242
 30
0.0
 11
454.805279
 21
19.437644
 31
0.0
  0
LINE
  5
10A
330
42
100
AcDbEntity
  8
001
 62
     3
370
     9
100
AcDbLine
 10
454.805279
 20
19.437644
 30
0.0
 11
454.85385
 21
19.536386
 31
0.0
  0
LINE
  5
10B
330
42
100
AcDbEntity
  8
001
 62
     3
370
     9
100
AcDbLine
 10
454.85385
 20
19.536386
 30
0.0
 11
454.872045
 21
19.65249
 31
0.0
  0
LINE
  5
10C
330
42
100
AcDbEntity
  8
001
 62
     3
370
     9
100
AcDbLine
 10
454.872045
 20
19.65249
 30
0.0
 11
454.842775
 21
19.753469
 31
0.0
  0
LINE
  5
10D
330
42
100
AcDbEntity
  8
001
 62
     3
370
     9
100
AcDbLine
 10
454.842775
 20
19.753469
 30
0.0
 11
454.774487
 21
19.833965
 31
0.0
  0
LINE
  5
10E
330
42
100
AcDbEntity
  8
001
 62
     3
370
     9
100
AcDbLine
 10
454.774487
 20
19.833965
 30
0.0
 11
454.5708
 21
19.946032
 31
0.0
  0
LINE
  5
10F
330
42
100
AcDbEntity
  8
001
 62
     3
370
     9
100
AcDbLine
 10
454.5708
 20
19.946032
 30
0.0
 11
454.360868
 21
20.013749
 31
0.0
  0
LINE
  5
110
330
42
100
AcDbEntity
  8
001
 62
     3
370
     9
100
AcDbLine
 10
454.360868
 20
20.013749
 30
0.0
 11
453.900012
 21
20.184273
 31
0.0
  0
LINE
  5
111
330
42
100
AcDbEntity
  8
001
 62
     3
370
     9
100
AcDbLine
 10
453.900012
 20
20.184273
 30
0.0
 11
453.728687
 21
20.297547
 31
0.0
  0
LINE
  5
112
330
42
100
AcDbEntity
  8
001
 62
     3
370
     9
100
AcDbLine
 10
453.728687
 20
20.297547
 30
0.0
 11
453.605228
 21
20.446164
 31
0.0
  0
LINE
  5
113
330
42
100
AcDbEntity
  8
001
 62
     3
370
     9
100
AcDbLine
 10
453.605228
 20
20.446164
 30
0.0
 11
453.535986
 21
20.642621
 31
0.0
  0
LINE
  5
114
330
42
100
AcDbEntity
  8
001
 62
     3
370
     9
100
AcDbLine
 10
453.535986
 20
20.642621
 30
0.0
 11
453.52731
 21
20.899419
 31
0.0
  0
LINE
  5
115
330
42
100
AcDbEntity
  8
001
 62
     3
370
     9
100
AcDbLine
 10
453.52731
 20
20.899419
 30
0.0
 11
453.586553
 21
21.222222
 31
0.0
  0
LINE
  5
116
330
42
100
AcDbEntity
  8
001
 62
     3
370
     9
100
AcDbLine
 10
453.586553
 20
21.222222
 30
0.0
 11
453.71213
 21
21.527862
 31
0.0
  0
LINE
  5
117
330
42
100
AcDbEntity
  8
001
 62
     3
370
     9
100
AcDbLine
 10
453.71213
 20
21.527862
 30
0.0
 11
453.894773
 21
21.789187
 31
0.0
  0
LINE
  5
118
330
42
100
AcDbEntity
  8
001
 62
     3
370
     9
100
AcDbLine
 10
453.894773
 20
21.789187
 30
0.0
 11
454.126467
 21
22.001177
 31
0.0
  0
LINE
  5
119
330
42
100
AcDbEntity
  8
001
 62
     3
370
     9
100
AcDbLine
 10
454.126467
 20
22.001177
 30
0.0
 11
454.399196
 21
22.158813
 31
0.0
  0
LINE
  5
11A
330
42
100
AcDbEntity
  8
001
 62
     3
370
     9
100
AcDbLine
 10
454.399196
 20
22.158813
 30
0.0
 11
454.704947
 21
22.257075
 31
0.0
  0
LINE
  5
11B
330
42
100
AcDbEntity
  8
001
 62
     3
370
     9
100
AcDbLine
 10
454.704947
 20
22.257075
 30
0.0
 11
455.035703
 21
22.290944
 31
0.0
  0
LINE
  5
11C
330
42
100
AcDbEntity
  8
001
 62
     3
370
     9
100
AcDbLine
 10
455.035703
 20
22.290944
 30
0.0
 11
455.210757
 21
22.282739
 31
0.0
  0
LINE
  5
11D
330
42
100
AcDbEntity
  8
001
 62
     3
370
     9
100
AcDbLine
 10
455.210757
 20
22.282739
 30
0.0
 11
455.569793
 21
22.220447
 31
0.0
  0
LINE
  5
11E
330
42
100
AcDbEntity
  8
001
 62
     3
370
     9
100
AcDbLine
 10
455.569793
 20
22.220447
 30
0.0
 11
455.91146
 21
22.104424
 31
0.0
  0
LINE
  5
11F
330
42
100
AcDbEntity
  8
001
 62
     3
370
     9
100
AcDbLine
 10
455.91146
 20
22.104424
 30
0.0
 11
456.126559
 21
21.975022
 31
0.0
  0
LINE
  5
120
330
42
100
AcDbEntity
  8
001
 62
     3
370
     9
100
AcDbLine
 10
456.126559
 20
21.975022
 30
0.0
 11
455.966275
 21
21.742607
 31
0.0
  0
LINE
  5
121
330
42
100
AcDbEntity
  8
001
 62
     3
370
     9
100
AcDbLine
 10
455.966275
 20
21.742607
 30
0.0
 11
455.738896
 21
21.412903
 31
0.0
  0
LINE
  5
122
330
42
100
AcDbEntity
  8
001
 62
     3
370
     9
100
AcDbLine
 10
455.738896
 20
21.412903
 30
0.0
 11
455.623342
 21
21.245349
 31
0.0
  0
LINE
  5
123
330
42
100
AcDbEntity
  8
001
 62
     3
370
     9
100
AcDbLine
 10
465.703547
 20
18.509219
 30
0.0
 11
464.745799
 21
18.509219
 31
0.0
  0
LINE
  5
124
330
42
100
AcDbEntity
  8
001
 62
     3
370
     9
100
AcDbLine
 10
464.745799
 20
18.509219
 30
0.0
 11
465.394969
 21
22.192191
 31
0.0
  0
LINE
  5
125
330
42
100
AcDbEntity
  8
001
 62
     3
370
     9
100
AcDbLine
 10
465.394969
 20
22.192191
 30
0.0
 11
466.352935
 21
22.192191
 31
0.0
  0
LINE
  5
126
330
42
100
AcDbEntity
  8
001
 62
     3
370
     9
100
AcDbLine
 10
466.352935
 20
22.192191
 30
0.0
 11
465.703547
 21
18.509219
 31
0.0
  0
LINE
  5
127
330
42
100
AcDbEntity
  8
001
 62
     3
370
     9
100
AcDbLine
 10
433.817206
 20
21.017937
 30
0.0
 11
434.619474
 21
21.820205
 31
0.0
  0
LINE
  5
128
330
42
100
AcDbEntity
  8
001
 62
     3
370
     9
100
AcDbLine
 10
433.55861
 20
20.841197
 30
0.0
 11
434.781506
 21
22.064093
 31
0.0
  0
LINE
  5
129
330
42
100
AcDbEntity
  8
001
 62
     3
370
     9
100
AcDbLine
 10
433.359192
 20
20.723636
 30
0.0
 11
434.888401
 21
22.252845
 31
0.0
  0
LINE
  5
12A
330
42
100
AcDbEntity
  8
001
 62
     3
370
     9
100
AcDbLine
 10
433.18817
 20
20.63447
 30
0.0
 11
434.968695
 21
22.414995
 31
0.0
  0
LINE
  5
12B
330
42
100
AcDbEntity
  8
001
 62
     3
370
     9
100
AcDbLine
 10
433.03485
 20
20.563006
 30
0.0
 11
435.032354
 21
22.56051
 31
0.0
  0
LINE
  5
12C
330
42
100
AcDbEntity
  8
001
 62
     3
370
     9
100
AcDbLine
 10
432.893993
 20
20.504005
 30
0.0
 11
435.084273
 21
22.694286
 31
0.0
  0
LINE
  5
12D
330
42
100
AcDbEntity
  8
001
 62
     3
370
     9
100
AcDbLine
 10
432.762563
 20
20.454432
 30
0.0
 11
435.127293
 21
22.819162
 31
0.0
  0
LINE
  5
12E
330
42
100
AcDbEntity
  8
001
 62
     3
370
     9
100
AcDbLine
 10
432.638612
 20
20.412338
 30
0.0
 11
435.158457
 21
22.932183
 31
0.0
  0
LINE
  5
12F
330
42
100
AcDbEntity
  8
001
 62
     3
370
     9
100
AcDbLine
 10
432.520803
 20
20.376385
 30
0.0
 11
435.181306
 21
23.036889
 31
0.0
  0
LINE
  5
130
330
42
100
AcDbEntity
  8
001
 62
     3
370
     9
100
AcDbLine
 10
432.408166
 20
20.345605
 30
0.0
 11
435.198136
 21
23.135575
 31
0.0
  0
LINE
  5
131
330
42
100
AcDbEntity
  8
001
 62
     3
370
     9
100
AcDbLine
 10
432.299975
 20
20.319271
 30
0.0
 11
435.209985
 21
23.229281
 31
0.0
  0
LINE
  5
132
330
42
100
AcDbEntity
  8
001
 62
     3
370
     9
100
AcDbLine
 10
432.195668
 20
20.29682
 30
0.0
 11
435.217604
 21
23.318756
 31
0.0
  0
LINE
  5
133
330
42
100
AcDbEntity
  8
001
 62
     3
370
     9
100
AcDbLine
 10
432.094798
 20
20.277806
 30
0.0
 11
435.221554
 21
23.404562
 31
0.0
  0
LINE
  5
134
330
42
100
AcDbEntity
  8
001
 62
     3
370
     9
100
AcDbLine
 10
431.997003
 20
20.261867
 30
0.0
 11
435.222269
 21
23.487134
 31
0.0
  0
LINE
  5
135
330
42
100
AcDbEntity
  8
001
 62
     3
370
     9
100
AcDbLine
 10
431.901986
 20
20.248707
 30
0.0
 11
435.220093
 21
23.566814
 31
0.0
  0
LINE
  5
136
330
42
100
AcDbEntity
  8
001
 62
     3
370
     9
100
AcDbLine
 10
431.8095
 20
20.238078
 30
0.0
 11
435.215301
 21
23.643879
 31
0.0
  0
LINE
  5
137
330
42
100
AcDbEntity
  8
001
 62
     3
370
     9
100
AcDbLine
 10
431.719335
 20
20.229769
 30
0.0
 11
435.208123
 21
23.718556
 31
0.0
  0
LINE
  5
138
330
42
100
AcDbEntity
  8
001
 62
     3
370
     9
100
AcDbLine
 10
431.631311
 20
20.223601
 30
0.0
 11
433.359811
 21
21.952101
 31
0.0
  0
LINE
  5
139
330
42
100
AcDbEntity
  8
001
 62
     3
370
     9
100
AcDbLine
 10
433.519293
 20
22.111583
 30
0.0
 11
435.198745
 21
23.791036
 31
0.0
  0
LINE
  5
13A
330
42
100
AcDbEntity
  8
001
 62
     3
370
     9
100
AcDbLine
 10
431.545274
 20
20.21942
 30
0.0
 11
433.323048
 21
21.997195
 31
0.0
  0
LINE
  5
13B
330
42
100
AcDbEntity
  8
001
 62
     3
370
     9
100
AcDbLine
 10
433.607341
 20
22.281488
 30
0.0
 11
435.187329
 21
23.861475
 31
0.0
  0
LINE
  5
13C
330
42
100
AcDbEntity
  8
001
 62
     3
370
     9
100
AcDbLine
 10
431.461089
 20
20.217092
 30
0.0
 11
431.775133
 21
20.531136
 31
0.0
  0
LINE
  5
13D
330
42
100
AcDbEntity
  8
001
 62
     3
370
     9
100
AcDbLine
 10
431.872293
 20
20.628296
 30
0.0
 11
433.28591
 21
22.041913
 31
0.0
  0
LINE
  5
13E
330
42
100
AcDbEntity
  8
001
 62
     3
370
     9
100
AcDbLine
 10
433.674303
 20
22.430306
 30
0.0
 11
435.174008
 21
23.930011
 31
0.0
  0
LINE
  5
13F
330
42
100
AcDbEntity
  8
001
 62
     3
370
     9
100
AcDbLine
 10
431.37864
 20
20.216499
 30
0.0
 11
431.634041
 21
20.4719
 31
0.0
  0
LINE
  5
140
330
42
100
AcDbEntity
  8
001
 62
     3
370
     9
100
AcDbLine
 10
431.847243
 20
20.685102
 30
0.0
 11
433.248398
 21
22.086257
 31
0.0
  0
LINE
  5
141
330
42
100
AcDbEntity
  8
001
 62
     3
370
     9
100
AcDbLine
 10
433.727376
 20
22.565236
 30
0.0
 11
435.158899
 21
23.996758
 31
0.0
  0
LINE
  5
142
330
42
100
AcDbEntity
  8
001
 62
     3
370
     9
100
AcDbLine
 10
431.309946
 20
20.229662
 30
0.0
 11
431.505592
 21
20.425308
 31
0.0
  0
LINE
  5
143
330
42
100
AcDbEntity
  8
001
 62
     3
370
     9
100
AcDbLine
 10
431.821626
 20
20.741342
 30
0.0
 11
433.210512
 21
22.130228
 31
0.0
  0
LINE
  5
144
330
42
100
AcDbEntity
  8
001
 62
     3
370
     9
100
AcDbLine
 10
433.767795
 20
22.687511
 30
0.0
 11
435.142101
 21
24.061817
 31
0.0
  0
LINE
  5
145
330
42
100
AcDbEntity
  8
001
 62
     3
370
     9
100
AcDbLine
 10
431.276226
 20
20.277799
 30
0.0
 11
431.386456
 21
20.388028
 31
0.0
  0
LINE
  5
146
330
42
100
AcDbEntity
  8
001
 62
     3
370
     9
100
AcDbLine
 10
431.795452
 20
20.797024
 30
0.0
 11
433.172254
 21
22.173826
 31
0.0
  0
LINE
  5
147
330
42
100
AcDbEntity
  8
001
 62
     3
370
     9
100
AcDbLine
 10
433.792843
 20
22.794415
 30
0.0
 11
435.123135
 21
24.124707
 31
0.0
  0
LINE
  5
148
330
42
100
AcDbEntity
  8
001
 62
     3
370
     9
100
AcDbLine
 10
431.768726
 20
20.852155
 30
0.0
 11
433.133624
 21
22.217053
 31
0.0
  0
LINE
  5
149
330
42
100
AcDbEntity
  8
001
 62
     3
370
     9
100
AcDbLine
 10
433.808789
 20
22.892218
 30
0.0
 11
435.10166
 21
24.185089
 31
0.0
  0
LINE
  5
14A
330
42
100
AcDbEntity
  8
001
 62
     3
370
     9
100
AcDbLine
 10
431.741455
 20
20.906741
 30
0.0
 11
433.094622
 21
22.259908
 31
0.0
  0
LINE
  5
14B
330
42
100
AcDbEntity
  8
001
 62
     3
370
     9
100
AcDbLine
 10
433.817832
 20
22.983117
 30
0.0
 11
435.07863
 21
24.243916
 31
0.0
  0
LINE
  5
14C
330
42
100
AcDbEntity
  8
001
 62
     3
370
     9
100
AcDbLine
 10
431.713647
 20
20.960789
 30
0.0
 11
433.05525
 21
22.302392
 31
0.0
  0
LINE
  5
14D
330
42
100
AcDbEntity
  8
001
 62
     3
370
     9
100
AcDbLine
 10
433.821348
 20
23.06849
 30
0.0
 11
435.054108
 21
24.30125
 31
0.0
  0
LINE
  5
14E
330
42
100
AcDbEntity
  8
001
 62
     3
370
     9
100
AcDbLine
 10
431.685307
 20
21.014305
 30
0.0
 11
433.015507
 21
22.344505
 31
0.0
  0
LINE
  5
14F
330
42
100
AcDbEntity
  8
001
 62
     3
370
     9
100
AcDbLine
 10
433.820269
 20
23.149267
 30
0.0
 11
435.028148
 21
24.357147
 31
0.0
  0
LINE
  5
150
330
42
100
AcDbEntity
  8
001
 62
     3
370
     9
100
AcDbLine
 10
431.65644
 20
21.067295
 30
0.0
 11
432.975394
 21
22.386249
 31
0.0
  0
LINE
  5
151
330
42
100
AcDbEntity
  8
001
 62
     3
370
     9
100
AcDbLine
 10
433.810951
 20
23.221806
 30
0.0
 11
435.000798
 21
24.411652
 31
0.0
  0
LINE
  5
152
330
42
100
AcDbEntity
  8
001
 62
     3
370
     9
100
AcDbLine
 10
431.627053
 20
21.119764
 30
0.0
 11
432.934911
 21
22.427622
 31
0.0
  0
LINE
  5
153
330
42
100
AcDbEntity
  8
001
 62
     3
370
     9
100
AcDbLine
 10
433.796753
 20
23.289464
 30
0.0
 11
434.972097
 21
24.464809
 31
0.0
  0
LINE
  5
154
330
42
100
AcDbEntity
  8
001
 62
     3
370
     9
100
AcDbLine
 10
431.59715
 20
21.171718
 30
0.0
 11
432.894058
 21
22.468625
 31
0.0
  0
LINE
  5
155
330
42
100
AcDbEntity
  8
001
 62
     3
370
     9
100
AcDbLine
 10
433.778539
 20
23.353107
 30
0.0
 11
434.942083
 21
24.516651
 31
0.0
  0
LINE
  5
156
330
42
100
AcDbEntity
  8
001
 62
     3
370
     9
100
AcDbLine
 10
431.566737
 20
21.223161
 30
0.0
 11
432.852835
 21
22.509259
 31
0.0
  0
LINE
  5
157
330
42
100
AcDbEntity
  8
001
 62
     3
370
     9
100
AcDbLine
 10
433.756758
 20
23.413182
 30
0.0
 11
434.910786
 21
24.56721
 31
0.0
  0
LINE
  5
158
330
42
100
AcDbEntity
  8
001
 62
     3
370
     9
100
AcDbLine
 10
431.535817
 20
21.274098
 30
0.0
 11
432.811242
 21
22.549523
 31
0.0
  0
LINE
  5
159
330
42
100
AcDbEntity
  8
001
 62
     3
370
     9
100
AcDbLine
 10
433.731734
 20
23.470015
 30
0.0
 11
434.878232
 21
24.616512
 31
0.0
  0
LINE
  5
15A
330
42
100
AcDbEntity
  8
001
 62
     3
370
     9
100
AcDbLine
 10
431.504396
 20
21.324533
 30
0.0
 11
432.769279
 21
22.589416
 31
0.0
  0
LINE
  5
15B
330
42
100
AcDbEntity
  8
001
 62
     3
370
     9
100
AcDbLine
 10
433.70371
 20
23.523847
 30
0.0
 11
434.844443
 21
24.66458
 31
0.0
  0
LINE
  5
15C
330
42
100
AcDbEntity
  8
001
 62
     3
370
     9
100
AcDbLine
 10
431.472477
 20
21.37447
 30
0.0
 11
432.726946
 21
22.628939
 31
0.0
  0
LINE
  5
15D
330
42
100
AcDbEntity
  8
001
 62
     3
370
     9
100
AcDbLine
 10
433.672864
 20
23.574858
 30
0.0
 11
434.809439
 21
24.711432
 31
0.0
  0
LINE
  5
15E
330
42
100
AcDbEntity
  8
001
 62
     3
370
     9
100
AcDbLine
 10
431.440064
 20
21.423914
 30
0.0
 11
432.684242
 21
22.668091
 31
0.0
  0
LINE
  5
15F
330
42
100
AcDbEntity
  8
001
 62
     3
370
     9
100
AcDbLine
 10
433.639326
 20
23.623176
 30
0.0
 11
434.773234
 21
24.757084
 31
0.0
  0
LINE
  5
160
330
42
100
AcDbEntity
  8
001
 62
     3
370
     9
100
AcDbLine
 10
431.40716
 20
21.472866
 30
0.0
 11
432.641166
 21
22.706873
 31
0.0
  0
LINE
  5
161
330
42
100
AcDbEntity
  8
001
 62
     3
370
     9
100
AcDbLine
 10
433.603185
 20
23.668892
 30
0.0
 11
434.73584
 21
24.801547
 31
0.0
  0
LINE
  5
162
330
42
100
AcDbEntity
  8
001
 62
     3
370
     9
100
AcDbLine
 10
431.373769
 20
21.521332
 30
0.0
 11
432.597719
 21
22.745282
 31
0.0
  0
LINE
  5
163
330
42
100
AcDbEntity
  8
001
 62
     3
370
     9
100
AcDbLine
 10
433.564498
 20
23.712061
 30
0.0
 11
434.697267
 21
24.84483
 31
0.0
  0
LINE
  5
164
330
42
100
AcDbEntity
  8
001
 62
     3
370
     9
100
AcDbLine
 10
431.339894
 20
21.569313
 30
0.0
 11
432.5539
 21
22.783319
 31
0.0
  0
LINE
  5
165
330
42
100
AcDbEntity
  8
001
 62
     3
370
     9
100
AcDbLine
 10
433.523291
 20
23.75271
 30
0.0
 11
434.657519
 21
24.886939
 31
0.0
  0
LINE
  5
166
330
42
100
AcDbEntity
  8
001
 62
     3
370
     9
100
AcDbLine
 10
431.305538
 20
21.616814
 30
0.0
 11
432.509708
 21
22.820983
 31
0.0
  0
LINE
  5
167
330
42
100
AcDbEntity
  8
001
 62
     3
370
     9
100
AcDbLine
 10
433.479559
 20
23.790835
 30
0.0
 11
434.616601
 21
24.927876
 31
0.0
  0
LINE
  5
168
330
42
100
AcDbEntity
  8
001
 62
     3
370
     9
100
AcDbLine
 10
431.270703
 20
21.663835
 30
0.0
 11
432.465142
 21
22.858274
 31
0.0
  0
LINE
  5
169
330
42
100
AcDbEntity
  8
001
 62
     3
370
     9
100
AcDbLine
 10
433.433272
 20
23.826404
 30
0.0
 11
434.574511
 21
24.967643
 31
0.0
  0
LINE
  5
16A
330
42
100
AcDbEntity
  8
001
 62
     3
370
     9
100
AcDbLine
 10
431.235392
 20
21.710381
 30
0.0
 11
432.420201
 21
22.895189
 31
0.0
  0
LINE
  5
16B
330
42
100
AcDbEntity
  8
001
 62
     3
370
     9
100
AcDbLine
 10
433.384366
 20
23.859354
 30
0.0
 11
434.531247
 21
25.006236
 31
0.0
  0
LINE
  5
16C
330
42
100
AcDbEntity
  8
001
 62
     3
370
     9
100
AcDbLine
 10
428.141657
 20
18.698502
 30
0.0
 11
428.360298
 21
18.917143
 31
0.0
  0
LINE
  5
16D
330
42
100
AcDbEntity
  8
001
 62
     3
370
     9
100
AcDbLine
 10
431.199607
 20
21.756452
 30
0.0
 11
432.374884
 21
22.931729
 31
0.0
  0
LINE
  5
16E
330
42
100
AcDbEntity
  8
001
 62
     3
370
     9
100
AcDbLine
 10
433.332741
 20
23.889586
 30
0.0
 11
434.486803
 21
25.043648
 31
0.0
  0
LINE
  5
16F
330
42
100
AcDbEntity
  8
001
 62
     3
370
     9
100
AcDbLine
 10
428.059801
 20
18.698502
 30
0.0
 11
428.575779
 21
19.21448
 31
0.0
  0
LINE
  5
170
330
42
100
AcDbEntity
  8
001
 62
     3
370
     9
100
AcDbLine
 10
431.163351
 20
21.802052
 30
0.0
 11
432.329191
 21
22.967892
 31
0.0
  0
LINE
  5
171
330
42
100
AcDbEntity
  8
001
 62
     3
370
     9
100
AcDbLine
 10
433.27826
 20
23.916962
 30
0.0
 11
434.441171
 21
25.079873
 31
0.0
  0
LINE
  5
172
330
42
100
AcDbEntity
  8
001
 62
     3
370
     9
100
AcDbLine
 10
427.977945
 20
18.698502
 30
0.0
 11
428.793365
 21
19.513923
 31
0.0
  0
LINE
  5
173
330
42
100
AcDbEntity
  8
001
 62
     3
370
     9
100
AcDbLine
 10
431.126624
 20
21.847182
 30
0.0
 11
432.283119
 21
23.003677
 31
0.0
  0
LINE
  5
174
330
42
100
AcDbEntity
  8
001
 62
     3
370
     9
100
AcDbLine
 10
433.220731
 20
23.941289
 30
0.0
 11
434.394339
 21
25.114897
 31
0.0
  0
LINE
  5
175
330
42
100
AcDbEntity
  8
001
 62
     3
370
     9
100
AcDbLine
 10
427.896088
 20
18.698502
 30
0.0
 11
429.013107
 21
19.815521
 31
0.0
  0
LINE
  5
176
330
42
100
AcDbEntity
  8
001
 62
     3
370
     9
100
AcDbLine
 10
431.089428
 20
21.891843
 30
0.0
 11
432.236668
 21
23.039083
 31
0.0
  0
LINE
  5
177
330
42
100
AcDbEntity
  8
001
 62
     3
370
     9
100
AcDbLine
 10
433.159896
 20
23.962311
 30
0.0
 11
434.346291
 21
25.148705
 31
0.0
  0
LINE
  5
178
330
42
100
AcDbEntity
  8
001
 62
     3
370
     9
100
AcDbLine
 10
427.814232
 20
18.698502
 30
0.0
 11
429.235059
 21
20.11933
 31
0.0
  0
LINE
  5
179
330
42
100
AcDbEntity
  8
001
 62
     3
370
     9
100
AcDbLine
 10
431.051766
 20
21.936037
 30
0.0
 11
432.189837
 21
23.074108
 31
0.0
  0
LINE
  5
17A
330
42
100
AcDbEntity
  8
001
 62
     3
370
     9
100
AcDbLine
 10
433.095406
 20
23.979677
 30
0.0
 11
434.297008
 21
25.181279
 31
0.0
  0
LINE
  5
17B
330
42
100
AcDbEntity
  8
001
 62
     3
370
     9
100
AcDbLine
 10
427.732375
 20
18.698502
 30
0.0
 11
429.459277
 21
20.425404
 31
0.0
  0
LINE
  5
17C
330
42
100
AcDbEntity
  8
001
 62
     3
370
     9
100
AcDbLine
 10
431.013638
 20
21.979765
 30
0.0
 11
432.142623
 21
23.10875
 31
0.0
  0
LINE
  5
17D
330
42
100
AcDbEntity
  8
001
 62
     3
370
     9
100
AcDbLine
 10
433.02678
 20
23.992907
 30
0.0
 11
434.24647
 21
25.212597
 31
0.0
  0
LINE
  5
17E
330
42
100
AcDbEntity
  8
001
 62
     3
370
     9
100
AcDbLine
 10
427.650519
 20
18.698502
 30
0.0
 11
429.685819
 21
20.733803
 31
0.0
  0
LINE
  5
17F
330
42
100
AcDbEntity
  8
001
 62
     3
370
     9
100
AcDbLine
 10
430.975046
 20
22.023029
 30
0.0
 11
432.095025
 21
23.143009
 31
0.0
  0
LINE
  5
180
330
42
100
AcDbEntity
  8
001
 62
     3
370
     9
100
AcDbLine
 10
432.953337
 20
24.001321
 30
0.0
 11
434.194649
 21
25.242632
 31
0.0
  0
LINE
  5
181
330
42
100
AcDbEntity
  8
001
 62
     3
370
     9
100
AcDbLine
 10
427.568662
 20
18.698502
 30
0.0
 11
429.914746
 21
21.044586
 31
0.0
  0
LINE
  5
182
330
42
100
AcDbEntity
  8
001
 62
     3
370
     9
100
AcDbLine
 10
430.935989
 20
22.065829
 30
0.0
 11
432.047042
 21
23.176882
 31
0.0
  0
LINE
  5
183
330
42
100
AcDbEntity
  8
001
 62
     3
370
     9
100
AcDbLine
 10
432.874071
 20
24.003911
 30
0.0
 11
434.141514
 21
25.271354
 31
0.0
  0
LINE
  5
184
330
42
100
AcDbEntity
  8
001
 62
     3
370
     9
100
AcDbLine
 10
427.486806
 20
18.698502
 30
0.0
 11
430.14612
 21
21.357817
 31
0.0
  0
LINE
  5
185
330
42
100
AcDbEntity
  8
001
 62
     3
370
     9
100
AcDbLine
 10
430.89647
 20
22.108166
 30
0.0
 11
431.998671
 21
23.210368
 31
0.0
  0
LINE
  5
186
330
42
100
AcDbEntity
  8
001
 62
     3
370
     9
100
AcDbLine
 10
432.787478
 20
23.999175
 30
0.0
 11
434.087031
 21
25.298727
 31
0.0
  0
LINE
  5
187
330
42
100
AcDbEntity
  8
001
 62
     3
370
     9
100
AcDbLine
 10
427.404949
 20
18.698502
 30
0.0
 11
430.38001
 21
21.673563
 31
0.0
  0
LINE
  5
188
330
42
100
AcDbEntity
  8
001
 62
     3
370
     9
100
AcDbLine
 10
430.856488
 20
22.150041
 30
0.0
 11
431.949911
 21
23.243464
 31
0.0
  0
LINE
  5
189
330
42
100
AcDbEntity
  8
001
 62
     3
370
     9
100
AcDbLine
 10
432.694135
 20
23.987688
 30
0.0
 11
434.031157
 21
25.32471
 31
0.0
  0
LINE
  5
18A
330
42
100
AcDbEntity
  8
001
 62
     3
370
     9
100
AcDbLine
 10
427.323093
 20
18.698502
 30
0.0
 11
430.616483
 21
21.991892
 31
0.0
  0
LINE
  5
18B
330
42
100
AcDbEntity
  8
001
 62
     3
370
     9
100
AcDbLine
 10
430.816044
 20
22.191454
 30
0.0
 11
431.90076
 21
23.276169
 31
0.0
  0
LINE
  5
18C
330
42
100
AcDbEntity
  8
001
 62
     3
370
     9
100
AcDbLine
 10
432.592878
 20
23.968287
 30
0.0
 11
433.973846
 21
25.349256
 31
0.0
  0
LINE
  5
18D
330
42
100
AcDbEntity
  8
001
 62
     3
370
     9
100
AcDbLine
 10
427.241236
 20
18.698502
 30
0.0
 11
431.851214
 21
23.30848
 31
0.0
  0
LINE
  5
18E
330
42
100
AcDbEntity
  8
001
 62
     3
370
     9
100
AcDbLine
 10
432.480755
 20
23.938021
 30
0.0
 11
433.915375
 21
25.372641
 31
0.0
  0
LINE
  5
18F
330
42
100
AcDbEntity
  8
001
 62
     3
370
     9
100
AcDbLine
 10
427.15938
 20
18.698502
 30
0.0
 11
431.801273
 21
23.340396
 31
0.0
  0
LINE
  5
190
330
42
100
AcDbEntity
  8
001
 62
     3
370
     9
100
AcDbLine
 10
432.351945
 20
23.891067
 30
0.0
 11
433.855976
 21
25.395098
 31
0.0
  0
LINE
  5
191
330
42
100
AcDbEntity
  8
001
 62
     3
370
     9
100
AcDbLine
 10
427.077524
 20
18.698502
 30
0.0
 11
431.750934
 21
23.371913
 31
0.0
  0
LINE
  5
192
330
42
100
AcDbEntity
  8
001
 62
     3
370
     9
100
AcDbLine
 10
432.19093
 20
23.811909
 30
0.0
 11
433.795525
 21
25.416504
 31
0.0
  0
LINE
  5
193
330
42
100
AcDbEntity
  8
001
 62
     3
370
     9
100
AcDbLine
 10
426.995667
 20
18.698502
 30
0.0
 11
431.700194
 21
23.403029
 31
0.0
  0
LINE
  5
194
330
42
100
AcDbEntity
  8
001
 62
     3
370
     9
100
AcDbLine
 10
432.019846
 20
23.722682
 30
0.0
 11
433.73399
 21
25.436825
 31
0.0
  0
LINE
  5
195
330
42
100
AcDbEntity
  8
001
 62
     3
370
     9
100
AcDbLine
 10
426.913811
 20
18.698502
 30
0.0
 11
431.64905
 21
23.433742
 31
0.0
  0
LINE
  5
196
330
42
100
AcDbEntity
  8
001
 62
     3
370
     9
100
AcDbLine
 10
431.966723
 20
23.751415
 30
0.0
 11
433.671335
 21
25.456026
 31
0.0
  0
LINE
  5
197
330
42
100
AcDbEntity
  8
001
 62
     3
370
     9
100
AcDbLine
 10
426.831954
 20
18.698502
 30
0.0
 11
431.597499
 21
23.464048
 31
0.0
  0
LINE
  5
198
330
42
100
AcDbEntity
  8
001
 62
     3
370
     9
100
AcDbLine
 10
431.913218
 20
23.779766
 30
0.0
 11
433.60752
 21
25.474068
 31
0.0
  0
LINE
  5
199
330
42
100
AcDbEntity
  8
001
 62
     3
370
     9
100
AcDbLine
 10
426.750098
 20
18.698502
 30
0.0
 11
431.54554
 21
23.493944
 31
0.0
  0
LINE
  5
19A
330
42
100
AcDbEntity
  8
001
 62
     3
370
     9
100
AcDbLine
 10
431.859327
 20
23.807732
 30
0.0
 11
433.542502
 21
25.490906
 31
0.0
  0
LINE
  5
19B
330
42
100
AcDbEntity
  8
001
 62
     3
370
     9
100
AcDbLine
 10
426.668241
 20
18.698502
 30
0.0
 11
431.493168
 21
23.523429
 31
0.0
  0
LINE
  5
19C
330
42
100
AcDbEntity
  8
001
 62
     3
370
     9
100
AcDbLine
 10
431.805048
 20
23.835309
 30
0.0
 11
433.476232
 21
25.506493
 31
0.0
  0
LINE
  5
19D
330
42
100
AcDbEntity
  8
001
 62
     3
370
     9
100
AcDbLine
 10
426.586385
 20
18.698502
 30
0.0
 11
431.44038
 21
23.552497
 31
0.0
  0
LINE
  5
19E
330
42
100
AcDbEntity
  8
001
 62
     3
370
     9
100
AcDbLine
 10
431.750378
 20
23.862496
 30
0.0
 11
433.408657
 21
25.520775
 31
0.0
  0
LINE
  5
19F
330
42
100
AcDbEntity
  8
001
 62
     3
370
     9
100
AcDbLine
 10
426.504528
 20
18.698502
 30
0.0
 11
431.387173
 21
23.581147
 31
0.0
  0
LINE
  5
1A0
330
42
100
AcDbEntity
  8
001
 62
     3
370
     9
100
AcDbLine
 10
431.695313
 20
23.889287
 30
0.0
 11
433.339718
 21
25.533692
 31
0.0
  0
LINE
  5
1A1
330
42
100
AcDbEntity
  8
001
 62
     3
370
     9
100
AcDbLine
 10
426.422672
 20
18.698502
 30
0.0
 11
431.333543
 21
23.609373
 31
0.0
  0
LINE
  5
1A2
330
42
100
AcDbEntity
  8
001
 62
     3
370
     9
100
AcDbLine
 10
431.639848
 20
23.915679
 30
0.0
 11
433.269347
 21
25.545178
 31
0.0
  0
LINE
  5
1A3
330
42
100
AcDbEntity
  8
001
 62
     3
370
     9
100
AcDbLine
 10
426.340816
 20
18.698502
 30
0.0
 11
431.279486
 21
23.637173
 31
0.0
  0
LINE
  5
1A4
330
42
100
AcDbEntity
  8
001
 62
     3
370
     9
100
AcDbLine
 10
431.583982
 20
23.941669
 30
0.0
 11
433.19747
 21
25.555157
 31
0.0
  0
LINE
  5
1A5
330
42
100
AcDbEntity
  8
001
 62
     3
370
     9
100
AcDbLine
 10
426.258959
 20
18.698502
 30
0.0
 11
431.225
 21
23.664543
 31
0.0
  0
LINE
  5
1A6
330
42
100
AcDbEntity
  8
001
 62
     3
370
     9
100
AcDbLine
 10
431.52771
 20
23.967253
 30
0.0
 11
433.124001
 21
25.563545
 31
0.0
  0
LINE
  5
1A7
330
42
100
AcDbEntity
  8
001
 62
     3
370
     9
100
AcDbLine
 10
426.177103
 20
18.698502
 30
0.0
 11
431.170078
 21
23.691478
 31
0.0
  0
LINE
  5
1A8
330
42
100
AcDbEntity
  8
001
 62
     3
370
     9
100
AcDbLine
 10
431.471027
 20
23.992427
 30
0.0
 11
433.048846
 21
25.570246
 31
0.0
  0
LINE
  5
1A9
330
42
100
AcDbEntity
  8
001
 62
     3
370
     9
100
AcDbLine
 10
426.095246
 20
18.698502
 30
0.0
 11
431.114718
 21
23.717975
 31
0.0
  0
LINE
  5
1AA
330
42
100
AcDbEntity
  8
001
 62
     3
370
     9
100
AcDbLine
 10
431.41393
 20
24.017186
 30
0.0
 11
432.971894
 21
25.575151
 31
0.0
  0
LINE
  5
1AB
330
42
100
AcDbEntity
  8
001
 62
     3
370
     9
100
AcDbLine
 10
426.01339
 20
18.698502
 30
0.0
 11
431.058853
 21
23.743966
 31
0.0
  0
LINE
  5
1AC
330
42
100
AcDbEntity
  8
001
 62
     3
370
     9
100
AcDbLine
 10
431.356414
 20
24.041527
 30
0.0
 11
432.893021
 21
25.578133
 31
0.0
  0
LINE
  5
1AD
330
42
100
AcDbEntity
  8
001
 62
     3
370
     9
100
AcDbLine
 10
425.931533
 20
18.698502
 30
0.0
 11
431.00242
 21
23.769389
 31
0.0
  0
LINE
  5
1AE
330
42
100
AcDbEntity
  8
001
 62
     3
370
     9
100
AcDbLine
 10
431.298475
 20
24.065444
 30
0.0
 11
432.81208
 21
25.579049
 31
0.0
  0
LINE
  5
1AF
330
42
100
AcDbEntity
  8
001
 62
     3
370
     9
100
AcDbLine
 10
425.849677
 20
18.698502
 30
0.0
 11
430.945577
 21
23.794402
 31
0.0
  0
LINE
  5
1B0
330
42
100
AcDbEntity
  8
001
 62
     3
370
     9
100
AcDbLine
 10
431.240108
 20
24.088934
 30
0.0
 11
432.728903
 21
25.577728
 31
0.0
  0
LINE
  5
1B1
330
42
100
AcDbEntity
  8
001
 62
     3
370
     9
100
AcDbLine
 10
425.76782
 20
18.698502
 30
0.0
 11
430.88832
 21
23.819002
 31
0.0
  0
LINE
  5
1B2
330
42
100
AcDbEntity
  8
001
 62
     3
370
     9
100
AcDbLine
 10
431.181309
 20
24.111991
 30
0.0
 11
432.643289
 21
25.573971
 31
0.0
  0
LINE
  5
1B3
330
42
100
AcDbEntity
  8
001
 62
     3
370
     9
100
AcDbLine
 10
425.685964
 20
18.698502
 30
0.0
 11
430.830646
 21
23.843185
 31
0.0
  0
LINE
  5
1B4
330
42
100
AcDbEntity
  8
001
 62
     3
370
     9
100
AcDbLine
 10
431.122071
 20
24.134609
 30
0.0
 11
432.555
 21
25.567539
 31
0.0
  0
LINE
  5
1B5
330
42
100
AcDbEntity
  8
001
 62
     3
370
     9
100
AcDbLine
 10
425.604107
 20
18.698502
 30
0.0
 11
430.77255
 21
23.866945
 31
0.0
  0
LINE
  5
1B6
330
42
100
AcDbEntity
  8
001
 62
     3
370
     9
100
AcDbLine
 10
431.06239
 20
24.156785
 30
0.0
 11
432.4639
 21
25.558295
 31
0.0
  0
LINE
  5
1B7
330
42
100
AcDbEntity
  8
001
 62
     3
370
     9
100
AcDbLine
 10
425.522251
 20
18.698502
 30
0.0
 11
430.714026
 21
23.890278
 31
0.0
  0
LINE
  5
1B8
330
42
100
AcDbEntity
  8
001
 62
     3
370
     9
100
AcDbLine
 10
431.002261
 20
24.178512
 30
0.0
 11
432.370889
 21
25.547141
 31
0.0
  0
LINE
  5
1B9
330
42
100
AcDbEntity
  8
001
 62
     3
370
     9
100
AcDbLine
 10
425.440395
 20
18.698502
 30
0.0
 11
430.655071
 21
23.913179
 31
0.0
  0
LINE
  5
1BA
330
42
100
AcDbEntity
  8
001
 62
     3
370
     9
100
AcDbLine
 10
430.941676
 20
24.199784
 30
0.0
 11
432.275308
 21
25.533416
 31
0.0
  0
LINE
  5
1BB
330
42
100
AcDbEntity
  8
001
 62
     3
370
     9
100
AcDbLine
 10
425.358538
 20
18.698502
 30
0.0
 11
430.595679
 21
23.935643
 31
0.0
  0
LINE
  5
1BC
330
42
100
AcDbEntity
  8
001
 62
     3
370
     9
100
AcDbLine
 10
430.880632
 20
24.220596
 30
0.0
 11
432.176901
 21
25.516865
 31
0.0
  0
LINE
  5
1BD
330
42
100
AcDbEntity
  8
001
 62
     3
370
     9
100
AcDbLine
 10
425.521727
 20
18.943548
 30
0.0
 11
430.535844
 21
23.957665
 31
0.0
  0
LINE
  5
1BE
330
42
100
AcDbEntity
  8
001
 62
     3
370
     9
100
AcDbLine
 10
430.819121
 20
24.240941
 30
0.0
 11
432.075359
 21
25.49718
 31
0.0
  0
LINE
  5
1BF
330
42
100
AcDbEntity
  8
001
 62
     3
370
     9
100
AcDbLine
 10
425.898543
 20
19.40222
 30
0.0
 11
430.475562
 21
23.979239
 31
0.0
  0
LINE
  5
1C0
330
42
100
AcDbEntity
  8
001
 62
     3
370
     9
100
AcDbLine
 10
430.757136
 20
24.260813
 30
0.0
 11
431.970311
 21
25.473988
 31
0.0
  0
LINE
  5
1C1
330
42
100
AcDbEntity
  8
001
 62
     3
370
     9
100
AcDbLine
 10
426.275519
 20
19.861053
 30
0.0
 11
430.414826
 21
24.00036
 31
0.0
  0
LINE
  5
1C2
330
42
100
AcDbEntity
  8
001
 62
     3
370
     9
100
AcDbLine
 10
430.694672
 20
24.280205
 30
0.0
 11
431.861291
 21
25.446824
 31
0.0
  0
LINE
  5
1C3
330
42
100
AcDbEntity
  8
001
 62
     3
370
     9
100
AcDbLine
 10
426.652656
 20
20.320046
 30
0.0
 11
430.353631
 21
24.021021
 31
0.0
  0
LINE
  5
1C4
330
42
100
AcDbEntity
  8
001
 62
     3
370
     9
100
AcDbLine
 10
430.63172
 20
24.29911
 30
0.0
 11
431.747713
 21
25.415103
 31
0.0
  0
LINE
  5
1C5
330
42
100
AcDbEntity
  8
001
 62
     3
370
     9
100
AcDbLine
 10
427.029954
 20
20.7792
 30
0.0
 11
430.291969
 21
24.041216
 31
0.0
  0
LINE
  5
1C6
330
42
100
AcDbEntity
  8
001
 62
     3
370
     9
100
AcDbLine
 10
430.568274
 20
24.317521
 30
0.0
 11
431.628816
 21
25.378063
 31
0.0
  0
LINE
  5
1C7
330
42
100
AcDbEntity
  8
001
 62
     3
370
     9
100
AcDbLine
 10
427.407412
 20
21.238515
 30
0.0
 11
430.229836
 21
24.060939
 31
0.0
  0
LINE
  5
1C8
330
42
100
AcDbEntity
  8
001
 62
     3
370
     9
100
AcDbLine
 10
430.504327
 20
24.335429
 30
0.0
 11
431.503581
 21
25.334684
 31
0.0
  0
LINE
  5
1C9
330
42
100
AcDbEntity
  8
001
 62
     3
370
     9
100
AcDbLine
 10
427.785033
 20
21.697992
 30
0.0
 11
430.167223
 21
24.080182
 31
0.0
  0
LINE
  5
1CA
330
42
100
AcDbEntity
  8
001
 62
     3
370
     9
100
AcDbLine
 10
430.439868
 20
24.352828
 30
0.0
 11
431.370587
 21
25.283547
 31
0.0
  0
LINE
  5
1CB
330
42
100
AcDbEntity
  8
001
 62
     3
370
     9
100
AcDbLine
 10
428.162814
 20
22.15763
 30
0.0
 11
430.104124
 21
24.09894
 31
0.0
  0
LINE
  5
1CC
330
42
100
AcDbEntity
  8
001
 62
     3
370
     9
100
AcDbLine
 10
430.374892
 20
24.369708
 30
0.0
 11
431.22775
 21
25.222565
 31
0.0
  0
LINE
  5
1CD
330
42
100
AcDbEntity
  8
001
 62
     3
370
     9
100
AcDbLine
 10
428.540757
 20
22.61743
 30
0.0
 11
430.040531
 21
24.117204
 31
0.0
  0
LINE
  5
1CE
330
42
100
AcDbEntity
  8
001
 62
     3
370
     9
100
AcDbLine
 10
430.309388
 20
24.38606
 30
0.0
 11
431.07177
 21
25.148443
 31
0.0
  0
LINE
  5
1CF
330
42
100
AcDbEntity
  8
001
 62
     3
370
     9
100
AcDbLine
 10
428.918863
 20
23.077391
 30
0.0
 11
429.976438
 21
24.134967
 31
0.0
  0
LINE
  5
1D0
330
42
100
AcDbEntity
  8
001
 62
     3
370
     9
100
AcDbLine
 10
430.243348
 20
24.401877
 30
0.0
 11
430.896836
 21
25.055365
 31
0.0
  0
LINE
  5
1D1
330
42
100
AcDbEntity
  8
001
 62
     3
370
     9
100
AcDbLine
 10
429.136305
 20
23.37669
 30
0.0
 11
429.911835
 21
24.15222
 31
0.0
  0
LINE
  5
1D2
330
42
100
AcDbEntity
  8
001
 62
     3
370
     9
100
AcDbLine
 10
430.176762
 20
24.417147
 30
0.0
 11
430.690616
 21
24.931001
 31
0.0
  0
LINE
  5
1D3
330
42
100
AcDbEntity
  8
001
 62
     3
370
     9
100
AcDbLine
 10
429.08009
 20
23.402332
 30
0.0
 11
429.846715
 21
24.168956
 31
0.0
  0
LINE
  5
1D4
330
42
100
AcDbEntity
  8
001
 62
     3
370
     9
100
AcDbLine
 10
430.109619
 20
24.431861
 30
0.0
 11
430.413909
 21
24.736151
 31
0.0
  0
LINE
  5
1D5
330
42
100
AcDbEntity
  8
001
 62
     3
370
     9
100
AcDbLine
 10
429.023425
 20
23.427523
 30
0.0
 11
429.781068
 21
24.185166
 31
0.0
  0
LINE
  5
1D6
330
42
100
AcDbEntity
  8
001
 62
     3
370
     9
100
AcDbLine
 10
428.966302
 20
23.452257
 30
0.0
 11
429.714885
 21
24.20084
 31
0.0
  0
LINE
  5
1D7
330
42
100
AcDbEntity
  8
001
 62
     3
370
     9
100
AcDbLine
 10
428.908718
 20
23.476529
 30
0.0
 11
429.648158
 21
24.215969
 31
0.0
  0
LINE
  5
1D8
330
42
100
AcDbEntity
  8
001
 62
     3
370
     9
100
AcDbLine
 10
428.850667
 20
23.500335
 30
0.0
 11
429.580876
 21
24.230543
 31
0.0
  0
LINE
  5
1D9
330
42
100
AcDbEntity
  8
001
 62
     3
370
     9
100
AcDbLine
 10
428.792143
 20
23.523667
 30
0.0
 11
429.513028
 21
24.244552
 31
0.0
  0
LINE
  5
1DA
330
42
100
AcDbEntity
  8
001
 62
     3
370
     9
100
AcDbLine
 10
428.73314
 20
23.54652
 30
0.0
 11
429.444603
 21
24.257984
 31
0.0
  0
LINE
  5
1DB
330
42
100
AcDbEntity
  8
001
 62
     3
370
     9
100
AcDbLine
 10
428.673652
 20
23.568888
 30
0.0
 11
429.375591
 21
24.270828
 31
0.0
  0
LINE
  5
1DC
330
42
100
AcDbEntity
  8
001
 62
     3
370
     9
100
AcDbLine
 10
428.613671
 20
23.590764
 30
0.0
 11
429.305978
 21
24.283072
 31
0.0
  0
LINE
  5
1DD
330
42
100
AcDbEntity
  8
001
 62
     3
370
     9
100
AcDbLine
 10
428.553192
 20
23.612142
 30
0.0
 11
429.235753
 21
24.294703
 31
0.0
  0
LINE
  5
1DE
330
42
100
AcDbEntity
  8
001
 62
     3
370
     9
100
AcDbLine
 10
428.492207
 20
23.633013
 30
0.0
 11
429.164902
 21
24.305708
 31
0.0
  0
LINE
  5
1DF
330
42
100
AcDbEntity
  8
001
 62
     3
370
     9
100
AcDbLine
 10
428.430708
 20
23.65337
 30
0.0
 11
429.09341
 21
24.316073
 31
0.0
  0
LINE
  5
1E0
330
42
100
AcDbEntity
  8
001
 62
     3
370
     9
100
AcDbLine
 10
428.368688
 20
23.673207
 30
0.0
 11
429.021264
 21
24.325783
 31
0.0
  0
LINE
  5
1E1
330
42
100
AcDbEntity
  8
001
 62
     3
370
     9
100
AcDbLine
 10
428.306138
 20
23.692513
 30
0.0
 11
428.948448
 21
24.334823
 31
0.0
  0
LINE
  5
1E2
330
42
100
AcDbEntity
  8
001
 62
     3
370
     9
100
AcDbLine
 10
428.24305
 20
23.711282
 30
0.0
 11
428.874945
 21
24.343177
 31
0.0
  0
LINE
  5
1E3
330
42
100
AcDbEntity
  8
001
 62
     3
370
     9
100
AcDbLine
 10
428.179414
 20
23.729503
 30
0.0
 11
428.800738
 21
24.350826
 31
0.0
  0
LINE
  5
1E4
330
42
100
AcDbEntity
  8
001
 62
     3
370
     9
100
AcDbLine
 10
428.115222
 20
23.747167
 30
0.0
 11
428.725809
 21
24.357754
 31
0.0
  0
LINE
  5
1E5
330
42
100
AcDbEntity
  8
001
 62
     3
370
     9
100
AcDbLine
 10
428.050463
 20
23.764264
 30
0.0
 11
428.650138
 21
24.36394
 31
0.0
  0
LINE
  5
1E6
330
42
100
AcDbEntity
  8
001
 62
     3
370
     9
100
AcDbLine
 10
427.985127
 20
23.780785
 30
0.0
 11
428.573706
 21
24.369364
 31
0.0
  0
LINE
  5
1E7
330
42
100
AcDbEntity
  8
001
 62
     3
370
     9
100
AcDbLine
 10
427.919203
 20
23.796717
 30
0.0
 11
428.49649
 21
24.374004
 31
0.0
  0
LINE
  5
1E8
330
42
100
AcDbEntity
  8
001
 62
     3
370
     9
100
AcDbLine
 10
427.852679
 20
23.81205
 30
0.0
 11
428.418467
 21
24.377838
 31
0.0
  0
LINE
  5
1E9
330
42
100
AcDbEntity
  8
001
 62
     3
370
     9
100
AcDbLine
 10
427.785543
 20
23.82677
 30
0.0
 11
428.339614
 21
24.380841
 31
0.0
  0
LINE
  5
1EA
330
42
100
AcDbEntity
  8
001
 62
     3
370
     9
100
AcDbLine
 10
427.717783
 20
23.840867
 30
0.0
 11
428.259904
 21
24.382987
 31
0.0
  0
LINE
  5
1EB
330
42
100
AcDbEntity
  8
001
 62
     3
370
     9
100
AcDbLine
 10
427.649386
 20
23.854326
 30
0.0
 11
428.179308
 21
24.384248
 31
0.0
  0
LINE
  5
1EC
330
42
100
AcDbEntity
  8
001
 62
     3
370
     9
100
AcDbLine
 10
427.580336
 20
23.867133
 30
0.0
 11
428.097799
 21
24.384595
 31
0.0
  0
LINE
  5
1ED
330
42
100
AcDbEntity
  8
001
 62
     3
370
     9
100
AcDbLine
 10
427.51062
 20
23.879273
 30
0.0
 11
428.015343
 21
24.383996
 31
0.0
  0
LINE
  5
1EE
330
42
100
AcDbEntity
  8
001
 62
     3
370
     9
100
AcDbLine
 10
427.440221
 20
23.89073
 30
0.0
 11
427.931907
 21
24.382417
 31
0.0
  0
LINE
  5
1EF
330
42
100
AcDbEntity
  8
001
 62
     3
370
     9
100
AcDbLine
 10
427.369123
 20
23.901489
 30
0.0
 11
427.847455
 21
24.379821
 31
0.0
  0
LINE
  5
1F0
330
42
100
AcDbEntity
  8
001
 62
     3
370
     9
100
AcDbLine
 10
427.297309
 20
23.911531
 30
0.0
 11
427.761947
 21
24.376169
 31
0.0
  0
LINE
  5
1F1
330
42
100
AcDbEntity
  8
001
 62
     3
370
     9
100
AcDbLine
 10
427.224759
 20
23.920838
 30
0.0
 11
427.675341
 21
24.371419
 31
0.0
  0
LINE
  5
1F2
330
42
100
AcDbEntity
  8
001
 62
     3
370
     9
100
AcDbLine
 10
427.151454
 20
23.92939
 30
0.0
 11
427.58759
 21
24.365525
 31
0.0
  0
LINE
  5
1F3
330
42
100
AcDbEntity
  8
001
 62
     3
370
     9
100
AcDbLine
 10
427.077374
 20
23.937166
 30
0.0
 11
427.498646
 21
24.358438
 31
0.0
  0
LINE
  5
1F4
330
42
100
AcDbEntity
  8
001
 62
     3
370
     9
100
AcDbLine
 10
427.002496
 20
23.944144
 30
0.0
 11
427.408455
 21
24.350103
 31
0.0
  0
LINE
  5
1F5
330
42
100
AcDbEntity
  8
001
 62
     3
370
     9
100
AcDbLine
 10
426.926796
 20
23.950301
 30
0.0
 11
427.316958
 21
24.340462
 31
0.0
  0
LINE
  5
1F6
330
42
100
AcDbEntity
  8
001
 62
     3
370
     9
100
AcDbLine
 10
426.85025
 20
23.955611
 30
0.0
 11
427.22409
 21
24.329451
 31
0.0
  0
LINE
  5
1F7
330
42
100
AcDbEntity
  8
001
 62
     3
370
     9
100
AcDbLine
 10
426.77283
 20
23.960048
 30
0.0
 11
427.129781
 21
24.316998
 31
0.0
  0
LINE
  5
1F8
330
42
100
AcDbEntity
  8
001
 62
     3
370
     9
100
AcDbLine
 10
426.694508
 20
23.963582
 30
0.0
 11
427.033954
 21
24.303028
 31
0.0
  0
LINE
  5
1F9
330
42
100
AcDbEntity
  8
001
 62
     3
370
     9
100
AcDbLine
 10
426.615253
 20
23.966183
 30
0.0
 11
426.936524
 21
24.287454
 31
0.0
  0
LINE
  5
1FA
330
42
100
AcDbEntity
  8
001
 62
     3
370
     9
100
AcDbLine
 10
426.535032
 20
23.967819
 30
0.0
 11
426.837395
 21
24.270182
 31
0.0
  0
LINE
  5
1FB
330
42
100
AcDbEntity
  8
001
 62
     3
370
     9
100
AcDbLine
 10
426.45381
 20
23.968453
 30
0.0
 11
426.736462
 21
24.251105
 31
0.0
  0
LINE
  5
1FC
330
42
100
AcDbEntity
  8
001
 62
     3
370
     9
100
AcDbLine
 10
426.371548
 20
23.968047
 30
0.0
 11
426.633606
 21
24.230105
 31
0.0
  0
LINE
  5
1FD
330
42
100
AcDbEntity
  8
001
 62
     3
370
     9
100
AcDbLine
 10
426.288205
 20
23.966561
 30
0.0
 11
426.528694
 21
24.20705
 31
0.0
  0
LINE
  5
1FE
330
42
100
AcDbEntity
  8
001
 62
     3
370
     9
100
AcDbLine
 10
426.204173
 20
23.964385
 30
0.0
 11
426.421575
 21
24.181787
 31
0.0
  0
LINE
  5
1FF
330
42
100
AcDbEntity
  8
001
 62
     3
370
     9
100
AcDbLine
 10
426.14941
 20
23.991479
 30
0.0
 11
426.312076
 21
24.154145
 31
0.0
  0
LINE
  5
200
330
42
100
AcDbEntity
  8
001
 62
     3
370
     9
100
AcDbLine
 10
426.130461
 20
24.054387
 30
0.0
 11
426.200001
 21
24.123926
 31
0.0
  0
LINE
  5
201
330
42
100
AcDbEntity
  8
001
 62
     3
370
     9
100
AcDbLine
 10
434.445468
 20
18.699367
 30
0.0
 11
434.506147
 21
18.760045
 31
0.0
  0
LINE
  5
202
330
42
100
AcDbEntity
  8
001
 62
     3
370
     9
100
AcDbLine
 10
434.363579
 20
18.699334
 30
0.0
 11
434.504858
 21
18.840613
 31
0.0
  0
LINE
  5
203
330
42
100
AcDbEntity
  8
001
 62
     3
370
     9
100
AcDbLine
 10
434.28169
 20
18.699301
 30
0.0
 11
434.50231
 21
18.919921
 31
0.0
  0
LINE
  5
204
330
42
100
AcDbEntity
  8
001
 62
     3
370
     9
100
AcDbLine
 10
434.199801
 20
18.699269
 30
0.0
 11
434.498558
 21
18.998026
 31
0.0
  0
LINE
  5
205
330
42
100
AcDbEntity
  8
001
 62
     3
370
     9
100
AcDbLine
 10
434.117912
 20
18.699236
 30
0.0
 11
434.493654
 21
19.074979
 31
0.0
  0
LINE
  5
206
330
42
100
AcDbEntity
  8
001
 62
     3
370
     9
100
AcDbLine
 10
434.036023
 20
18.699203
 30
0.0
 11
434.487644
 21
19.150824
 31
0.0
  0
LINE
  5
207
330
42
100
AcDbEntity
  8
001
 62
     3
370
     9
100
AcDbLine
 10
433.954134
 20
18.699171
 30
0.0
 11
434.480569
 21
19.225607
 31
0.0
  0
LINE
  5
208
330
42
100
AcDbEntity
  8
001
 62
     3
370
     9
100
AcDbLine
 10
433.872244
 20
18.699138
 30
0.0
 11
434.472471
 21
19.299364
 31
0.0
  0
LINE
  5
209
330
42
100
AcDbEntity
  8
001
 62
     3
370
     9
100
AcDbLine
 10
433.790355
 20
18.699105
 30
0.0
 11
434.463383
 21
19.372133
 31
0.0
  0
LINE
  5
20A
330
42
100
AcDbEntity
  8
001
 62
     3
370
     9
100
AcDbLine
 10
433.708466
 20
18.699073
 30
0.0
 11
434.453341
 21
19.443948
 31
0.0
  0
LINE
  5
20B
330
42
100
AcDbEntity
  8
001
 62
     3
370
     9
100
AcDbLine
 10
433.626577
 20
18.69904
 30
0.0
 11
434.442376
 21
19.514839
 31
0.0
  0
LINE
  5
20C
330
42
100
AcDbEntity
  8
001
 62
     3
370
     9
100
AcDbLine
 10
433.544688
 20
18.699008
 30
0.0
 11
434.430515
 21
19.584835
 31
0.0
  0
LINE
  5
20D
330
42
100
AcDbEntity
  8
001
 62
     3
370
     9
100
AcDbLine
 10
433.462799
 20
18.698975
 30
0.0
 11
434.417787
 21
19.653963
 31
0.0
  0
LINE
  5
20E
330
42
100
AcDbEntity
  8
001
 62
     3
370
     9
100
AcDbLine
 10
433.38091
 20
18.698942
 30
0.0
 11
434.404216
 21
19.722248
 31
0.0
  0
LINE
  5
20F
330
42
100
AcDbEntity
  8
001
 62
     3
370
     9
100
AcDbLine
 10
433.299021
 20
18.69891
 30
0.0
 11
434.389825
 21
19.789714
 31
0.0
  0
LINE
  5
210
330
42
100
AcDbEntity
  8
001
 62
     3
370
     9
100
AcDbLine
 10
433.217132
 20
18.698877
 30
0.0
 11
434.374637
 21
19.856382
 31
0.0
  0
LINE
  5
211
330
42
100
AcDbEntity
  8
001
 62
     3
370
     9
100
AcDbLine
 10
433.135243
 20
18.698844
 30
0.0
 11
434.358671
 21
19.922273
 31
0.0
  0
LINE
  5
212
330
42
100
AcDbEntity
  8
001
 62
     3
370
     9
100
AcDbLine
 10
433.053354
 20
18.698812
 30
0.0
 11
434.341948
 21
19.987406
 31
0.0
  0
LINE
  5
213
330
42
100
AcDbEntity
  8
001
 62
     3
370
     9
100
AcDbLine
 10
432.971465
 20
18.698779
 30
0.0
 11
434.324484
 21
20.051799
 31
0.0
  0
LINE
  5
214
330
42
100
AcDbEntity
  8
001
 62
     3
370
     9
100
AcDbLine
 10
432.889575
 20
18.698746
 30
0.0
 11
434.306298
 21
20.115469
 31
0.0
  0
LINE
  5
215
330
42
100
AcDbEntity
  8
001
 62
     3
370
     9
100
AcDbLine
 10
432.807686
 20
18.698714
 30
0.0
 11
434.287405
 21
20.178432
 31
0.0
  0
LINE
  5
216
330
42
100
AcDbEntity
  8
001
 62
     3
370
     9
100
AcDbLine
 10
432.725797
 20
18.698681
 30
0.0
 11
434.267819
 21
20.240703
 31
0.0
  0
LINE
  5
217
330
42
100
AcDbEntity
  8
001
 62
     3
370
     9
100
AcDbLine
 10
432.643908
 20
18.698649
 30
0.0
 11
434.247556
 21
20.302296
 31
0.0
  0
LINE
  5
218
330
42
100
AcDbEntity
  8
001
 62
     3
370
     9
100
AcDbLine
 10
432.562019
 20
18.698616
 30
0.0
 11
434.226627
 21
20.363224
 31
0.0
  0
LINE
  5
219
330
42
100
AcDbEntity
  8
001
 62
     3
370
     9
100
AcDbLine
 10
432.48013
 20
18.698583
 30
0.0
 11
434.205047
 21
20.4235
 31
0.0
  0
LINE
  5
21A
330
42
100
AcDbEntity
  8
001
 62
     3
370
     9
100
AcDbLine
 10
432.398241
 20
18.698551
 30
0.0
 11
434.182826
 21
20.483136
 31
0.0
  0
LINE
  5
21B
330
42
100
AcDbEntity
  8
001
 62
     3
370
     9
100
AcDbLine
 10
432.316352
 20
18.698518
 30
0.0
 11
434.159976
 21
20.542142
 31
0.0
  0
LINE
  5
21C
330
42
100
AcDbEntity
  8
001
 62
     3
370
     9
100
AcDbLine
 10
432.277381
 20
18.741404
 30
0.0
 11
434.136508
 21
20.60053
 31
0.0
  0
LINE
  5
21D
330
42
100
AcDbEntity
  8
001
 62
     3
370
     9
100
AcDbLine
 10
432.275978
 20
18.821857
 30
0.0
 11
434.11243
 21
20.658309
 31
0.0
  0
LINE
  5
21E
330
42
100
AcDbEntity
  8
001
 62
     3
370
     9
100
AcDbLine
 10
432.273286
 20
18.901021
 30
0.0
 11
434.078849
 21
20.706585
 31
0.0
  0
LINE
  5
21F
330
42
100
AcDbEntity
  8
001
 62
     3
370
     9
100
AcDbLine
 10
432.269364
 20
18.978956
 30
0.0
 11
433.898236
 21
20.607828
 31
0.0
  0
LINE
  5
220
330
42
100
AcDbEntity
  8
001
 62
     3
370
     9
100
AcDbLine
 10
432.264265
 20
19.055714
 30
0.0
 11
433.737893
 21
20.529342
 31
0.0
  0
LINE
  5
221
330
42
100
AcDbEntity
  8
001
 62
     3
370
     9
100
AcDbLine
 10
432.258037
 20
19.131342
 30
0.0
 11
433.591436
 21
20.464741
 31
0.0
  0
LINE
  5
222
330
42
100
AcDbEntity
  8
001
 62
     3
370
     9
100
AcDbLine
 10
432.250725
 20
19.205886
 30
0.0
 11
433.455303
 21
20.410464
 31
0.0
  0
LINE
  5
223
330
42
100
AcDbEntity
  8
001
 62
     3
370
     9
100
AcDbLine
 10
432.242369
 20
19.279386
 30
0.0
 11
433.327263
 21
20.36428
 31
0.0
  0
LINE
  5
224
330
42
100
AcDbEntity
  8
001
 62
     3
370
     9
100
AcDbLine
 10
432.233006
 20
19.35188
 30
0.0
 11
433.205807
 21
20.324682
 31
0.0
  0
LINE
  5
225
330
42
100
AcDbEntity
  8
001
 62
     3
370
     9
100
AcDbLine
 10
432.222671
 20
19.423402
 30
0.0
 11
433.089861
 21
20.290592
 31
0.0
  0
LINE
  5
226
330
42
100
AcDbEntity
  8
001
 62
     3
370
     9
100
AcDbLine
 10
432.211397
 20
19.493984
 30
0.0
 11
432.978622
 21
20.26121
 31
0.0
  0
LINE
  5
227
330
42
100
AcDbEntity
  8
001
 62
     3
370
     9
100
AcDbLine
 10
432.199213
 20
19.563657
 30
0.0
 11
432.871477
 21
20.235921
 31
0.0
  0
LINE
  5
228
330
42
100
AcDbEntity
  8
001
 62
     3
370
     9
100
AcDbLine
 10
432.186147
 20
19.632447
 30
0.0
 11
432.76794
 21
20.21424
 31
0.0
  0
LINE
  5
229
330
42
100
AcDbEntity
  8
001
 62
     3
370
     9
100
AcDbLine
 10
432.172225
 20
19.700381
 30
0.0
 11
432.667621
 21
20.195777
 31
0.0
  0
LINE
  5
22A
330
42
100
AcDbEntity
  8
001
 62
     3
370
     9
100
AcDbLine
 10
432.15747
 20
19.767483
 30
0.0
 11
432.5702
 21
20.180213
 31
0.0
  0
LINE
  5
22B
330
42
100
AcDbEntity
  8
001
 62
     3
370
     9
100
AcDbLine
 10
432.141905
 20
19.833775
 30
0.0
 11
432.475412
 21
20.167281
 31
0.0
  0
LINE
  5
22C
330
42
100
AcDbEntity
  8
001
 62
     3
370
     9
100
AcDbLine
 10
432.125551
 20
19.899277
 30
0.0
 11
432.383032
 21
20.156758
 31
0.0
  0
LINE
  5
22D
330
42
100
AcDbEntity
  8
001
 62
     3
370
     9
100
AcDbLine
 10
432.108428
 20
19.964011
 30
0.0
 11
432.29287
 21
20.148452
 31
0.0
  0
LINE
  5
22E
330
42
100
AcDbEntity
  8
001
 62
     3
370
     9
100
AcDbLine
 10
432.090554
 20
20.027993
 30
0.0
 11
432.204761
 21
20.1422
 31
0.0
  0
LINE
  5
22F
330
42
100
AcDbEntity
  8
001
 62
     3
370
     9
100
AcDbLine
 10
432.071947
 20
20.091242
 30
0.0
 11
432.118563
 21
20.137858
 31
0.0
  0
TEXT
  5
230
330
42
100
AcDbEntity
  8
001
 62
     3
370
    30
100
AcDbText
 10
425.5
 20
10.5
 30
0.0
 40
2.2
  1
ＦＡＸ　（０２５８）８２－９９９６
 41
0.549241
100
AcDbText
  0
TEXT
  5
253
330
42
100
AcDbEntity
  8
001
 62
     3
370
    30
100
AcDbText
 10
425.5
 20
13.4
 30
0.0
 40
2.2
  1
ＴＥＬ　（０２５８）８２－４１２３（チャック事業部）
 41
0.588557
100
AcDbText
  0
ENDBLK
  5
44
330
42
100
AcDbEntity
  8
0
100
AcDbBlockEnd
  0
BLOCK
  5
255
330
254
100
AcDbEntity
  8
0
100
AcDbBlockBegin
  2
JZB-2
 70
     0
 10
0.0
 20
0.0
 30
0.0
  3
JZB-2
  1

  0
LINE
  5
257
330
254
100
AcDbEntity
  8
001
370
    30
100
AcDbLine
 10
462.306693
 20
293.137232
 30
0.0
 11
462.306693
 21
297.712232
 31
0.0
  0
LINE
  5
258
330
254
100
AcDbEntity
  8
001
370
    30
100
AcDbLine
 10
470.230825
 20
297.712232
 30
0.0
 11
470.230825
 21
293.137232
 31
0.0
  0
LINE
  5
259
330
254
100
AcDbEntity
  8
001
370
    30
100
AcDbLine
 10
470.230825
 20
293.137232
 30
0.0
 11
466.268759
 21
290.849732
 31
0.0
  0
LINE
  5
25A
330
254
100
AcDbEntity
  8
001
370
    30
100
AcDbLine
 10
466.268759
 20
299.999732
 30
0.0
 11
462.306693
 21
297.712232
 31
0.0
  0
LINE
  5
25B
330
254
100
AcDbEntity
  8
001
370
    30
100
AcDbLine
 10
466.268759
 20
299.999732
 30
0.0
 11
470.230825
 21
297.712232
 31
0.0
  0
LINE
  5
25C
330
254
100
AcDbEntity
  8
001
370
    30
100
AcDbLine
 10
466.268759
 20
290.849732
 30
0.0
 11
462.306693
 21
293.137232
 31
0.0
  0
CIRCLE
  5
25D
330
254
100
AcDbEntity
  8
001
370
    30
100
AcDbCircle
 10
466.268759
 20
295.424732
 30
0.0
 40
8.0
  0
ENDBLK
  5
256
330
254
100
AcDbEntity
  8
0
100
AcDbBlockEnd
  0
BLOCK
  5
25F
330
25E
100
AcDbEntity
  8
0
100
AcDbBlockBegin
  2
JZB-3
 70
     0
 10
0.0
 20
0.0
 30
0.0
  3
JZB-3
  1

  0
LINE
  5
261
330
25E
100
AcDbEntity
  8
001
370
    30
100
AcDbLine
 10
403.481917
 20
254.599732
 30
0.0
 11
399.519851
 21
256.887232
 31
0.0
  0
LINE
  5
262
330
25E
100
AcDbEntity
  8
001
370
    30
100
AcDbLine
 10
403.481917
 20
263.749732
 30
0.0
 11
407.443984
 21
261.462232
 31
0.0
  0
LINE
  5
263
330
25E
100
AcDbEntity
  8
001
370
    30
100
AcDbLine
 10
407.443984
 20
261.462232
 30
0.0
 11
407.443984
 21
256.887232
 31
0.0
  0
LINE
  5
264
330
25E
100
AcDbEntity
  8
001
370
    30
100
AcDbLine
 10
399.519851
 20
261.462232
 30
0.0
 11
399.519851
 21
256.887232
 31
0.0
  0
LINE
  5
265
330
25E
100
AcDbEntity
  8
001
370
    30
100
AcDbLine
 10
399.519851
 20
261.462232
 30
0.0
 11
403.481917
 21
263.749732
 31
0.0
  0
LINE
  5
266
330
25E
100
AcDbEntity
  8
001
370
    30
100
AcDbLine
 10
407.443984
 20
256.887232
 30
0.0
 11
403.481917
 21
254.599732
 31
0.0
  0
CIRCLE
  5
267
330
25E
100
AcDbEntity
  8
001
370
    30
100
AcDbCircle
 10
403.481917
 20
259.174732
 30
0.0
 40
8.0
  0
ENDBLK
  5
260
330
25E
100
AcDbEntity
  8
0
100
AcDbBlockEnd
  0
BLOCK
  5
269
330
268
100
AcDbEntity
  8
0
100
AcDbBlockBegin
  2
JZB-4
 70
     0
 10
0.0
 20
0.0
 30
0.0
  3
JZB-4
  1

  0
LINE
  5
26B
330
268
100
AcDbEntity
  8
001
370
    30
100
AcDbLine
 10
407.443984
 20
184.387232
 30
0.0
 11
403.481917
 21
182.099732
 31
0.0
  0
LINE
  5
26C
330
268
100
AcDbEntity
  8
001
370
    30
100
AcDbLine
 10
399.519851
 20
188.962232
 30
0.0
 11
403.481917
 21
191.249732
 31
0.0
  0
LINE
  5
26D
330
268
100
AcDbEntity
  8
001
370
    30
100
AcDbLine
 10
403.481917
 20
191.249732
 30
0.0
 11
407.443984
 21
188.962232
 31
0.0
  0
LINE
  5
26E
330
268
100
AcDbEntity
  8
001
370
    30
100
AcDbLine
 10
399.519851
 20
184.387232
 30
0.0
 11
403.481917
 21
182.099732
 31
0.0
  0
LINE
  5
26F
330
268
100
AcDbEntity
  8
001
370
    30
100
AcDbLine
 10
399.519851
 20
184.387232
 30
0.0
 11
399.519851
 21
188.962232
 31
0.0
  0
LINE
  5
270
330
268
100
AcDbEntity
  8
001
370
    30
100
AcDbLine
 10
407.443984
 20
188.962232
 30
0.0
 11
407.443984
 21
184.387232
 31
0.0
  0
CIRCLE
  5
271
330
268
100
AcDbEntity
  8
001
370
    30
100
AcDbCircle
 10
403.481917
 20
186.674732
 30
0.0
 40
8.0
  0
ENDBLK
  5
26A
330
268
100
AcDbEntity
  8
0
100
AcDbBlockEnd
  0
BLOCK
  5
273
330
272
100
AcDbEntity
  8
0
100
AcDbBlockBegin
  2
JZB-5
 70
     0
 10
0.0
 20
0.0
 30
0.0
  3
JZB-5
  1

  0
LINE
  5
275
330
272
100
AcDbEntity
  8
001
370
    30
100
AcDbLine
 10
529.055601
 20
191.249732
 30
0.0
 11
533.017667
 21
188.962232
 31
0.0
  0
LINE
  5
276
330
272
100
AcDbEntity
  8
001
370
    30
100
AcDbLine
 10
529.055601
 20
182.099732
 30
0.0
 11
525.093535
 21
184.387232
 31
0.0
  0
LINE
  5
277
330
272
100
AcDbEntity
  8
001
370
    30
100
AcDbLine
 10
525.093535
 20
184.387232
 30
0.0
 11
525.093535
 21
188.962232
 31
0.0
  0
LINE
  5
278
330
272
100
AcDbEntity
  8
001
370
    30
100
AcDbLine
 10
533.017667
 20
184.387232
 30
0.0
 11
533.017667
 21
188.962232
 31
0.0
  0
LINE
  5
279
330
272
100
AcDbEntity
  8
001
370
    30
100
AcDbLine
 10
533.017667
 20
184.387232
 30
0.0
 11
529.055601
 21
182.099732
 31
0.0
  0
LINE
  5
27A
330
272
100
AcDbEntity
  8
001
370
    30
100
AcDbLine
 10
525.093535
 20
188.962232
 30
0.0
 11
529.055601
 21
191.249732
 31
0.0
  0
CIRCLE
  5
27B
330
272
100
AcDbEntity
  8
001
370
    30
100
AcDbCircle
 10
529.055601
 20
186.674732
 30
0.0
 40
8.0
  0
ENDBLK
  5
274
330
272
100
AcDbEntity
  8
0
100
AcDbBlockEnd
  0
BLOCK
  5
27D
330
27C
100
AcDbEntity
  8
0
100
AcDbBlockBegin
  2
JZB-6
 70
     0
 10
0.0
 20
0.0
 30
0.0
  3
JZB-6
  1

  0
LINE
  5
27F
330
27C
100
AcDbEntity
  8
001
370
    30
100
AcDbLine
 10
525.093535
 20
261.462232
 30
0.0
 11
529.055601
 21
263.749732
 31
0.0
  0
LINE
  5
280
330
27C
100
AcDbEntity
  8
001
370
    30
100
AcDbLine
 10
533.017667
 20
256.887232
 30
0.0
 11
529.055601
 21
254.599732
 31
0.0
  0
LINE
  5
281
330
27C
100
AcDbEntity
  8
001
370
    30
100
AcDbLine
 10
529.055601
 20
254.599732
 30
0.0
 11
525.093535
 21
256.887232
 31
0.0
  0
LINE
  5
282
330
27C
100
AcDbEntity
  8
001
370
    30
100
AcDbLine
 10
533.017667
 20
261.462232
 30
0.0
 11
529.055601
 21
263.749732
 31
0.0
  0
LINE
  5
283
330
27C
100
AcDbEntity
  8
001
370
    30
100
AcDbLine
 10
533.017667
 20
261.462232
 30
0.0
 11
533.017667
 21
256.887232
 31
0.0
  0
LINE
  5
284
330
27C
100
AcDbEntity
  8
001
370
    30
100
AcDbLine
 10
525.093535
 20
256.887232
 30
0.0
 11
525.093535
 21
261.462232
 31
0.0
  0
CIRCLE
  5
285
330
27C
100
AcDbEntity
  8
001
370
    30
100
AcDbCircle
 10
529.055601
 20
259.174732
 30
0.0
 40
8.0
  0
ENDBLK
  5
27E
330
27C
100
AcDbEntity
  8
0
100
AcDbBlockEnd
  0
BLOCK
  5
287
330
286
100
AcDbEntity
  8
0
100
AcDbBlockBegin
  2
JZB-7
 70
     0
 10
0.0
 20
0.0
 30
0.0
  3
JZB-7
  1

  0
LINE
  5
289
330
286
100
AcDbEntity
  8
001
370
    30
100
AcDbLine
 10
470.230825
 20
152.712232
 30
0.0
 11
470.230825
 21
148.137232
 31
0.0
  0
LINE
  5
28A
330
286
100
AcDbEntity
  8
001
370
    30
100
AcDbLine
 10
462.306693
 20
148.137232
 30
0.0
 11
462.306693
 21
152.712232
 31
0.0
  0
LINE
  5
28B
330
286
100
AcDbEntity
  8
001
370
    30
100
AcDbLine
 10
462.306693
 20
152.712232
 30
0.0
 11
466.268759
 21
154.999732
 31
0.0
  0
LINE
  5
28C
330
286
100
AcDbEntity
  8
001
370
    30
100
AcDbLine
 10
466.268759
 20
145.849732
 30
0.0
 11
470.230825
 21
148.137232
 31
0.0
  0
LINE
  5
28D
330
286
100
AcDbEntity
  8
001
370
    30
100
AcDbLine
 10
466.268759
 20
145.849732
 30
0.0
 11
462.306693
 21
148.137232
 31
0.0
  0
LINE
  5
28E
330
286
100
AcDbEntity
  8
001
370
    30
100
AcDbLine
 10
466.268759
 20
154.999732
 30
0.0
 11
470.230825
 21
152.712232
 31
0.0
  0
CIRCLE
  5
28F
330
286
100
AcDbEntity
  8
001
370
    30
100
AcDbCircle
 10
466.268759
 20
150.424732
 30
0.0
 40
8.0
  0
ENDBLK
  5
288
330
286
100
AcDbEntity
  8
0
100
AcDbBlockEnd
  0
BLOCK
  5
291
330
290
100
AcDbEntity
  8
0
100
AcDbBlockBegin
  2
DIM-8
 70
     0
 10
0.0
 20
0.0
 30
0.0
  3
DIM-8
  1

  0
TEXT
  5
293
330
290
100
AcDbEntity
  8
001
 62
     3
370
     9
100
AcDbText
 10
353.36
 20
14.42376
 30
0.0
 40
1.6
  1
１
 41
0.666667
100
AcDbText
  0
POLYLINE
  5
294
330
290
100
AcDbEntity
  8
001
 62
     3
370
     9
100
AcDb2dPolyline
 66
     1
 10
0.0
 20
0.0
 30
0.0
  0
VERTEX
  5
296
330
294
100
AcDbEntity
  8
001
 62
     3
370
     9
100
AcDbVertex
100
AcDb2dVertex
 10
352.4
 20
14.3
 30
0.0
  0
VERTEX
  5
297
330
294
100
AcDbEntity
  8
001
 62
     3
370
     9
100
AcDbVertex
100
AcDb2dVertex
 10
355.6
 20
14.3
 30
0.0
  0
VERTEX
  5
298
330
294
100
AcDbEntity
  8
001
 62
     3
370
     9
100
AcDbVertex
100
AcDb2dVertex
 10
354.0
 20
17.071281
 30
0.0
  0
VERTEX
  5
299
330
294
100
AcDbEntity
  8
001
 62
     3
370
     9
100
AcDbVertex
100
AcDb2dVertex
 10
352.4
 20
14.3
 30
0.0
  0
SEQEND
  5
295
330
294
100
AcDbEntity
  8
001
370
     9
  0
ENDBLK
  5
292
330
290
100
AcDbEntity
  8
0
100
AcDbBlockEnd
  0
BLOCK
  5
29B
330
29A
100
AcDbEntity
  8
0
100
AcDbBlockBegin
  2
DIM-9
 70
     0
 10
0.0
 20
0.0
 30
0.0
  3
DIM-9
  1

  0
TEXT
  5
29D
330
29A
100
AcDbEntity
  8
001
 62
     3
370
     9
100
AcDbText
 10
353.36
 20
18.22376
 30
0.0
 40
1.6
  1
２
 41
0.666667
100
AcDbText
  0
POLYLINE
  5
29E
330
29A
100
AcDbEntity
  8
001
 62
     3
370
     9
100
AcDb2dPolyline
 66
     1
 10
0.0
 20
0.0
 30
0.0
  0
VERTEX
  5
2A0
330
29E
100
AcDbEntity
  8
001
 62
     3
370
     9
100
AcDbVertex
100
AcDb2dVertex
 10
352.4
 20
18.1
 30
0.0
  0
VERTEX
  5
2A1
330
29E
100
AcDbEntity
  8
001
 62
     3
370
     9
100
AcDbVertex
100
AcDb2dVertex
 10
355.6
 20
18.1
 30
0.0
  0
VERTEX
  5
2A2
330
29E
100
AcDbEntity
  8
001
 62
     3
370
     9
100
AcDbVertex
100
AcDb2dVertex
 10
354.0
 20
20.871281
 30
0.0
  0
VERTEX
  5
2A3
330
29E
100
AcDbEntity
  8
001
 62
     3
370
     9
100
AcDbVertex
100
AcDb2dVertex
 10
352.4
 20
18.1
 30
0.0
  0
SEQEND
  5
29F
330
29E
100
AcDbEntity
  8
001
370
     9
  0
ENDBLK
  5
29C
330
29A
100
AcDbEntity
  8
0
100
AcDbBlockEnd
  0
BLOCK
  5
2A5
330
2A4
100
AcDbEntity
  8
0
100
AcDbBlockBegin
  2
DIM-10
 70
     0
 10
0.0
 20
0.0
 30
0.0
  3
DIM-10
  1

  0
TEXT
  5
2A7
330
2A4
100
AcDbEntity
  8
001
 62
     3
370
     9
100
AcDbText
 10
353.36
 20
22.02376
 30
0.0
 40
1.6
  1
３
 41
0.666667
100
AcDbText
  0
POLYLINE
  5
2A8
330
2A4
100
AcDbEntity
  8
001
 62
     3
370
     9
100
AcDb2dPolyline
 66
     1
 10
0.0
 20
0.0
 30
0.0
  0
VERTEX
  5
2AA
330
2A8
100
AcDbEntity
  8
001
 62
     3
370
     9
100
AcDbVertex
100
AcDb2dVertex
 10
352.4
 20
21.9
 30
0.0
  0
VERTEX
  5
2AB
330
2A8
100
AcDbEntity
  8
001
 62
     3
370
     9
100
AcDbVertex
100
AcDb2dVertex
 10
355.6
 20
21.9
 30
0.0
  0
VERTEX
  5
2AC
330
2A8
100
AcDbEntity
  8
001
 62
     3
370
     9
100
AcDbVertex
100
AcDb2dVertex
 10
354.0
 20
24.671281
 30
0.0
  0
VERTEX
  5
2AD
330
2A8
100
AcDbEntity
  8
001
 62
     3
370
     9
100
AcDbVertex
100
AcDb2dVertex
 10
352.4
 20
21.9
 30
0.0
  0
SEQEND
  5
2A9
330
2A8
100
AcDbEntity
  8
001
370
     9
  0
ENDBLK
  5
2A6
330
2A4
100
AcDbEntity
  8
0
100
AcDbBlockEnd
  0
BLOCK
  5
2AF
330
2AE
100
AcDbEntity
  8
0
100
AcDbBlockBegin
  2
DIM-11
 70
     0
 10
0.0
 20
0.0
 30
0.0
  3
DIM-11
  1

  0
TEXT
  5
2B1
330
2AE
100
AcDbEntity
  8
001
 62
     3
370
     9
100
AcDbText
 10
353.36
 20
25.82376
 30
0.0
 40
1.6
  1
４
 41
0.666667
100
AcDbText
  0
POLYLINE
  5
2B2
330
2AE
100
AcDbEntity
  8
001
 62
     3
370
     9
100
AcDb2dPolyline
 66
     1
 10
0.0
 20
0.0
 30
0.0
  0
VERTEX
  5
2B4
330
2B2
100
AcDbEntity
  8
001
 62
     3
370
     9
100
AcDbVertex
100
AcDb2dVertex
 10
352.4
 20
25.7
 30
0.0
  0
VERTEX
  5
2B5
330
2B2
100
AcDbEntity
  8
001
 62
     3
370
     9
100
AcDbVertex
100
AcDb2dVertex
 10
355.6
 20
25.7
 30
0.0
  0
VERTEX
  5
2B6
330
2B2
100
AcDbEntity
  8
001
 62
     3
370
     9
100
AcDbVertex
100
AcDb2dVertex
 10
354.0
 20
28.471281
 30
0.0
  0
VERTEX
  5
2B7
330
2B2
100
AcDbEntity
  8
001
 62
     3
370
     9
100
AcDbVertex
100
AcDb2dVertex
 10
352.4
 20
25.7
 30
0.0
  0
SEQEND
  5
2B3
330
2B2
100
AcDbEntity
  8
001
370
     9
  0
ENDBLK
  5
2B0
330
2AE
100
AcDbEntity
  8
0
100
AcDbBlockEnd
  0
BLOCK
  5
2B9
330
2B8
100
AcDbEntity
  8
0
100
AcDbBlockBegin
  2
DIM-12
 70
     0
 10
0.0
 20
0.0
 30
0.0
  3
DIM-12
  1

  0
TEXT
  5
2BB
330
2B8
100
AcDbEntity
  8
001
 62
     3
370
     9
100
AcDbText
 10
353.36
 20
29.62376
 30
0.0
 40
1.6
  1
５
 41
0.666667
100
AcDbText
  0
POLYLINE
  5
2BC
330
2B8
100
AcDbEntity
  8
001
 62
     3
370
     9
100
AcDb2dPolyline
 66
     1
 10
0.0
 20
0.0
 30
0.0
  0
VERTEX
  5
2BE
330
2BC
100
AcDbEntity
  8
001
 62
     3
370
     9
100
AcDbVertex
100
AcDb2dVertex
 10
352.4
 20
29.5
 30
0.0
  0
VERTEX
  5
2BF
330
2BC
100
AcDbEntity
  8
001
 62
     3
370
     9
100
AcDbVertex
100
AcDb2dVertex
 10
355.6
 20
29.5
 30
0.0
  0
VERTEX
  5
2C0
330
2BC
100
AcDbEntity
  8
001
 62
     3
370
     9
100
AcDbVertex
100
AcDb2dVertex
 10
354.0
 20
32.271281
 30
0.0
  0
VERTEX
  5
2C1
330
2BC
100
AcDbEntity
  8
001
 62
     3
370
     9
100
AcDbVertex
100
AcDb2dVertex
 10
352.4
 20
29.5
 30
0.0
  0
SEQEND
  5
2BD
330
2BC
100
AcDbEntity
  8
001
370
     9
  0
ENDBLK
  5
2BA
330
2B8
100
AcDbEntity
  8
0
100
AcDbBlockEnd
  0
BLOCK
  5
2C3
330
2C2
100
AcDbEntity
  8
0
100
AcDbBlockBegin
  2
DIM-13
 70
     0
 10
0.0
 20
0.0
 30
0.0
  3
DIM-13
  1

  0
TEXT
  5
2C5
330
2C2
100
AcDbEntity
  8
001
 62
     3
370
     9
100
AcDbText
 10
353.36
 20
33.42376
 30
0.0
 40
1.6
  1
６
 41
0.666667
100
AcDbText
  0
POLYLINE
  5
2C6
330
2C2
100
AcDbEntity
  8
001
 62
     3
370
     9
100
AcDb2dPolyline
 66
     1
 10
0.0
 20
0.0
 30
0.0
  0
VERTEX
  5
2C8
330
2C6
100
AcDbEntity
  8
001
 62
     3
370
     9
100
AcDbVertex
100
AcDb2dVertex
 10
352.4
 20
33.3
 30
0.0
  0
VERTEX
  5
2C9
330
2C6
100
AcDbEntity
  8
001
 62
     3
370
     9
100
AcDbVertex
100
AcDb2dVertex
 10
355.6
 20
33.3
 30
0.0
  0
VERTEX
  5
2CA
330
2C6
100
AcDbEntity
  8
001
 62
     3
370
     9
100
AcDbVertex
100
AcDb2dVertex
 10
354.0
 20
36.071281
 30
0.0
  0
VERTEX
  5
2CB
330
2C6
100
AcDbEntity
  8
001
 62
     3
370
     9
100
AcDbVertex
100
AcDb2dVertex
 10
352.4
 20
33.3
 30
0.0
  0
SEQEND
  5
2C7
330
2C6
100
AcDbEntity
  8
001
370
     9
  0
ENDBLK
  5
2C4
330
2C2
100
AcDbEntity
  8
0
100
AcDbBlockEnd
  0
BLOCK
  5
2CD
330
2CC
100
AcDbEntity
  8
0
100
AcDbBlockBegin
  2
DIM-14
 70
     0
 10
0.0
 20
0.0
 30
0.0
  3
DIM-14
  1

  0
TEXT
  5
2CF
330
2CC
100
AcDbEntity
  8
001
 62
     3
370
     9
100
AcDbText
 10
353.36
 20
37.22376
 30
0.0
 40
1.6
  1
７
 41
0.666667
100
AcDbText
  0
POLYLINE
  5
2D0
330
2CC
100
AcDbEntity
  8
001
 62
     3
370
     9
100
AcDb2dPolyline
 66
     1
 10
0.0
 20
0.0
 30
0.0
  0
VERTEX
  5
2D2
330
2D0
100
AcDbEntity
  8
001
 62
     3
370
     9
100
AcDbVertex
100
AcDb2dVertex
 10
352.4
 20
37.1
 30
0.0
  0
VERTEX
  5
2D3
330
2D0
100
AcDbEntity
  8
001
 62
     3
370
     9
100
AcDbVertex
100
AcDb2dVertex
 10
355.6
 20
37.1
 30
0.0
  0
VERTEX
  5
2D4
330
2D0
100
AcDbEntity
  8
001
 62
     3
370
     9
100
AcDbVertex
100
AcDb2dVertex
 10
354.0
 20
39.871281
 30
0.0
  0
VERTEX
  5
2D5
330
2D0
100
AcDbEntity
  8
001
 62
     3
370
     9
100
AcDbVertex
100
AcDb2dVertex
 10
352.4
 20
37.1
 30
0.0
  0
SEQEND
  5
2D1
330
2D0
100
AcDbEntity
  8
001
370
     9
  0
ENDBLK
  5
2CE
330
2CC
100
AcDbEntity
  8
0
100
AcDbBlockEnd
  0
BLOCK
  5
2D7
330
2D6
100
AcDbEntity
  8
0
100
AcDbBlockBegin
  2
DIM-15
 70
     0
 10
0.0
 20
0.0
 30
0.0
  3
DIM-15
  1

  0
TEXT
  5
2D9
330
2D6
100
AcDbEntity
  8
001
 62
     3
370
     9
100
AcDbText
 10
353.36
 20
41.02376
 30
0.0
 40
1.6
  1
８
 41
0.666667
100
AcDbText
  0
POLYLINE
  5
2DA
330
2D6
100
AcDbEntity
  8
001
 62
     3
370
     9
100
AcDb2dPolyline
 66
     1
 10
0.0
 20
0.0
 30
0.0
  0
VERTEX
  5
2DC
330
2DA
100
AcDbEntity
  8
001
 62
     3
370
     9
100
AcDbVertex
100
AcDb2dVertex
 10
352.4
 20
40.9
 30
0.0
  0
VERTEX
  5
2DD
330
2DA
100
AcDbEntity
  8
001
 62
     3
370
     9
100
AcDbVertex
100
AcDb2dVertex
 10
355.6
 20
40.9
 30
0.0
  0
VERTEX
  5
2DE
330
2DA
100
AcDbEntity
  8
001
 62
     3
370
     9
100
AcDbVertex
100
AcDb2dVertex
 10
354.0
 20
43.671281
 30
0.0
  0
VERTEX
  5
2DF
330
2DA
100
AcDbEntity
  8
001
 62
     3
370
     9
100
AcDbVertex
100
AcDb2dVertex
 10
352.4
 20
40.9
 30
0.0
  0
SEQEND
  5
2DB
330
2DA
100
AcDbEntity
  8
001
370
     9
  0
ENDBLK
  5
2D8
330
2D6
100
AcDbEntity
  8
0
100
AcDbBlockEnd
  0
BLOCK
  5
2E1
330
2E0
100
AcDbEntity
  8
0
100
AcDbBlockBegin
  2
DIM-16
 70
     0
 10
0.0
 20
0.0
 30
0.0
  3
DIM-16
  1

  0
TEXT
  5
2E3
330
2E0
100
AcDbEntity
  8
001
 62
     3
370
     9
100
AcDbText
 10
353.36
 20
44.82376
 30
0.0
 40
1.6
  1
９
 41
0.666667
100
AcDbText
  0
POLYLINE
  5
2E4
330
2E0
100
AcDbEntity
  8
001
 62
     3
370
     9
100
AcDb2dPolyline
 66
     1
 10
0.0
 20
0.0
 30
0.0
  0
VERTEX
  5
2E6
330
2E4
100
AcDbEntity
  8
001
 62
     3
370
     9
100
AcDbVertex
100
AcDb2dVertex
 10
352.4
 20
44.7
 30
0.0
  0
VERTEX
  5
2E7
330
2E4
100
AcDbEntity
  8
001
 62
     3
370
     9
100
AcDbVertex
100
AcDb2dVertex
 10
355.6
 20
44.7
 30
0.0
  0
VERTEX
  5
2E8
330
2E4
100
AcDbEntity
  8
001
 62
     3
370
     9
100
AcDbVertex
100
AcDb2dVertex
 10
354.0
 20
47.471281
 30
0.0
  0
VERTEX
  5
2E9
330
2E4
100
AcDbEntity
  8
001
 62
     3
370
     9
100
AcDbVertex
100
AcDb2dVertex
 10
352.4
 20
44.7
 30
0.0
  0
SEQEND
  5
2E5
330
2E4
100
AcDbEntity
  8
001
370
     9
  0
ENDBLK
  5
2E2
330
2E0
100
AcDbEntity
  8
0
100
AcDbBlockEnd
  0
BLOCK
  5
2EB
330
2EA
100
AcDbEntity
  8
0
100
AcDbBlockBegin
  2
*D17
 70
     1
 10
0.0
 20
0.0
 30
0.0
  3
*D17
  1

  0
LINE
  5
2ED
330
2EA
100
AcDbEntity
  8
001
 62
     3
370
     9
100
AcDbLine
 10
144.760113
 20
299.424732
 30
0.0
 11
144.760113
 21
320.463879
 31
0.0
  0
LINE
  5
2EE
330
2EA
100
AcDbEntity
  8
001
 62
     3
370
     9
100
AcDbLine
 10
160.760113
 20
304.424732
 30
0.0
 11
160.760113
 21
320.463879
 31
0.0
  0
LINE
  5
2EF
330
2EA
100
AcDbEntity
  8
001
 62
     3
370
     9
100
AcDbLine
 10
144.760113
 20
319.263879
 30
0.0
 11
160.760113
 21
319.263879
 31
0.0
  0
POLYLINE
  5
2F0
330
2EA
100
AcDbEntity
  8
001
 62
     3
370
     9
100
AcDb2dPolyline
 66
     1
 10
0.0
 20
0.0
 30
0.0
  0
VERTEX
  5
2F2
330
2F0
100
AcDbEntity
  8
001
 62
     3
370
     9
100
AcDbVertex
100
AcDb2dVertex
 10
146.760113
 20
318.72798
 30
0.0
  0
VERTEX
  5
2F3
330
2F0
100
AcDbEntity
  8
001
 62
     3
370
     9
100
AcDbVertex
100
AcDb2dVertex
 10
144.760113
 20
319.263879
 30
0.0
  0
VERTEX
  5
2F4
330
2F0
100
AcDbEntity
  8
001
 62
     3
370
     9
100
AcDbVertex
100
AcDb2dVertex
 10
146.760113
 20
319.799777
 30
0.0
  0
SEQEND
  5
2F1
330
2F0
100
AcDbEntity
  8
001
370
     9
  0
POLYLINE
  5
2F5
330
2EA
100
AcDbEntity
  8
001
 62
     3
370
     9
100
AcDb2dPolyline
 66
     1
 10
0.0
 20
0.0
 30
0.0
  0
VERTEX
  5
2F7
330
2F5
100
AcDbEntity
  8
001
 62
     3
370
     9
100
AcDbVertex
100
AcDb2dVertex
 10
158.760113
 20
319.799777
 30
0.0
  0
VERTEX
  5
2F8
330
2F5
100
AcDbEntity
  8
001
 62
     3
370
     9
100
AcDbVertex
100
AcDb2dVertex
 10
160.760113
 20
319.263879
 30
0.0
  0
VERTEX
  5
2F9
330
2F5
100
AcDbEntity
  8
001
 62
     3
370
     9
100
AcDbVertex
100
AcDb2dVertex
 10
158.760113
 20
318.72798
 30
0.0
  0
SEQEND
  5
2F6
330
2F5
100
AcDbEntity
  8
001
370
     9
  0
TEXT
  5
2FA
330
2EA
100
AcDbEntity
  8
001
 62
     3
370
     9
100
AcDbText
 10
149.960113
 20
320.263879
 30
0.0
 40
3.5
  1
１６
 41
0.666667
100
AcDbText
  0
POINT
  5
2FB
330
2EA
100
AcDbEntity
  8
001
 62
     3
370
     9
100
AcDbPoint
 10
144.760113
 20
299.424732
 30
0.0
  0
POINT
  5
2FC
330
2EA
100
AcDbEntity
  8
001
 62
     3
370
     9
100
AcDbPoint
 10
160.760113
 20
304.424732
 30
0.0
  0
POINT
  5
2FD
330
2EA
100
AcDbEntity
  8
001
 62
     3
370
     9
100
AcDbPoint
 10
160.760113
 20
319.263879
 30
0.0
  0
ENDBLK
  5
2EC
330
2EA
100
AcDbEntity
  8
0
100
AcDbBlockEnd
  0
BLOCK
  5
2FF
330
2FE
100
AcDbEntity
  8
0
100
AcDbBlockBegin
  2
DIM-17
 70
     0
 10
0.0
 20
0.0
 30
0.0
  3
DIM-17
  1

  0
TEXT
  5
301
330
2FE
100
AcDbEntity
  8
001
 62
     4
370
    30
100
AcDbText
 10
106.098413
 20
258.415008
 30
0.0
 40
3.5
  1
Ｍ５０×Ｐ１．５
 41
0.833333
100
AcDbText
  0
POLYLINE
  5
302
330
2FE
100
AcDbEntity
  8
001
 62
     3
370
     9
100
AcDb2dPolyline
 66
     1
 10
0.0
 20
0.0
 30
0.0
  0
VERTEX
  5
304
330
302
100
AcDbEntity
  8
001
 62
     3
370
     9
100
AcDbVertex
100
AcDb2dVertex
 10
149.601983
 20
246.179071
 30
0.0
  0
VERTEX
  5
305
330
302
100
AcDbEntity
  8
001
 62
     3
370
     9
100
AcDbVertex
100
AcDb2dVertex
 10
151.417429
 20
247.174732
 30
0.0
  0
VERTEX
  5
306
330
302
100
AcDbEntity
  8
001
 62
     3
370
     9
100
AcDbVertex
100
AcDb2dVertex
 10
150.343037
 20
245.404741
 30
0.0
  0
SEQEND
  5
303
330
302
100
AcDbEntity
  8
001
370
     9
  0
POLYLINE
  5
307
330
2FE
100
AcDbEntity
  8
001
 62
     3
370
     9
100
AcDb2dPolyline
 66
     1
 10
0.0
 20
0.0
 30
0.0
  0
VERTEX
  5
309
330
307
100
AcDbEntity
  8
001
 62
     3
370
     9
100
AcDbVertex
100
AcDb2dVertex
 10
151.417429
 20
247.174732
 30
0.0
  0
VERTEX
  5
30A
330
307
100
AcDbEntity
  8
001
 62
     3
370
     9
100
AcDbVertex
100
AcDb2dVertex
 10
143.876112
 20
239.95749
 30
0.0
  0
VERTEX
  5
30B
330
307
100
AcDbEntity
  8
001
 62
     3
370
     9
100
AcDbVertex
100
AcDb2dVertex
 10
135.098413
 20
257.415008
 30
0.0
  0
VERTEX
  5
30C
330
307
100
AcDbEntity
  8
001
 62
     3
370
     9
100
AcDbVertex
100
AcDb2dVertex
 10
105.098413
 20
257.415008
 30
0.0
  0
SEQEND
  5
308
330
307
100
AcDbEntity
  8
001
370
     9
  0
ENDBLK
  5
300
330
2FE
100
AcDbEntity
  8
0
100
AcDbBlockEnd
  0
BLOCK
  5
30E
330
30D
100
AcDbEntity
  8
0
100
AcDbBlockBegin
  2
*D19
 70
     1
 10
0.0
 20
0.0
 30
0.0
  3
*D19
  1

  0
LINE
  5
310
330
30D
100
AcDbEntity
  8
001
 62
     3
370
     9
100
AcDbLine
 10
146.760113
 20
192.924732
 30
0.0
 11
103.036228
 21
192.924732
 31
0.0
  0
LINE
  5
311
330
30D
100
AcDbEntity
  8
001
 62
     3
370
     9
100
AcDbLine
 10
146.760113
 20
252.924732
 30
0.0
 11
103.036228
 21
252.924732
 31
0.0
  0
LINE
  5
312
330
30D
100
AcDbEntity
  8
001
 62
     3
370
     9
100
AcDbLine
 10
104.236228
 20
192.924732
 30
0.0
 11
104.236228
 21
252.924732
 31
0.0
  0
POLYLINE
  5
313
330
30D
100
AcDbEntity
  8
001
 62
     3
370
     9
100
AcDb2dPolyline
 66
     1
 10
0.0
 20
0.0
 30
0.0
  0
VERTEX
  5
315
330
313
100
AcDbEntity
  8
001
 62
     3
370
     9
100
AcDbVertex
100
AcDb2dVertex
 10
104.772126
 20
194.924732
 30
0.0
  0
VERTEX
  5
316
330
313
100
AcDbEntity
  8
001
 62
     3
370
     9
100
AcDbVertex
100
AcDb2dVertex
 10
104.236228
 20
192.924732
 30
0.0
  0
VERTEX
  5
317
330
313
100
AcDbEntity
  8
001
 62
     3
370
     9
100
AcDbVertex
100
AcDb2dVertex
 10
103.70033
 20
194.924732
 30
0.0
  0
SEQEND
  5
314
330
313
100
AcDbEntity
  8
001
370
     9
  0
POLYLINE
  5
318
330
30D
100
AcDbEntity
  8
001
 62
     3
370
     9
100
AcDb2dPolyline
 66
     1
 10
0.0
 20
0.0
 30
0.0
  0
VERTEX
  5
31A
330
318
100
AcDbEntity
  8
001
 62
     3
370
     9
100
AcDbVertex
100
AcDb2dVertex
 10
103.70033
 20
250.924732
 30
0.0
  0
VERTEX
  5
31B
330
318
100
AcDbEntity
  8
001
 62
     3
370
     9
100
AcDbVertex
100
AcDb2dVertex
 10
104.236228
 20
252.924732
 30
0.0
  0
VERTEX
  5
31C
330
318
100
AcDbEntity
  8
001
 62
     3
370
     9
100
AcDbVertex
100
AcDb2dVertex
 10
104.772126
 20
250.924732
 30
0.0
  0
SEQEND
  5
319
330
318
100
AcDbEntity
  8
001
370
     9
  0
TEXT
  5
31D
330
30D
100
AcDbEntity
  8
001
 62
     3
370
     9
100
AcDbText
 10
103.236228
 20
218.724732
 30
0.0
 40
3.5
  1
%%c６０
 50
90.000003
 41
0.705882
100
AcDbText
  0
POINT
  5
31E
330
30D
100
AcDbEntity
  8
001
 62
     3
370
     9
100
AcDbPoint
 10
146.760113
 20
192.924732
 30
0.0
  0
POINT
  5
31F
330
30D
100
AcDbEntity
  8
001
 62
     3
370
     9
100
AcDbPoint
 10
146.760113
 20
252.924732
 30
0.0
  0
POINT
  5
320
330
30D
100
AcDbEntity
  8
001
 62
     3
370
     9
100
AcDbPoint
 10
104.236228
 20
252.924732
 30
0.0
  0
ENDBLK
  5
30F
330
30D
100
AcDbEntity
  8
0
100
AcDbBlockEnd
  0
BLOCK
  5
322
330
321
100
AcDbEntity
  8
0
100
AcDbBlockBegin
  2
*D20
 70
     1
 10
0.0
 20
0.0
 30
0.0
  3
*D20
  1

  0
LINE
  5
324
330
321
100
AcDbEntity
  8
001
 62
     3
370
     9
100
AcDbLine
 10
161.760113
 20
305.424732
 30
0.0
 11
83.036228
 21
305.424732
 31
0.0
  0
LINE
  5
325
330
321
100
AcDbEntity
  8
001
 62
     3
370
     9
100
AcDbLine
 10
161.760113
 20
140.424732
 30
0.0
 11
83.036228
 21
140.424732
 31
0.0
  0
LINE
  5
326
330
321
100
AcDbEntity
  8
001
 62
     3
370
     9
100
AcDbLine
 10
84.236228
 20
305.424732
 30
0.0
 11
84.236228
 21
140.424732
 31
0.0
  0
POLYLINE
  5
327
330
321
100
AcDbEntity
  8
001
 62
     3
370
     9
100
AcDb2dPolyline
 66
     1
 10
0.0
 20
0.0
 30
0.0
  0
VERTEX
  5
329
330
327
100
AcDbEntity
  8
001
 62
     3
370
     9
100
AcDbVertex
100
AcDb2dVertex
 10
83.70033
 20
303.424732
 30
0.0
  0
VERTEX
  5
32A
330
327
100
AcDbEntity
  8
001
 62
     3
370
     9
100
AcDbVertex
100
AcDb2dVertex
 10
84.236228
 20
305.424732
 30
0.0
  0
VERTEX
  5
32B
330
327
100
AcDbEntity
  8
001
 62
     3
370
     9
100
AcDbVertex
100
AcDb2dVertex
 10
84.772126
 20
303.424732
 30
0.0
  0
SEQEND
  5
328
330
327
100
AcDbEntity
  8
001
370
     9
  0
POLYLINE
  5
32C
330
321
100
AcDbEntity
  8
001
 62
     3
370
     9
100
AcDb2dPolyline
 66
     1
 10
0.0
 20
0.0
 30
0.0
  0
VERTEX
  5
32E
330
32C
100
AcDbEntity
  8
001
 62
     3
370
     9
100
AcDbVertex
100
AcDb2dVertex
 10
84.772126
 20
142.424732
 30
0.0
  0
VERTEX
  5
32F
330
32C
100
AcDbEntity
  8
001
 62
     3
370
     9
100
AcDbVertex
100
AcDb2dVertex
 10
84.236228
 20
140.424732
 30
0.0
  0
VERTEX
  5
330
330
32C
100
AcDbEntity
  8
001
 62
     3
370
     9
100
AcDbVertex
100
AcDb2dVertex
 10
83.70033
 20
142.424732
 30
0.0
  0
SEQEND
  5
32D
330
32C
100
AcDbEntity
  8
001
370
     9
  0
TEXT
  5
331
330
321
100
AcDbEntity
  8
001
 62
     3
370
     9
100
AcDbText
 10
83.236228
 20
217.324732
 30
0.0
 40
3.5
  1
%%c１６５
 50
90.000003
 41
0.695652
100
AcDbText
  0
POINT
  5
332
330
321
100
AcDbEntity
  8
001
 62
     3
370
     9
100
AcDbPoint
 10
161.760113
 20
305.424732
 30
0.0
  0
POINT
  5
333
330
321
100
AcDbEntity
  8
001
 62
     3
370
     9
100
AcDbPoint
 10
161.760113
 20
140.424732
 30
0.0
  0
POINT
  5
334
330
321
100
AcDbEntity
  8
001
 62
     3
370
     9
100
AcDbPoint
 10
84.236228
 20
140.424732
 30
0.0
  0
ENDBLK
  5
323
330
321
100
AcDbEntity
  8
0
100
AcDbBlockEnd
  0
BLOCK
  5
336
330
335
100
AcDbEntity
  8
0
100
AcDbBlockBegin
  2
*D21
 70
     1
 10
0.0
 20
0.0
 30
0.0
  3
*D21
  1

  0
LINE
  5
338
330
335
100
AcDbEntity
  8
001
 62
     3
370
     9
100
AcDbLine
 10
537.9331
 20
233.900716
 30
0.0
 11
394.604418
 21
211.948748
 31
0.0
  0
POLYLINE
  5
339
330
335
100
AcDbEntity
  8
001
 62
     3
370
     9
100
AcDb2dPolyline
 66
     1
 10
0.0
 20
0.0
 30
0.0
  0
VERTEX
  5
33B
330
339
100
AcDbEntity
  8
001
 62
     3
370
     9
100
AcDbVertex
100
AcDb2dVertex
 10
535.875022
 20
234.127652
 30
0.0
  0
VERTEX
  5
33C
330
339
100
AcDbEntity
  8
001
 62
     3
370
     9
100
AcDbVertex
100
AcDb2dVertex
 10
537.9331
 20
233.900716
 30
0.0
  0
VERTEX
  5
33D
330
339
100
AcDbEntity
  8
001
 62
     3
370
     9
100
AcDbVertex
100
AcDb2dVertex
 10
536.037284
 20
233.068209
 30
0.0
  0
SEQEND
  5
33A
330
339
100
AcDbEntity
  8
001
370
     9
  0
POLYLINE
  5
33E
330
335
100
AcDbEntity
  8
001
 62
     3
370
     9
100
AcDb2dPolyline
 66
     1
 10
0.0
 20
0.0
 30
0.0
  0
VERTEX
  5
340
330
33E
100
AcDbEntity
  8
001
 62
     3
370
     9
100
AcDbVertex
100
AcDb2dVertex
 10
396.662497
 20
211.721812
 30
0.0
  0
VERTEX
  5
341
330
33E
100
AcDbEntity
  8
001
 62
     3
370
     9
100
AcDbVertex
100
AcDb2dVertex
 10
394.604418
 20
211.948748
 30
0.0
  0
VERTEX
  5
342
330
33E
100
AcDbEntity
  8
001
 62
     3
370
     9
100
AcDbVertex
100
AcDb2dVertex
 10
396.500234
 20
212.781255
 30
0.0
  0
SEQEND
  5
33F
330
33E
100
AcDbEntity
  8
001
370
     9
  0
TEXT
  5
343
330
335
100
AcDbEntity
  8
001
 62
     3
370
     9
100
AcDbText
 10
523.138379
 20
232.646444
 30
0.0
 40
3.5
  1
%%c１４５
 50
8.707655
 41
0.695652
100
AcDbText
  0
POINT
  5
344
330
335
100
AcDbEntity
  8
001
 62
     3
370
     9
100
AcDbPoint
 10
537.9331
 20
233.900716
 30
0.0
  0
POINT
  5
345
330
335
100
AcDbEntity
  8
001
 62
     3
370
     9
100
AcDbPoint
 10
394.604418
 20
211.948748
 30
0.0
  0
ENDBLK
  5
337
330
335
100
AcDbEntity
  8
0
100
AcDbBlockEnd
  0
BLOCK
  5
347
330
346
100
AcDbEntity
  8
0
100
AcDbBlockBegin
  2
*D22
 70
     1
 10
0.0
 20
0.0
 30
0.0
  3
*D22
  1

  0
LINE
  5
349
330
346
100
AcDbEntity
  8
001
 62
     3
370
     9
100
AcDbLine
 10
160.760113
 20
141.424732
 30
0.0
 11
160.760113
 21
102.02364
 31
0.0
  0
LINE
  5
34A
330
346
100
AcDbEntity
  8
001
 62
     3
370
     9
100
AcDbLine
 10
292.760113
 20
190.424732
 30
0.0
 11
292.760113
 21
102.02364
 31
0.0
  0
LINE
  5
34B
330
346
100
AcDbEntity
  8
001
 62
     3
370
     9
100
AcDbLine
 10
160.760113
 20
103.22364
 30
0.0
 11
292.760113
 21
103.22364
 31
0.0
  0
POLYLINE
  5
34C
330
346
100
AcDbEntity
  8
001
 62
     3
370
     9
100
AcDb2dPolyline
 66
     1
 10
0.0
 20
0.0
 30
0.0
  0
VERTEX
  5
34E
330
34C
100
AcDbEntity
  8
001
 62
     3
370
     9
100
AcDbVertex
100
AcDb2dVertex
 10
162.760113
 20
102.687741
 30
0.0
  0
VERTEX
  5
34F
330
34C
100
AcDbEntity
  8
001
 62
     3
370
     9
100
AcDbVertex
100
AcDb2dVertex
 10
160.760113
 20
103.22364
 30
0.0
  0
VERTEX
  5
350
330
34C
100
AcDbEntity
  8
001
 62
     3
370
     9
100
AcDbVertex
100
AcDb2dVertex
 10
162.760113
 20
103.759538
 30
0.0
  0
SEQEND
  5
34D
330
34C
100
AcDbEntity
  8
001
370
     9
  0
POLYLINE
  5
351
330
346
100
AcDbEntity
  8
001
 62
     3
370
     9
100
AcDb2dPolyline
 66
     1
 10
0.0
 20
0.0
 30
0.0
  0
VERTEX
  5
353
330
351
100
AcDbEntity
  8
001
 62
     3
370
     9
100
AcDbVertex
100
AcDb2dVertex
 10
290.760113
 20
103.759538
 30
0.0
  0
VERTEX
  5
354
330
351
100
AcDbEntity
  8
001
 62
     3
370
     9
100
AcDbVertex
100
AcDb2dVertex
 10
292.760113
 20
103.22364
 30
0.0
  0
VERTEX
  5
355
330
351
100
AcDbEntity
  8
001
 62
     3
370
     9
100
AcDbVertex
100
AcDb2dVertex
 10
290.760113
 20
102.687741
 30
0.0
  0
SEQEND
  5
352
330
351
100
AcDbEntity
  8
001
370
     9
  0
TEXT
  5
356
330
346
100
AcDbEntity
  8
001
 62
     3
370
     9
100
AcDbText
 10
222.560113
 20
104.22364
 30
0.0
 40
3.5
  1
１３２
 41
0.666667
100
AcDbText
  0
POINT
  5
357
330
346
100
AcDbEntity
  8
001
 62
     3
370
     9
100
AcDbPoint
 10
160.760113
 20
141.424732
 30
0.0
  0
POINT
  5
358
330
346
100
AcDbEntity
  8
001
 62
     3
370
     9
100
AcDbPoint
 10
292.760113
 20
190.424732
 30
0.0
  0
POINT
  5
359
330
346
100
AcDbEntity
  8
001
 62
     3
370
     9
100
AcDbPoint
 10
292.760113
 20
103.22364
 30
0.0
  0
ENDBLK
  5
348
330
346
100
AcDbEntity
  8
0
100
AcDbBlockEnd
  0
BLOCK
  5
35B
330
35A
100
AcDbEntity
  8
0
100
AcDbBlockBegin
  2
*D23
 70
     1
 10
0.0
 20
0.0
 30
0.0
  3
*D23
  1

  0
LINE
  5
35D
330
35A
100
AcDbEntity
  8
001
 62
     3
370
     9
100
AcDbLine
 10
145.760113
 20
193.924871
 30
0.0
 11
145.760113
 21
102.02364
 31
0.0
  0
LINE
  5
35E
330
35A
100
AcDbEntity
  8
001
 62
     3
370
     9
100
AcDbLine
 10
160.760113
 20
141.424732
 30
0.0
 11
160.760113
 21
102.02364
 31
0.0
  0
LINE
  5
35F
330
35A
100
AcDbEntity
  8
001
 62
     3
370
     9
100
AcDbLine
 10
145.760113
 20
103.22364
 30
0.0
 11
160.760113
 21
103.22364
 31
0.0
  0
POLYLINE
  5
360
330
35A
100
AcDbEntity
  8
001
 62
     3
370
     9
100
AcDb2dPolyline
 66
     1
 10
0.0
 20
0.0
 30
0.0
  0
VERTEX
  5
362
330
360
100
AcDbEntity
  8
001
 62
     3
370
     9
100
AcDbVertex
100
AcDb2dVertex
 10
147.760113
 20
102.687741
 30
0.0
  0
VERTEX
  5
363
330
360
100
AcDbEntity
  8
001
 62
     3
370
     9
100
AcDbVertex
100
AcDb2dVertex
 10
145.760113
 20
103.22364
 30
0.0
  0
VERTEX
  5
364
330
360
100
AcDbEntity
  8
001
 62
     3
370
     9
100
AcDbVertex
100
AcDb2dVertex
 10
147.760113
 20
103.759538
 30
0.0
  0
SEQEND
  5
361
330
360
100
AcDbEntity
  8
001
370
     9
  0
POLYLINE
  5
365
330
35A
100
AcDbEntity
  8
001
 62
     3
370
     9
100
AcDb2dPolyline
 66
     1
 10
0.0
 20
0.0
 30
0.0
  0
VERTEX
  5
367
330
365
100
AcDbEntity
  8
001
 62
     3
370
     9
100
AcDbVertex
100
AcDb2dVertex
 10
158.760113
 20
103.759538
 30
0.0
  0
VERTEX
  5
368
330
365
100
AcDbEntity
  8
001
 62
     3
370
     9
100
AcDbVertex
100
AcDb2dVertex
 10
160.760113
 20
103.22364
 30
0.0
  0
VERTEX
  5
369
330
365
100
AcDbEntity
  8
001
 62
     3
370
     9
100
AcDbVertex
100
AcDb2dVertex
 10
158.760113
 20
102.687741
 30
0.0
  0
SEQEND
  5
366
330
365
100
AcDbEntity
  8
001
370
     9
  0
TEXT
  5
36A
330
35A
100
AcDbEntity
  8
001
 62
     3
370
     9
100
AcDbText
 10
150.460113
 20
104.22364
 30
0.0
 40
3.5
  1
１５
 41
0.666667
100
AcDbText
  0
POINT
  5
36B
330
35A
100
AcDbEntity
  8
001
 62
     3
370
     9
100
AcDbPoint
 10
145.760113
 20
193.924871
 30
0.0
  0
POINT
  5
36C
330
35A
100
AcDbEntity
  8
001
 62
     3
370
     9
100
AcDbPoint
 10
160.760113
 20
141.424732
 30
0.0
  0
POINT
  5
36D
330
35A
100
AcDbEntity
  8
001
 62
     3
370
     9
100
AcDbPoint
 10
160.760113
 20
103.22364
 30
0.0
  0
ENDBLK
  5
35C
330
35A
100
AcDbEntity
  8
0
100
AcDbBlockEnd
  0
BLOCK
  5
36F
330
36E
100
AcDbEntity
  8
0
100
AcDbBlockBegin
  2
*D24
 70
     1
 10
0.0
 20
0.0
 30
0.0
  3
*D24
  1

  0
LINE
  5
371
330
36E
100
AcDbEntity
  8
001
 62
     3
370
     9
100
AcDbLine
 10
220.760113
 20
141.424732
 30
0.0
 11
220.760113
 21
112.02364
 31
0.0
  0
LINE
  5
372
330
36E
100
AcDbEntity
  8
001
 62
     3
370
     9
100
AcDbLine
 10
160.760113
 20
141.424732
 30
0.0
 11
160.760113
 21
112.02364
 31
0.0
  0
LINE
  5
373
330
36E
100
AcDbEntity
  8
001
 62
     3
370
     9
100
AcDbLine
 10
220.760113
 20
113.22364
 30
0.0
 11
160.760113
 21
113.22364
 31
0.0
  0
POLYLINE
  5
374
330
36E
100
AcDbEntity
  8
001
 62
     3
370
     9
100
AcDb2dPolyline
 66
     1
 10
0.0
 20
0.0
 30
0.0
  0
VERTEX
  5
376
330
374
100
AcDbEntity
  8
001
 62
     3
370
     9
100
AcDbVertex
100
AcDb2dVertex
 10
218.760113
 20
113.759538
 30
0.0
  0
VERTEX
  5
377
330
374
100
AcDbEntity
  8
001
 62
     3
370
     9
100
AcDbVertex
100
AcDb2dVertex
 10
220.760113
 20
113.22364
 30
0.0
  0
VERTEX
  5
378
330
374
100
AcDbEntity
  8
001
 62
     3
370
     9
100
AcDbVertex
100
AcDb2dVertex
 10
218.760113
 20
112.687741
 30
0.0
  0
SEQEND
  5
375
330
374
100
AcDbEntity
  8
001
370
     9
  0
POLYLINE
  5
379
330
36E
100
AcDbEntity
  8
001
 62
     3
370
     9
100
AcDb2dPolyline
 66
     1
 10
0.0
 20
0.0
 30
0.0
  0
VERTEX
  5
37B
330
379
100
AcDbEntity
  8
001
 62
     3
370
     9
100
AcDbVertex
100
AcDb2dVertex
 10
162.760113
 20
112.687741
 30
0.0
  0
VERTEX
  5
37C
330
379
100
AcDbEntity
  8
001
 62
     3
370
     9
100
AcDbVertex
100
AcDb2dVertex
 10
160.760113
 20
113.22364
 30
0.0
  0
VERTEX
  5
37D
330
379
100
AcDbEntity
  8
001
 62
     3
370
     9
100
AcDbVertex
100
AcDb2dVertex
 10
162.760113
 20
113.759538
 30
0.0
  0
SEQEND
  5
37A
330
379
100
AcDbEntity
  8
001
370
     9
  0
TEXT
  5
37E
330
36E
100
AcDbEntity
  8
001
 62
     3
370
     9
100
AcDbText
 10
187.960113
 20
114.22364
 30
0.0
 40
3.5
  1
６０
 41
0.666667
100
AcDbText
  0
POINT
  5
37F
330
36E
100
AcDbEntity
  8
001
 62
     3
370
     9
100
AcDbPoint
 10
220.760113
 20
141.424732
 30
0.0
  0
POINT
  5
380
330
36E
100
AcDbEntity
  8
001
 62
     3
370
     9
100
AcDbPoint
 10
160.760113
 20
141.424732
 30
0.0
  0
POINT
  5
381
330
36E
100
AcDbEntity
  8
001
 62
     3
370
     9
100
AcDbPoint
 10
160.760113
 20
113.22364
 30
0.0
  0
ENDBLK
  5
370
330
36E
100
AcDbEntity
  8
0
100
AcDbBlockEnd
  0
BLOCK
  5
383
330
382
100
AcDbEntity
  8
0
100
AcDbBlockBegin
  2
DIM-18
 70
     0
 10
0.0
 20
0.0
 30
0.0
  3
DIM-18
  1

  0
TEXT
  5
385
330
382
100
AcDbEntity
  8
001
 62
     4
370
    30
100
AcDbText
 10
162.783211
 20
95.038924
 30
0.0
 40
3.5
  1
ＭＩＮ＝１３
 41
0.833333
100
AcDbText
  0
POLYLINE
  5
386
330
382
100
AcDbEntity
  8
001
 62
     3
370
     9
100
AcDb2dPolyline
 66
     1
 10
0.0
 20
0.0
 30
0.0
  0
VERTEX
  5
388
330
386
100
AcDbEntity
  8
001
 62
     3
370
     9
100
AcDbVertex
100
AcDb2dVertex
 10
155.755246
 20
99.133263
 30
0.0
  0
VERTEX
  5
389
330
386
100
AcDbEntity
  8
001
 62
     3
370
     9
100
AcDbVertex
100
AcDb2dVertex
 10
154.691783
 20
100.909842
 30
0.0
  0
VERTEX
  5
38A
330
386
100
AcDbEntity
  8
001
 62
     3
370
     9
100
AcDbVertex
100
AcDb2dVertex
 10
156.501058
 20
99.903011
 30
0.0
  0
SEQEND
  5
387
330
386
100
AcDbEntity
  8
001
370
     9
  0
POLYLINE
  5
38B
330
382
100
AcDbEntity
  8
001
 62
     3
370
     9
100
AcDb2dPolyline
 66
     1
 10
0.0
 20
0.0
 30
0.0
  0
VERTEX
  5
38D
330
38B
100
AcDbEntity
  8
001
 62
     3
370
     9
100
AcDbVertex
100
AcDb2dVertex
 10
154.691783
 20
100.909842
 30
0.0
  0
VERTEX
  5
38E
330
38B
100
AcDbEntity
  8
001
 62
     3
370
     9
100
AcDbVertex
100
AcDb2dVertex
 10
161.783211
 20
94.038924
 30
0.0
  0
VERTEX
  5
38F
330
38B
100
AcDbEntity
  8
001
 62
     3
370
     9
100
AcDbVertex
100
AcDb2dVertex
 10
184.783211
 20
94.038924
 30
0.0
  0
SEQEND
  5
38C
330
38B
100
AcDbEntity
  8
001
370
     9
  0
TEXT
  5
390
330
382
100
AcDbEntity
  8
001
 62
     4
370
    30
100
AcDbText
 10
162.783211
 20
89.538924
 30
0.0
 40
3.5
  1
ＭＡＸ＝１８
 41
0.833333
100
AcDbText
  0
POLYLINE
  5
391
330
382
100
AcDbEntity
  8
001
 62
     3
370
     9
100
AcDb2dPolyline
 66
     1
 10
0.0
 20
0.0
 30
0.0
  0
VERTEX
  5
393
330
391
100
AcDbEntity
  8
001
 62
     3
370
     9
100
AcDbVertex
100
AcDb2dVertex
 10
161.783211
 20
94.038924
 30
0.0
  0
VERTEX
  5
394
330
391
100
AcDbEntity
  8
001
 62
     3
370
     9
100
AcDbVertex
100
AcDb2dVertex
 10
161.783211
 20
88.538924
 30
0.0
  0
VERTEX
  5
395
330
391
100
AcDbEntity
  8
001
 62
     3
370
     9
100
AcDbVertex
100
AcDb2dVertex
 10
184.783211
 20
88.538924
 30
0.0
  0
SEQEND
  5
392
330
391
100
AcDbEntity
  8
001
370
     9
  0
ENDBLK
  5
384
330
382
100
AcDbEntity
  8
0
100
AcDbBlockEnd
  0
BLOCK
  5
397
330
396
100
AcDbEntity
  8
0
100
AcDbBlockBegin
  2
DIM-19
 70
     0
 10
0.0
 20
0.0
 30
0.0
  3
DIM-19
  1

  0
TEXT
  5
399
330
396
100
AcDbEntity
  8
001
 62
     4
370
    30
100
AcDbText
 10
113.451932
 20
322.136713
 30
0.0
 40
4.0
  1
６－Ｍ１０
 41
0.833333
100
AcDbText
  0
POLYLINE
  5
39A
330
396
100
AcDbEntity
  8
001
 62
     3
370
     9
100
AcDb2dPolyline
 66
     1
 10
0.0
 20
0.0
 30
0.0
  0
VERTEX
  5
39C
330
39A
100
AcDbEntity
  8
001
 62
     3
370
     9
100
AcDbVertex
100
AcDb2dVertex
 10
151.359266
 20
302.290719
 30
0.0
  0
VERTEX
  5
39D
330
39A
100
AcDbEntity
  8
001
 62
     3
370
     9
100
AcDbVertex
100
AcDb2dVertex
 10
152.256641
 20
300.424732
 30
0.0
  0
VERTEX
  5
39E
330
39A
100
AcDbEntity
  8
001
 62
     3
370
     9
100
AcDbVertex
100
AcDb2dVertex
 10
150.546499
 20
301.592036
 30
0.0
  0
SEQEND
  5
39B
330
39A
100
AcDbEntity
  8
001
370
     9
  0
POLYLINE
  5
39F
330
396
100
AcDbEntity
  8
001
 62
     3
370
     9
100
AcDb2dPolyline
 66
     1
 10
0.0
 20
0.0
 30
0.0
  0
VERTEX
  5
3A1
330
39F
100
AcDbEntity
  8
001
 62
     3
370
     9
100
AcDbVertex
100
AcDb2dVertex
 10
152.256641
 20
300.424732
 30
0.0
  0
VERTEX
  5
3A2
330
39F
100
AcDbEntity
  8
001
 62
     3
370
     9
100
AcDbVertex
100
AcDb2dVertex
 10
134.451932
 20
321.136713
 30
0.0
  0
VERTEX
  5
3A3
330
39F
100
AcDbEntity
  8
001
 62
     3
370
     9
100
AcDbVertex
100
AcDb2dVertex
 10
112.451932
 20
321.136713
 30
0.0
  0
SEQEND
  5
3A0
330
39F
100
AcDbEntity
  8
001
370
     9
  0
ENDBLK
  5
398
330
396
100
AcDbEntity
  8
0
100
AcDbBlockEnd
  0
BLOCK
  5
3A5
330
3A4
100
AcDbEntity
  8
0
100
AcDbBlockBegin
  2
*D27
 70
     1
 10
0.0
 20
0.0
 30
0.0
  3
*D27
  1

  0
LINE
  5
3A7
330
3A4
100
AcDbEntity
  8
001
 62
     3
370
     9
100
AcDbLine
 10
156.760113
 20
167.924732
 30
0.0
 11
93.036228
 21
167.924732
 31
0.0
  0
LINE
  5
3A8
330
3A4
100
AcDbEntity
  8
001
 62
     3
370
     9
100
AcDbLine
 10
156.760113
 20
277.924732
 30
0.0
 11
93.036228
 21
277.924732
 31
0.0
  0
LINE
  5
3A9
330
3A4
100
AcDbEntity
  8
001
 62
     3
370
     9
100
AcDbLine
 10
94.236228
 20
167.924732
 30
0.0
 11
94.236228
 21
277.924732
 31
0.0
  0
POLYLINE
  5
3AA
330
3A4
100
AcDbEntity
  8
001
 62
     3
370
     9
100
AcDb2dPolyline
 66
     1
 10
0.0
 20
0.0
 30
0.0
  0
VERTEX
  5
3AC
330
3AA
100
AcDbEntity
  8
001
 62
     3
370
     9
100
AcDbVertex
100
AcDb2dVertex
 10
94.772126
 20
169.924732
 30
0.0
  0
VERTEX
  5
3AD
330
3AA
100
AcDbEntity
  8
001
 62
     3
370
     9
100
AcDbVertex
100
AcDb2dVertex
 10
94.236228
 20
167.924732
 30
0.0
  0
VERTEX
  5
3AE
330
3AA
100
AcDbEntity
  8
001
 62
     3
370
     9
100
AcDbVertex
100
AcDb2dVertex
 10
93.70033
 20
169.924732
 30
0.0
  0
SEQEND
  5
3AB
330
3AA
100
AcDbEntity
  8
001
370
     9
  0
POLYLINE
  5
3AF
330
3A4
100
AcDbEntity
  8
001
 62
     3
370
     9
100
AcDb2dPolyline
 66
     1
 10
0.0
 20
0.0
 30
0.0
  0
VERTEX
  5
3B1
330
3AF
100
AcDbEntity
  8
001
 62
     3
370
     9
100
AcDbVertex
100
AcDb2dVertex
 10
93.70033
 20
275.924732
 30
0.0
  0
VERTEX
  5
3B2
330
3AF
100
AcDbEntity
  8
001
 62
     3
370
     9
100
AcDbVertex
100
AcDb2dVertex
 10
94.236228
 20
277.924732
 30
0.0
  0
VERTEX
  5
3B3
330
3AF
100
AcDbEntity
  8
001
 62
     3
370
     9
100
AcDbVertex
100
AcDb2dVertex
 10
94.772126
 20
275.924732
 30
0.0
  0
SEQEND
  5
3B0
330
3AF
100
AcDbEntity
  8
001
370
     9
  0
TEXT
  5
3B4
330
3A4
100
AcDbEntity
  8
001
 62
     3
370
     9
100
AcDbText
 10
93.236228
 20
214.524732
 30
0.0
 40
3.5
  1
%%c１１０ｆ６
 50
90.000003
 41
0.685714
100
AcDbText
  0
POINT
  5
3B5
330
3A4
100
AcDbEntity
  8
001
 62
     3
370
     9
100
AcDbPoint
 10
156.760113
 20
167.924732
 30
0.0
  0
POINT
  5
3B6
330
3A4
100
AcDbEntity
  8
001
 62
     3
370
     9
100
AcDbPoint
 10
156.760113
 20
277.924732
 30
0.0
  0
POINT
  5
3B7
330
3A4
100
AcDbEntity
  8
001
 62
     3
370
     9
100
AcDbPoint
 10
94.236228
 20
277.924732
 30
0.0
  0
ENDBLK
  5
3A6
330
3A4
100
AcDbEntity
  8
0
100
AcDbBlockEnd
  0
BLOCK
  5
3B9
330
3B8
100
AcDbEntity
  8
0
100
AcDbBlockBegin
  2
*D28
 70
     1
 10
0.0
 20
0.0
 30
0.0
  3
*D28
  1

  0
LINE
  5
3BB
330
3B8
100
AcDbEntity
  8
001
 62
     3
370
     9
100
AcDbLine
 10
164.260113
 20
201.424732
 30
0.0
 11
114.036228
 21
201.424732
 31
0.0
  0
LINE
  5
3BC
330
3B8
100
AcDbEntity
  8
001
 62
     3
370
     9
100
AcDbLine
 10
164.260113
 20
244.424732
 30
0.0
 11
114.036228
 21
244.424732
 31
0.0
  0
LINE
  5
3BD
330
3B8
100
AcDbEntity
  8
001
 62
     3
370
     9
100
AcDbLine
 10
115.236228
 20
201.424732
 30
0.0
 11
115.236228
 21
244.424732
 31
0.0
  0
POLYLINE
  5
3BE
330
3B8
100
AcDbEntity
  8
001
 62
     3
370
     9
100
AcDb2dPolyline
 66
     1
 10
0.0
 20
0.0
 30
0.0
  0
VERTEX
  5
3C0
330
3BE
100
AcDbEntity
  8
001
 62
     3
370
     9
100
AcDbVertex
100
AcDb2dVertex
 10
115.772126
 20
203.424732
 30
0.0
  0
VERTEX
  5
3C1
330
3BE
100
AcDbEntity
  8
001
 62
     3
370
     9
100
AcDbVertex
100
AcDb2dVertex
 10
115.236228
 20
201.424732
 30
0.0
  0
VERTEX
  5
3C2
330
3BE
100
AcDbEntity
  8
001
 62
     3
370
     9
100
AcDbVertex
100
AcDb2dVertex
 10
114.70033
 20
203.424732
 30
0.0
  0
SEQEND
  5
3BF
330
3BE
100
AcDbEntity
  8
001
370
     9
  0
POLYLINE
  5
3C3
330
3B8
100
AcDbEntity
  8
001
 62
     3
370
     9
100
AcDb2dPolyline
 66
     1
 10
0.0
 20
0.0
 30
0.0
  0
VERTEX
  5
3C5
330
3C3
100
AcDbEntity
  8
001
 62
     3
370
     9
100
AcDbVertex
100
AcDb2dVertex
 10
114.70033
 20
242.424732
 30
0.0
  0
VERTEX
  5
3C6
330
3C3
100
AcDbEntity
  8
001
 62
     3
370
     9
100
AcDbVertex
100
AcDb2dVertex
 10
115.236228
 20
244.424732
 30
0.0
  0
VERTEX
  5
3C7
330
3C3
100
AcDbEntity
  8
001
 62
     3
370
     9
100
AcDbVertex
100
AcDb2dVertex
 10
115.772126
 20
242.424732
 30
0.0
  0
SEQEND
  5
3C4
330
3C3
100
AcDbEntity
  8
001
370
     9
  0
TEXT
  5
3C8
330
3B8
100
AcDbEntity
  8
001
 62
     3
370
     9
100
AcDbText
 10
114.236228
 20
218.724732
 30
0.0
 40
3.5
  1
%%c４３
 50
90.000003
 41
0.705882
100
AcDbText
  0
POINT
  5
3C9
330
3B8
100
AcDbEntity
  8
001
 62
     3
370
     9
100
AcDbPoint
 10
164.260113
 20
201.424732
 30
0.0
  0
POINT
  5
3CA
330
3B8
100
AcDbEntity
  8
001
 62
     3
370
     9
100
AcDbPoint
 10
164.260113
 20
244.424732
 30
0.0
  0
POINT
  5
3CB
330
3B8
100
AcDbEntity
  8
001
 62
     3
370
     9
100
AcDbPoint
 10
115.236228
 20
244.424732
 30
0.0
  0
ENDBLK
  5
3BA
330
3B8
100
AcDbEntity
  8
0
100
AcDbBlockEnd
  0
BLOCK
  5
3CD
330
3CC
100
AcDbEntity
  8
0
100
AcDbBlockBegin
  2
*D29
 70
     1
 10
0.0
 20
0.0
 30
0.0
  3
*D29
  1

  0
LINE
  5
3CF
330
3CC
100
AcDbEntity
  8
001
 62
     3
370
     9
100
AcDbLine
 10
145.760113
 20
226.138117
 30
0.0
 11
159.760113
 21
226.138117
 31
0.0
  0
POLYLINE
  5
3D0
330
3CC
100
AcDbEntity
  8
001
 62
     3
370
     9
100
AcDb2dPolyline
 66
     1
 10
0.0
 20
0.0
 30
0.0
  0
VERTEX
  5
3D2
330
3D0
100
AcDbEntity
  8
001
 62
     3
370
     9
100
AcDbVertex
100
AcDb2dVertex
 10
147.760113
 20
225.602218
 30
0.0
  0
VERTEX
  5
3D3
330
3D0
100
AcDbEntity
  8
001
 62
     3
370
     9
100
AcDbVertex
100
AcDb2dVertex
 10
145.760113
 20
226.138117
 30
0.0
  0
VERTEX
  5
3D4
330
3D0
100
AcDbEntity
  8
001
 62
     3
370
     9
100
AcDbVertex
100
AcDb2dVertex
 10
147.760113
 20
226.674015
 30
0.0
  0
SEQEND
  5
3D1
330
3D0
100
AcDbEntity
  8
001
370
     9
  0
POLYLINE
  5
3D5
330
3CC
100
AcDbEntity
  8
001
 62
     3
370
     9
100
AcDb2dPolyline
 66
     1
 10
0.0
 20
0.0
 30
0.0
  0
VERTEX
  5
3D7
330
3D5
100
AcDbEntity
  8
001
 62
     3
370
     9
100
AcDbVertex
100
AcDb2dVertex
 10
157.760113
 20
226.674015
 30
0.0
  0
VERTEX
  5
3D8
330
3D5
100
AcDbEntity
  8
001
 62
     3
370
     9
100
AcDbVertex
100
AcDb2dVertex
 10
159.760113
 20
226.138117
 30
0.0
  0
VERTEX
  5
3D9
330
3D5
100
AcDbEntity
  8
001
 62
     3
370
     9
100
AcDbVertex
100
AcDb2dVertex
 10
157.760113
 20
225.602218
 30
0.0
  0
SEQEND
  5
3D6
330
3D5
100
AcDbEntity
  8
001
370
     9
  0
TEXT
  5
3DA
330
3CC
100
AcDbEntity
  8
001
 62
     3
370
     9
100
AcDbText
 10
149.013648
 20
227.138117
 30
0.0
 40
3.5
  1
１４
 41
0.666667
100
AcDbText
  0
POINT
  5
3DB
330
3CC
100
AcDbEntity
  8
001
 62
     3
370
     9
100
AcDbPoint
 10
145.760113
 20
251.924732
 30
0.0
  0
POINT
  5
3DC
330
3CC
100
AcDbEntity
  8
001
 62
     3
370
     9
100
AcDbPoint
 10
159.760113
 20
247.374732
 30
0.0
  0
POINT
  5
3DD
330
3CC
100
AcDbEntity
  8
001
 62
     3
370
     9
100
AcDbPoint
 10
159.760113
 20
226.138117
 30
0.0
  0
ENDBLK
  5
3CE
330
3CC
100
AcDbEntity
  8
0
100
AcDbBlockEnd
  0
BLOCK
  5
3DF
330
3DE
100
AcDbEntity
  8
0
100
AcDbBlockBegin
  2
*D30
 70
     1
 10
0.0
 20
0.0
 30
0.0
  3
*D30
  1

  0
LINE
  5
3E1
330
3DE
100
AcDbEntity
  8
001
 62
     3
370
     9
100
AcDbLine
 10
182.760113
 20
251.424732
 30
0.0
 11
182.760113
 21
320.463879
 31
0.0
  0
LINE
  5
3E2
330
3DE
100
AcDbEntity
  8
001
 62
     3
370
     9
100
AcDbLine
 10
292.760113
 20
255.424732
 30
0.0
 11
292.760113
 21
320.463879
 31
0.0
  0
LINE
  5
3E3
330
3DE
100
AcDbEntity
  8
001
 62
     3
370
     9
100
AcDbLine
 10
182.760113
 20
319.263879
 30
0.0
 11
292.760113
 21
319.263879
 31
0.0
  0
POLYLINE
  5
3E4
330
3DE
100
AcDbEntity
  8
001
 62
     3
370
     9
100
AcDb2dPolyline
 66
     1
 10
0.0
 20
0.0
 30
0.0
  0
VERTEX
  5
3E6
330
3E4
100
AcDbEntity
  8
001
 62
     3
370
     9
100
AcDbVertex
100
AcDb2dVertex
 10
184.760113
 20
318.72798
 30
0.0
  0
VERTEX
  5
3E7
330
3E4
100
AcDbEntity
  8
001
 62
     3
370
     9
100
AcDbVertex
100
AcDb2dVertex
 10
182.760113
 20
319.263879
 30
0.0
  0
VERTEX
  5
3E8
330
3E4
100
AcDbEntity
  8
001
 62
     3
370
     9
100
AcDbVertex
100
AcDb2dVertex
 10
184.760113
 20
319.799777
 30
0.0
  0
SEQEND
  5
3E5
330
3E4
100
AcDbEntity
  8
001
370
     9
  0
POLYLINE
  5
3E9
330
3DE
100
AcDbEntity
  8
001
 62
     3
370
     9
100
AcDb2dPolyline
 66
     1
 10
0.0
 20
0.0
 30
0.0
  0
VERTEX
  5
3EB
330
3E9
100
AcDbEntity
  8
001
 62
     3
370
     9
100
AcDbVertex
100
AcDb2dVertex
 10
290.760113
 20
319.799777
 30
0.0
  0
VERTEX
  5
3EC
330
3E9
100
AcDbEntity
  8
001
 62
     3
370
     9
100
AcDbVertex
100
AcDb2dVertex
 10
292.760113
 20
319.263879
 30
0.0
  0
VERTEX
  5
3ED
330
3E9
100
AcDbEntity
  8
001
 62
     3
370
     9
100
AcDbVertex
100
AcDb2dVertex
 10
290.760113
 20
318.72798
 30
0.0
  0
SEQEND
  5
3EA
330
3E9
100
AcDbEntity
  8
001
370
     9
  0
TEXT
  5
3EE
330
3DE
100
AcDbEntity
  8
001
 62
     3
370
     9
100
AcDbText
 10
233.560113
 20
320.263879
 30
0.0
 40
3.5
  1
１１０
 41
0.666667
100
AcDbText
  0
POINT
  5
3EF
330
3DE
100
AcDbEntity
  8
001
 62
     3
370
     9
100
AcDbPoint
 10
182.760113
 20
251.424732
 30
0.0
  0
POINT
  5
3F0
330
3DE
100
AcDbEntity
  8
001
 62
     3
370
     9
100
AcDbPoint
 10
292.760113
 20
255.424732
 30
0.0
  0
POINT
  5
3F1
330
3DE
100
AcDbEntity
  8
001
 62
     3
370
     9
100
AcDbPoint
 10
292.760113
 20
319.263879
 30
0.0
  0
ENDBLK
  5
3E0
330
3DE
100
AcDbEntity
  8
0
100
AcDbBlockEnd
  0
BLOCK
  5
3F3
330
3F2
100
AcDbEntity
  8
0
100
AcDbBlockBegin
  2
*D31
 70
     1
 10
0.0
 20
0.0
 30
0.0
  3
*D31
  1

  0
LINE
  5
3F5
330
3F2
100
AcDbEntity
  8
001
 62
     3
370
     9
100
AcDbLine
 10
288.760113
 20
166.424732
 30
0.0
 11
324.198199
 21
166.424732
 31
0.0
  0
LINE
  5
3F6
330
3F2
100
AcDbEntity
  8
001
 62
     3
370
     9
100
AcDbLine
 10
288.760113
 20
279.424732
 30
0.0
 11
324.198199
 21
279.424732
 31
0.0
  0
LINE
  5
3F7
330
3F2
100
AcDbEntity
  8
001
 62
     3
370
     9
100
AcDbLine
 10
322.998199
 20
166.424732
 30
0.0
 11
322.998199
 21
279.424732
 31
0.0
  0
POLYLINE
  5
3F8
330
3F2
100
AcDbEntity
  8
001
 62
     3
370
     9
100
AcDb2dPolyline
 66
     1
 10
0.0
 20
0.0
 30
0.0
  0
VERTEX
  5
3FA
330
3F8
100
AcDbEntity
  8
001
 62
     3
370
     9
100
AcDbVertex
100
AcDb2dVertex
 10
323.534098
 20
168.424732
 30
0.0
  0
VERTEX
  5
3FB
330
3F8
100
AcDbEntity
  8
001
 62
     3
370
     9
100
AcDbVertex
100
AcDb2dVertex
 10
322.998199
 20
166.424732
 30
0.0
  0
VERTEX
  5
3FC
330
3F8
100
AcDbEntity
  8
001
 62
     3
370
     9
100
AcDbVertex
100
AcDb2dVertex
 10
322.462301
 20
168.424732
 30
0.0
  0
SEQEND
  5
3F9
330
3F8
100
AcDbEntity
  8
001
370
     9
  0
POLYLINE
  5
3FD
330
3F2
100
AcDbEntity
  8
001
 62
     3
370
     9
100
AcDb2dPolyline
 66
     1
 10
0.0
 20
0.0
 30
0.0
  0
VERTEX
  5
3FF
330
3FD
100
AcDbEntity
  8
001
 62
     3
370
     9
100
AcDbVertex
100
AcDb2dVertex
 10
322.462301
 20
277.424732
 30
0.0
  0
VERTEX
  5
400
330
3FD
100
AcDbEntity
  8
001
 62
     3
370
     9
100
AcDbVertex
100
AcDb2dVertex
 10
322.998199
 20
279.424732
 30
0.0
  0
VERTEX
  5
401
330
3FD
100
AcDbEntity
  8
001
 62
     3
370
     9
100
AcDbVertex
100
AcDb2dVertex
 10
323.534098
 20
277.424732
 30
0.0
  0
SEQEND
  5
3FE
330
3FD
100
AcDbEntity
  8
001
370
     9
  0
TEXT
  5
402
330
3F2
100
AcDbEntity
  8
001
 62
     3
370
     9
100
AcDbText
 10
321.998199
 20
217.324732
 30
0.0
 40
3.5
  1
%%c１１３
 50
90.000003
 41
0.695652
100
AcDbText
  0
POINT
  5
403
330
3F2
100
AcDbEntity
  8
001
 62
     3
370
     9
100
AcDbPoint
 10
288.760113
 20
166.424732
 30
0.0
  0
POINT
  5
404
330
3F2
100
AcDbEntity
  8
001
 62
     3
370
     9
100
AcDbPoint
 10
288.760113
 20
279.424732
 30
0.0
  0
POINT
  5
405
330
3F2
100
AcDbEntity
  8
001
 62
     3
370
     9
100
AcDbPoint
 10
322.998199
 20
279.424732
 30
0.0
  0
ENDBLK
  5
3F4
330
3F2
100
AcDbEntity
  8
0
100
AcDbBlockEnd
  0
BLOCK
  5
407
330
406
100
AcDbEntity
  8
0
100
AcDbBlockBegin
  2
*D32
 70
     1
 10
0.0
 20
0.0
 30
0.0
  3
*D32
  1

  0
LINE
  5
409
330
406
100
AcDbEntity
  8
001
 62
     3
370
     9
100
AcDbLine
 10
160.760113
 20
141.424732
 30
0.0
 11
160.760113
 21
122.02364
 31
0.0
  0
LINE
  5
40A
330
406
100
AcDbEntity
  8
001
 62
     3
370
     9
100
AcDbLine
 10
152.260113
 20
180.924732
 30
0.0
 11
152.260113
 21
122.02364
 31
0.0
  0
LINE
  5
40B
330
406
100
AcDbEntity
  8
001
 62
     3
370
     9
100
AcDbLine
 10
160.760113
 20
123.22364
 30
0.0
 11
152.260113
 21
123.22364
 31
0.0
  0
POLYLINE
  5
40C
330
406
100
AcDbEntity
  8
001
 62
     3
370
     9
100
AcDb2dPolyline
 66
     1
 10
0.0
 20
0.0
 30
0.0
  0
VERTEX
  5
40E
330
40C
100
AcDbEntity
  8
001
 62
     3
370
     9
100
AcDbVertex
100
AcDb2dVertex
 10
158.760113
 20
123.759538
 30
0.0
  0
VERTEX
  5
40F
330
40C
100
AcDbEntity
  8
001
 62
     3
370
     9
100
AcDbVertex
100
AcDb2dVertex
 10
160.760113
 20
123.22364
 30
0.0
  0
VERTEX
  5
410
330
40C
100
AcDbEntity
  8
001
 62
     3
370
     9
100
AcDbVertex
100
AcDb2dVertex
 10
158.760113
 20
122.687741
 30
0.0
  0
SEQEND
  5
40D
330
40C
100
AcDbEntity
  8
001
370
     9
  0
POLYLINE
  5
411
330
406
100
AcDbEntity
  8
001
 62
     3
370
     9
100
AcDb2dPolyline
 66
     1
 10
0.0
 20
0.0
 30
0.0
  0
VERTEX
  5
413
330
411
100
AcDbEntity
  8
001
 62
     3
370
     9
100
AcDbVertex
100
AcDb2dVertex
 10
154.260113
 20
122.687741
 30
0.0
  0
VERTEX
  5
414
330
411
100
AcDbEntity
  8
001
 62
     3
370
     9
100
AcDbVertex
100
AcDb2dVertex
 10
152.260113
 20
123.22364
 30
0.0
  0
VERTEX
  5
415
330
411
100
AcDbEntity
  8
001
 62
     3
370
     9
100
AcDbVertex
100
AcDb2dVertex
 10
154.260113
 20
123.759538
 30
0.0
  0
SEQEND
  5
412
330
411
100
AcDbEntity
  8
001
370
     9
  0
TEXT
  5
416
330
406
100
AcDbEntity
  8
001
 62
     3
370
     9
100
AcDbText
 10
164.510113
 20
124.22364
 30
0.0
 40
3.5
  1
８．５
 41
0.666667
100
AcDbText
  0
POINT
  5
417
330
406
100
AcDbEntity
  8
001
 62
     3
370
     9
100
AcDbPoint
 10
160.760113
 20
141.424732
 30
0.0
  0
POINT
  5
418
330
406
100
AcDbEntity
  8
001
 62
     3
370
     9
100
AcDbPoint
 10
152.260113
 20
180.924732
 30
0.0
  0
POINT
  5
419
330
406
100
AcDbEntity
  8
001
 62
     3
370
     9
100
AcDbPoint
 10
152.260113
 20
123.22364
 30
0.0
  0
LINE
  5
41A
330
406
100
AcDbEntity
  8
001
 62
     3
370
     9
100
AcDbLine
 10
160.760113
 20
123.22364
 30
0.0
 11
174.410112
 21
123.22364
 31
0.0
  0
ENDBLK
  5
408
330
406
100
AcDbEntity
  8
0
100
AcDbBlockEnd
  0
BLOCK
  5
41C
330
41B
100
AcDbEntity
  8
0
100
AcDbBlockBegin
  2
*D33
 70
     1
 10
0.0
 20
0.0
 30
0.0
  3
*D33
  1

  0
LINE
  5
41E
330
41B
100
AcDbEntity
  8
001
 62
     3
370
     9
100
AcDbLine
 10
155.760113
 20
168.924732
 30
0.0
 11
155.760113
 21
112.02364
 31
0.0
  0
LINE
  5
41F
330
41B
100
AcDbEntity
  8
001
 62
     3
370
     9
100
AcDbLine
 10
160.760113
 20
141.424732
 30
0.0
 11
160.760113
 21
112.02364
 31
0.0
  0
LINE
  5
420
330
41B
100
AcDbEntity
  8
001
 62
     3
370
     9
100
AcDbLine
 10
155.760113
 20
113.22364
 30
0.0
 11
160.760113
 21
113.22364
 31
0.0
  0
POLYLINE
  5
421
330
41B
100
AcDbEntity
  8
001
 62
     3
370
     9
100
AcDb2dPolyline
 66
     1
 10
0.0
 20
0.0
 30
0.0
  0
VERTEX
  5
423
330
421
100
AcDbEntity
  8
001
 62
     3
370
     9
100
AcDbVertex
100
AcDb2dVertex
 10
157.760113
 20
112.687741
 30
0.0
  0
VERTEX
  5
424
330
421
100
AcDbEntity
  8
001
 62
     3
370
     9
100
AcDbVertex
100
AcDb2dVertex
 10
155.760113
 20
113.22364
 30
0.0
  0
VERTEX
  5
425
330
421
100
AcDbEntity
  8
001
 62
     3
370
     9
100
AcDbVertex
100
AcDb2dVertex
 10
157.760113
 20
113.759538
 30
0.0
  0
SEQEND
  5
422
330
421
100
AcDbEntity
  8
001
370
     9
  0
POLYLINE
  5
426
330
41B
100
AcDbEntity
  8
001
 62
     3
370
     9
100
AcDb2dPolyline
 66
     1
 10
0.0
 20
0.0
 30
0.0
  0
VERTEX
  5
428
330
426
100
AcDbEntity
  8
001
 62
     3
370
     9
100
AcDbVertex
100
AcDb2dVertex
 10
158.760113
 20
113.759538
 30
0.0
  0
VERTEX
  5
429
330
426
100
AcDbEntity
  8
001
 62
     3
370
     9
100
AcDbVertex
100
AcDb2dVertex
 10
160.760113
 20
113.22364
 30
0.0
  0
VERTEX
  5
42A
330
426
100
AcDbEntity
  8
001
 62
     3
370
     9
100
AcDbVertex
100
AcDb2dVertex
 10
158.760113
 20
112.687741
 30
0.0
  0
SEQEND
  5
427
330
426
100
AcDbEntity
  8
001
370
     9
  0
TEXT
  5
42B
330
41B
100
AcDbEntity
  8
001
 62
     3
370
     9
100
AcDbText
 10
156.860113
 20
114.22364
 30
0.0
 40
3.5
  1
５
 41
0.666667
100
AcDbText
  0
POINT
  5
42C
330
41B
100
AcDbEntity
  8
001
 62
     3
370
     9
100
AcDbPoint
 10
155.760113
 20
168.924732
 30
0.0
  0
POINT
  5
42D
330
41B
100
AcDbEntity
  8
001
 62
     3
370
     9
100
AcDbPoint
 10
160.760113
 20
141.424732
 30
0.0
  0
POINT
  5
42E
330
41B
100
AcDbEntity
  8
001
 62
     3
370
     9
100
AcDbPoint
 10
160.760113
 20
113.22364
 30
0.0
  0
ENDBLK
  5
41D
330
41B
100
AcDbEntity
  8
0
100
AcDbBlockEnd
  0
ENDSEC
  0
SECTION
  2
ENTITIES
  0
INSERT
  5
42F
330
1F
100
AcDbEntity
  8
001
  6
ByBlock
 62
     0
370
    -2
100
AcDbBlockReference
  2
JZB-1
 10
0.0
 20
0.0
 30
0.0
  0
INSERT
  5
430
330
1F
100
AcDbEntity
  8
001
  6
ByBlock
 62
     0
370
    -2
100
AcDbBlockReference
  2
JZB-2
 10
0.0
 20
0.0
 30
0.0
  0
INSERT
  5
431
330
1F
100
AcDbEntity
  8
001
  6
ByBlock
 62
     0
370
    -2
100
AcDbBlockReference
  2
JZB-3
 10
0.0
 20
0.0
 30
0.0
  0
INSERT
  5
432
330
1F
100
AcDbEntity
  8
001
  6
ByBlock
 62
     0
370
    -2
100
AcDbBlockReference
  2
JZB-4
 10
0.0
 20
0.0
 30
0.0
  0
INSERT
  5
433
330
1F
100
AcDbEntity
  8
001
  6
ByBlock
 62
     0
370
    -2
100
AcDbBlockReference
  2
JZB-5
 10
0.0
 20
0.0
 30
0.0
  0
INSERT
  5
434
330
1F
100
AcDbEntity
  8
001
  6
ByBlock
 62
     0
370
    -2
100
AcDbBlockReference
  2
JZB-6
 10
0.0
 20
0.0
 30
0.0
  0
INSERT
  5
435
330
1F
100
AcDbEntity
  8
001
  6
ByBlock
 62
     0
370
    -2
100
AcDbBlockReference
  2
JZB-7
 10
0.0
 20
0.0
 30
0.0
  0
INSERT
  5
436
330
1F
100
AcDbEntity
  8
001
  6
ByBlock
 62
     0
370
    -2
100
AcDbBlockReference
  2
DIM-8
 10
0.0
 20
0.0
 30
0.0
  0
INSERT
  5
437
330
1F
100
AcDbEntity
  8
001
  6
ByBlock
 62
     0
370
    -2
100
AcDbBlockReference
  2
DIM-9
 10
0.0
 20
0.0
 30
0.0
  0
INSERT
  5
438
330
1F
100
AcDbEntity
  8
001
  6
ByBlock
 62
     0
370
    -2
100
AcDbBlockReference
  2
DIM-10
 10
0.0
 20
0.0
 30
0.0
  0
INSERT
  5
439
330
1F
100
AcDbEntity
  8
001
  6
ByBlock
 62
     0
370
    -2
100
AcDbBlockReference
  2
DIM-11
 10
0.0
 20
0.0
 30
0.0
  0
INSERT
  5
43A
330
1F
100
AcDbEntity
  8
001
  6
ByBlock
 62
     0
370
    -2
100
AcDbBlockReference
  2
DIM-12
 10
0.0
 20
0.0
 30
0.0
  0
INSERT
  5
43B
330
1F
100
AcDbEntity
  8
001
  6
ByBlock
 62
     0
370
    -2
100
AcDbBlockReference
  2
DIM-13
 10
0.0
 20
0.0
 30
0.0
  0
INSERT
  5
43C
330
1F
100
AcDbEntity
  8
001
  6
ByBlock
 62
     0
370
    -2
100
AcDbBlockReference
  2
DIM-14
 10
0.0
 20
0.0
 30
0.0
  0
INSERT
  5
43D
330
1F
100
AcDbEntity
  8
001
  6
ByBlock
 62
     0
370
    -2
100
AcDbBlockReference
  2
DIM-15
 10
0.0
 20
0.0
 30
0.0
  0
INSERT
  5
43E
330
1F
100
AcDbEntity
  8
001
  6
ByBlock
 62
     0
370
    -2
100
AcDbBlockReference
  2
DIM-16
 10
0.0
 20
0.0
 30
0.0
  0
DIMENSION
  5
43F
330
1F
100
AcDbEntity
  8
001
 62
     3
370
     9
100
AcDbDimension
  2
*D17
 10
160.760113
 20
319.263879
 30
0.0
 11
152.760113
 21
322.013879
 31
0.0
 70
   160
 71
     5
 42
-1.0
  3
Standard
100
AcDbAlignedDimension
 13
144.760113
 23
299.424732
 33
0.0
 14
160.760113
 24
304.424732
 34
0.0
100
AcDbRotatedDimension
  0
INSERT
  5
440
330
1F
100
AcDbEntity
  8
001
  6
ByBlock
 62
     0
370
    -2
100
AcDbBlockReference
  2
DIM-17
 10
0.0
 20
0.0
 30
0.0
  0
DIMENSION
  5
441
330
1F
100
AcDbEntity
  8
001
 62
     3
370
     9
100
AcDbDimension
  2
*D19
 10
104.236228
 20
252.924732
 30
0.0
 11
101.486228
 21
222.924732
 31
0.0
 70
   160
 71
     5
 42
-1.0
  3
Standard
100
AcDbAlignedDimension
 13
146.760113
 23
192.924732
 33
0.0
 14
146.760113
 24
252.924732
 34
0.0
 50
90.0
100
AcDbRotatedDimension
  0
DIMENSION
  5
442
330
1F
100
AcDbEntity
  8
001
 62
     3
370
     9
100
AcDbDimension
  2
*D20
 10
84.236228
 20
140.424732
 30
0.0
 11
81.486228
 21
222.924732
 31
0.0
 70
   160
 71
     5
 42
-1.0
  3
Standard
100
AcDbAlignedDimension
 13
161.760113
 23
305.424732
 33
0.0
 14
161.760113
 24
140.424732
 34
0.0
 50
270.0
100
AcDbRotatedDimension
  0
DIMENSION
  5
443
330
1F
100
AcDbEntity
  8
001
 62
     3
370
     9
100
AcDbDimension
  2
*D21
 10
394.604418
 20
211.948748
 30
0.0
 11
528.408894
 21
235.224073
 31
0.0
 70
   163
 71
     5
 42
-1.0
  3
Standard
100
AcDbDiametricDimension
 15
537.9331
 25
233.900716
 35
0.0
 40
0.0
  0
DIMENSION
  5
444
330
1F
100
AcDbEntity
  8
001
 62
     3
370
     9
100
AcDbDimension
  2
*D22
 10
292.760113
 20
103.22364
 30
0.0
 11
226.760113
 21
105.97364
 31
0.0
 70
   160
 71
     5
 42
-1.0
  3
Standard
100
AcDbAlignedDimension
 13
160.760113
 23
141.424732
 33
0.0
 14
292.760113
 24
190.424732
 34
0.0
100
AcDbRotatedDimension
  0
DIMENSION
  5
445
330
1F
100
AcDbEntity
  8
001
 62
     3
370
     9
100
AcDbDimension
  2
*D23
 10
160.760113
 20
103.22364
 30
0.0
 11
153.260113
 21
105.97364
 31
0.0
 70
   160
 71
     5
 42
-1.0
  3
Standard
100
AcDbAlignedDimension
 13
145.760113
 23
193.924871
 33
0.0
 14
160.760113
 24
141.424732
 34
0.0
100
AcDbRotatedDimension
  0
DIMENSION
  5
446
330
1F
100
AcDbEntity
  8
001
 62
     3
370
     9
100
AcDbDimension
  2
*D24
 10
160.760113
 20
113.22364
 30
0.0
 11
190.760113
 21
115.97364
 31
0.0
 70
   160
 71
     5
 42
-1.0
  3
Standard
100
AcDbAlignedDimension
 13
220.760113
 23
141.424732
 33
0.0
 14
160.760113
 24
141.424732
 34
0.0
 50
180.0
100
AcDbRotatedDimension
  0
INSERT
  5
447
330
1F
100
AcDbEntity
  8
001
  6
ByBlock
 62
     0
370
    -2
100
AcDbBlockReference
  2
DIM-18
 10
0.0
 20
0.0
 30
0.0
  0
INSERT
  5
448
330
1F
100
AcDbEntity
  8
001
  6
ByBlock
 62
     0
370
    -2
100
AcDbBlockReference
  2
DIM-19
 10
0.0
 20
0.0
 30
0.0
  0
DIMENSION
  5
449
330
1F
100
AcDbEntity
  8
001
 62
     3
370
     9
100
AcDbDimension
  2
*D27
 10
94.236228
 20
277.924732
 30
0.0
 11
91.486228
 21
222.924732
 31
0.0
 70
   160
 71
     5
 42
-1.0
  3
Standard
100
AcDbAlignedDimension
 13
156.760113
 23
167.924732
 33
0.0
 14
156.760113
 24
277.924732
 34
0.0
 50
90.0
100
AcDbRotatedDimension
  0
DIMENSION
  5
44A
330
1F
100
AcDbEntity
  8
001
 62
     3
370
     9
100
AcDbDimension
  2
*D28
 10
115.236228
 20
244.424732
 30
0.0
 11
112.486228
 21
222.924732
 31
0.0
 70
   160
 71
     5
 42
-1.0
  3
Standard
100
AcDbAlignedDimension
 13
164.260113
 23
201.424732
 33
0.0
 14
164.260113
 24
244.424732
 34
0.0
 50
90.0
100
AcDbRotatedDimension
  0
DIMENSION
  5
44B
330
1F
100
AcDbEntity
  8
001
 62
     3
370
     9
100
AcDbDimension
  2
*D29
 10
159.760113
 20
226.138117
 30
0.0
 11
151.813648
 21
228.888117
 31
0.0
 70
   160
 71
     5
 42
-1.0
  3
Standard
100
AcDbAlignedDimension
 13
145.760113
 23
251.924732
 33
0.0
 14
159.760113
 24
247.374732
 34
0.0
 50
360.0
100
AcDbRotatedDimension
  0
DIMENSION
  5
44C
330
1F
100
AcDbEntity
  8
001
 62
     3
370
     9
100
AcDbDimension
  2
*D30
 10
292.760113
 20
319.263879
 30
0.0
 11
237.760113
 21
322.013879
 31
0.0
 70
   160
 71
     5
 42
-1.0
  3
Standard
100
AcDbAlignedDimension
 13
182.760113
 23
251.424732
 33
0.0
 14
292.760113
 24
255.424732
 34
0.0
100
AcDbRotatedDimension
  0
DIMENSION
  5
44D
330
1F
100
AcDbEntity
  8
001
 62
     3
370
     9
100
AcDbDimension
  2
*D31
 10
322.998199
 20
279.424732
 30
0.0
 11
320.248199
 21
222.924732
 31
0.0
 70
   160
 71
     5
 42
-1.0
  3
Standard
100
AcDbAlignedDimension
 13
288.760113
 23
166.424732
 33
0.0
 14
288.760113
 24
279.424732
 34
0.0
 50
90.0
100
AcDbRotatedDimension
  0
DIMENSION
  5
44E
330
1F
100
AcDbEntity
  8
001
 62
     3
370
     9
100
AcDbDimension
  2
*D32
 10
152.260113
 20
123.22364
 30
0.0
 11
168.710112
 21
125.97364
 31
0.0
 70
   160
 71
     5
 42
-1.0
  3
Standard
100
AcDbAlignedDimension
 13
160.760113
 23
141.424732
 33
0.0
 14
152.260113
 24
180.924732
 34
0.0
 50
180.0
100
AcDbRotatedDimension
  0
TEXT
  5
44F
330
1F
100
AcDbEntity
  8
001
 62
     3
370
     9
100
AcDbText
 10
164.510113
 20
118.72364
 30
0.0
 40
3.5
  1
アンクランプ時
 41
0.666667
100
AcDbText
  0
DIMENSION
  5
450
330
1F
100
AcDbEntity
  8
001
 62
     3
370
     9
100
AcDbDimension
  2
*D33
 10
160.760113
 20
113.22364
 30
0.0
 11
158.260113
 21
115.97364
 31
0.0
 70
   160
 71
     5
 42
-1.0
  3
Standard
100
AcDbAlignedDimension
 13
155.760113
 23
168.924732
 33
0.0
 14
160.760113
 24
141.424732
 34
0.0
100
AcDbRotatedDimension
  0
LINE
  5
451
330
1F
100
AcDbEntity
  8
001
370
    30
100
AcDbLine
 10
584.0
 20
410.0
 30
0.0
 11
25.0
 21
410.0
 31
0.0
  0
LINE
  5
452
330
1F
100
AcDbEntity
  8
001
370
    30
100
AcDbLine
 10
584.0
 20
10.0
 30
0.0
 11
584.0
 21
410.0
 31
0.0
  0
LINE
  5
453
330
1F
100
AcDbEntity
  8
001
370
    30
100
AcDbLine
 10
25.0
 20
10.0
 30
0.0
 11
584.0
 21
10.0
 31
0.0
  0
LINE
  5
454
330
1F
100
AcDbEntity
  8
001
370
    30
100
AcDbLine
 10
25.0
 20
410.0
 30
0.0
 11
25.0
 21
10.0
 31
0.0
  0
LINE
  5
455
330
1F
100
AcDbEntity
  8
001
 62
     3
370
     9
100
AcDbLine
 10
494.5
 20
10.0
 30
0.0
 11
508.25
 21
26.097561
 31
0.0
  0
LINE
  5
456
330
1F
100
AcDbEntity
  8
001
 62
     3
370
     9
100
AcDbLine
 10
494.5
 20
28.5
 30
0.0
 11
494.5
 21
10.0
 31
0.0
  0
LINE
  5
457
330
1F
100
AcDbEntity
  8
001
 62
     3
370
     9
100
AcDbLine
 10
508.25
 20
28.5
 30
0.0
 11
508.25
 21
10.0
 31
0.0
  0
LINE
  5
458
330
1F
100
AcDbEntity
  8
001
370
    30
100
AcDbLine
 10
467.0
 20
28.5
 30
0.0
 11
467.0
 21
10.0
 31
0.0
  0
LINE
  5
459
330
1F
100
AcDbEntity
  8
001
 62
     3
370
     9
100
AcDbLine
 10
480.75
 20
28.5
 30
0.0
 11
480.75
 21
10.0
 31
0.0
  0
LINE
  5
45A
330
1F
100
AcDbEntity
  8
001
370
    30
100
AcDbLine
 10
349.5
 20
48.0
 30
0.0
 11
584.0
 21
48.0
 31
0.0
  0
LINE
  5
45B
330
1F
100
AcDbEntity
  8
001
  6
HIDDEN
 62
     3
370
     9
100
AcDbLine
 10
578.0
 20
28.5
 30
0.0
 11
578.0
 21
21.0
 31
0.0
  0
LINE
  5
45C
330
1F
100
AcDbEntity
  8
001
  6
HIDDEN
 62
     3
370
     9
100
AcDbLine
 10
568.0
 20
28.5
 30
0.0
 11
568.0
 21
21.0
 31
0.0
  0
LINE
  5
45D
330
1F
100
AcDbEntity
  8
001
  6
HIDDEN
 62
     3
370
     9
100
AcDbLine
 10
553.0
 20
28.5
 30
0.0
 11
553.0
 21
21.0
 31
0.0
  0
LINE
  5
45E
330
1F
100
AcDbEntity
  8
001
370
    30
100
AcDbLine
 10
349.5
 20
48.0
 30
0.0
 11
349.5
 21
10.0
 31
0.0
  0
LINE
  5
45F
330
1F
100
AcDbEntity
  8
001
 62
     3
370
     9
100
AcDbLine
 10
349.5
 20
13.8
 30
0.0
 11
425.0
 21
13.8
 31
0.0
  0
LINE
  5
460
330
1F
100
AcDbEntity
  8
001
 62
     3
370
     9
100
AcDbLine
 10
358.5
 20
48.0
 30
0.0
 11
358.5
 21
10.0
 31
0.0
  0
LINE
  5
461
330
1F
100
AcDbEntity
  8
001
 62
     3
370
     9
100
AcDbLine
 10
393.5
 20
48.0
 30
0.0
 11
393.5
 21
10.0
 31
0.0
  0
LINE
  5
462
330
1F
100
AcDbEntity
  8
001
 62
     3
370
     9
100
AcDbLine
 10
413.5
 20
48.0
 30
0.0
 11
413.5
 21
10.0
 31
0.0
  0
LINE
  5
463
330
1F
100
AcDbEntity
  8
001
370
    30
100
AcDbLine
 10
425.0
 20
48.0
 30
0.0
 11
425.0
 21
10.0
 31
0.0
  0
LINE
  5
464
330
1F
100
AcDbEntity
  8
001
370
    30
100
AcDbLine
 10
522.0
 20
48.0
 30
0.0
 11
522.0
 21
10.0
 31
0.0
  0
LINE
  5
465
330
1F
100
AcDbEntity
  8
001
370
    30
100
AcDbLine
 10
425.0
 20
34.0
 30
0.0
 11
584.0
 21
34.0
 31
0.0
  0
LINE
  5
466
330
1F
100
AcDbEntity
  8
001
370
    30
100
AcDbLine
 10
522.0
 20
21.0
 30
0.0
 11
584.0
 21
21.0
 31
0.0
  0
LINE
  5
467
330
1F
100
AcDbEntity
  8
001
370
    30
100
AcDbLine
 10
425.0
 20
28.5
 30
0.0
 11
522.0
 21
28.5
 31
0.0
  0
LINE
  5
468
330
1F
100
AcDbEntity
  8
001
 62
     3
370
     9
100
AcDbLine
 10
437.0
 20
34.0
 30
0.0
 11
437.0
 21
28.5
 31
0.0
  0
LINE
  5
469
330
1F
100
AcDbEntity
  8
001
 62
     3
370
     9
100
AcDbLine
 10
482.0
 20
34.0
 30
0.0
 11
482.0
 21
28.5
 31
0.0
  0
LINE
  5
46A
330
1F
100
AcDbEntity
  8
001
 62
     3
370
     9
100
AcDbLine
 10
470.0
 20
34.0
 30
0.0
 11
470.0
 21
28.5
 31
0.0
  0
LINE
  5
46B
330
1F
100
AcDbEntity
  8
001
 62
     3
370
     9
100
AcDbLine
 10
528.0
 20
22.000394
 30
0.0
 11
528.0
 21
21.0
 31
0.0
  0
LINE
  5
46C
330
1F
100
AcDbEntity
  8
001
 62
     3
370
     9
100
AcDbLine
 10
533.0
 20
22.000394
 30
0.0
 11
533.0
 21
21.0
 31
0.0
  0
LINE
  5
46D
330
1F
100
AcDbEntity
  8
001
 62
     3
370
     9
100
AcDbLine
 10
538.0
 20
22.000394
 30
0.0
 11
538.0
 21
21.0
 31
0.0
  0
LINE
  5
46E
330
1F
100
AcDbEntity
  8
001
 62
     3
370
     9
100
AcDbLine
 10
543.0
 20
22.000394
 30
0.0
 11
543.0
 21
21.0
 31
0.0
  0
LINE
  5
46F
330
1F
100
AcDbEntity
  8
001
 62
     3
370
     9
100
AcDbLine
 10
558.0
 20
22.0
 30
0.0
 11
558.0
 21
21.0
 31
0.0
  0
LINE
  5
470
330
1F
100
AcDbEntity
  8
001
 62
     3
370
     9
100
AcDbLine
 10
563.0
 20
22.0
 30
0.0
 11
563.0
 21
21.0
 31
0.0
  0
LINE
  5
471
330
1F
100
AcDbEntity
  8
001
 62
     3
370
     9
100
AcDbLine
 10
573.0
 20
22.0
 30
0.0
 11
573.0
 21
21.0
 31
0.0
  0
LINE
  5
472
330
1F
100
AcDbEntity
  8
001
 62
     3
370
     9
100
AcDbLine
 10
548.0
 20
21.000394
 30
0.0
 11
548.0
 21
22.000394
 31
0.0
  0
LINE
  5
473
330
1F
100
AcDbEntity
  8
001
370
    30
100
AcDbLine
 10
504.0
 20
48.0
 30
0.0
 11
504.0
 21
34.0
 31
0.0
  0
LINE
  5
474
330
1F
100
AcDbEntity
  8
001
370
    30
100
AcDbLine
 10
476.0
 20
34.0
 30
0.0
 11
476.0
 21
48.0
 31
0.0
  0
LINE
  5
475
330
1F
100
AcDbEntity
  8
001
 62
     3
370
     9
100
AcDbLine
 10
349.5
 20
17.6
 30
0.0
 11
425.0
 21
17.6
 31
0.0
  0
LINE
  5
476
330
1F
100
AcDbEntity
  8
001
 62
     3
370
     9
100
AcDbLine
 10
349.5
 20
21.4
 30
0.0
 11
425.0
 21
21.4
 31
0.0
  0
LINE
  5
477
330
1F
100
AcDbEntity
  8
001
 62
     3
370
     9
100
AcDbLine
 10
349.5
 20
25.2
 30
0.0
 11
425.0
 21
25.2
 31
0.0
  0
LINE
  5
478
330
1F
100
AcDbEntity
  8
001
 62
     3
370
     9
100
AcDbLine
 10
349.5
 20
29.0
 30
0.0
 11
425.0
 21
29.0
 31
0.0
  0
LINE
  5
479
330
1F
100
AcDbEntity
  8
001
 62
     3
370
     9
100
AcDbLine
 10
349.5
 20
32.8
 30
0.0
 11
425.0
 21
32.8
 31
0.0
  0
LINE
  5
47A
330
1F
100
AcDbEntity
  8
001
 62
     3
370
     9
100
AcDbLine
 10
349.5
 20
36.6
 30
0.0
 11
425.0
 21
36.6
 31
0.0
  0
LINE
  5
47B
330
1F
100
AcDbEntity
  8
001
 62
     3
370
     9
100
AcDbLine
 10
349.5
 20
40.4
 30
0.0
 11
425.0
 21
40.4
 31
0.0
  0
LINE
  5
47C
330
1F
100
AcDbEntity
  8
001
 62
     3
370
     9
100
AcDbLine
 10
349.5
 20
44.2
 30
0.0
 11
425.0
 21
44.2
 31
0.0
  0
LINE
  5
47D
330
1F
100
AcDbEntity
  8
001
 62
     3
370
     9
100
AcDbLine
 10
497.0
 20
34.0
 30
0.0
 11
497.0
 21
28.5
 31
0.0
  0
TEXT
  5
47E
330
1F
100
AcDbEntity
  8
001
 62
     3
370
    30
100
AcDbText
 10
484.0
 20
29.5
 30
0.0
 40
3.5
  1
１：１
 41
0.97619
100
AcDbText
  0
TEXT
  5
47F
330
1F
100
AcDbEntity
  8
001
 62
     3
370
    30
100
AcDbText
 10
505.00039
 20
45.000488
 30
0.0
 40
2.0
  1
ＱＵＡＮＴＩＴＹ
 41
0.530963
100
AcDbText
  0
TEXT
  5
480
330
1F
100
AcDbEntity
  8
001
 62
     3
370
    30
100
AcDbText
 10
477.00039
 20
45.000488
 30
0.0
 40
2.0
  1
ＭＡＴＥＲＩＡＬ
 41
0.540887
100
AcDbText
  0
TEXT
  5
481
330
1F
100
AcDbEntity
  8
001
 62
     3
370
    30
100
AcDbText
 10
426.00039
 20
45.000488
 30
0.0
 40
2.0
  1
ＭＯＤＥＬＳ
 41
0.61863
100
AcDbText
  0
TEXT
  5
482
330
1F
100
AcDbEntity
  8
001
 62
     3
370
    30
100
AcDbText
 10
427.20039
 20
30.250488
 30
0.0
 40
2.0
  1
ＤＡＴＥ
 41
0.813812
100
AcDbText
  0
TEXT
  5
483
330
1F
100
AcDbEntity
  8
001
 62
     3
370
    30
100
AcDbText
 10
471.20039
 20
30.250488
 30
0.0
 40
2.0
  1
ＳＣＡＬＥ
 41
0.813812
100
AcDbText
  0
TEXT
  5
484
330
1F
100
AcDbEntity
  8
001
 62
     3
370
    30
100
AcDbText
 10
469.197835
 20
26.2
 30
0.0
 40
1.6
  1
ＡＰＰＲＯＶＥＤ
 41
0.609006
100
AcDbText
  0
TEXT
  5
485
330
1F
100
AcDbEntity
  8
001
 62
     3
370
    30
100
AcDbText
 10
483.493504
 20
26.2
 30
0.0
 40
1.6
  1
ＣＨＥＣＫＥＤ
 41
0.614806
100
AcDbText
  0
TEXT
  5
486
330
1F
100
AcDbEntity
  8
001
 62
     3
370
    30
100
AcDbText
 10
496.990158
 20
26.2
 30
0.0
 40
1.6
  1
ＤＥＳＩＧＮＥＤ
 41
0.570943
100
AcDbText
  0
TEXT
  5
487
330
1F
100
AcDbEntity
  8
001
 62
     3
370
    30
100
AcDbText
 10
511.948426
 20
26.2
 30
0.0
 40
1.6
  1
ＤＲＡＷＮ
 41
0.661786
100
AcDbText
  0
TEXT
  5
488
330
1F
100
AcDbEntity
  8
001
 62
     3
370
    30
100
AcDbText
 10
523.00039
 20
31.250488
 30
0.0
 40
2.0
  1
ＤＲＡＷＩＮＧ　№
 41
0.604294
100
AcDbText
  0
TEXT
  5
489
330
1F
100
AcDbEntity
  8
001
 62
     3
370
    30
100
AcDbText
 10
400.693862
 20
10.9
 30
0.0
 40
2.0
  1
ＤＡＴＥ
 41
0.584612
100
AcDbText
  0
TEXT
  5
48A
330
1F
100
AcDbEntity
  8
001
 62
     3
370
    30
100
AcDbText
 10
373.098739
 20
10.9
 30
0.0
 40
2.0
  1
ＮＯＴＥ
 41
0.604429
100
AcDbText
  0
TEXT
  5
48B
330
1F
100
AcDbEntity
  8
001
 62
     3
370
    30
100
AcDbText
 10
350.83715
 20
10.9
 30
0.0
 40
2.0
  1
ＭＡＲＫ
 41
0.658927
100
AcDbText
  0
TEXT
  5
48C
330
1F
100
AcDbEntity
  8
001
 62
     3
370
    30
100
AcDbText
 10
416.134712
 20
10.9
 30
0.0
 40
2.0
  1
ＮＡＭＥ
 41
0.649018
100
AcDbText
  0
TEXT
  5
48D
330
1F
100
AcDbEntity
  8
001
 62
     3
370
    30
100
AcDbText
 10
522.826464
 20
18.837178
 30
0.0
 40
1.6
  1
ＵＳＥＲ’Ｓ　ＤＲＡＷＩＮＧ　№
 41
0.596716
100
AcDbText
  0
TEXT
  5
48E
330
1F
100
AcDbEntity
  8
001
 62
     3
370
    30
100
AcDbText
 10
535.50491
 20
28.7
 30
0.0
 40
1.6
  1
Ｃｏｄｅ
 41
0.519555
100
AcDbText
  0
TEXT
  5
48F
330
1F
100
AcDbEntity
  8
001
 62
     3
370
    30
100
AcDbText
 10
558.939484
 20
28.7
 30
0.0
 40
1.6
  1
Ｐａｒｔ
 41
0.406384
100
AcDbText
  0
TEXT
  5
490
330
1F
100
AcDbEntity
  8
001
 62
     3
370
    30
100
AcDbText
 10
569.859215
 20
28.7
 30
0.0
 40
1.6
  1
Ｐｒｏｃｅｓｓ
 41
0.467379
100
AcDbText
  0
TEXT
  5
491
330
1F
100
AcDbEntity
  8
001
 62
     3
370
    30
100
AcDbText
 10
579.974099
 20
28.7
 30
0.0
 40
1.6
  1
Ｖｅｒ
 41
0.45954
100
AcDbText
  0
TEXT
  5
492
330
1F
100
AcDbEntity
  8
001
370
    30
100
AcDbText
 10
502.197262
 20
28.75
 30
0.0
 40
5.0
  1
Ａ－２
 41
0.831176
100
AcDbText
  0
TEXT
  5
493
330
1F
100
AcDbEntity
  8
001
 62
     3
370
    30
100
AcDbText
 10
523.00039
 20
45.000488
 30
0.0
 40
2.0
  1
ＰＡＲＴ　ＮＡＭＥ
 41
0.601524
100
AcDbText
  0
TEXT
  5
494
330
1F
100
AcDbEntity
  8
001
 62
     3
370
    30
100
AcDbText
 10
429.361111
 20
37.25
 30
0.0
 40
4.5
  1
ＡＳＰ－４０Ｂ　Ⅰ
 41
0.874486
100
AcDbText
  0
TEXT
  5
495
330
1F
100
AcDbEntity
  8
001
 62
     3
370
    30
100
AcDbText
 10
546.25
 20
36.75
 30
0.0
 40
4.5
  1
組立図
 41
0.833333
100
AcDbText
  0
TEXT
  5
496
330
1F
100
AcDbEntity
  8
001
 62
     3
370
    30
100
AcDbText
 10
515.125
 20
24.0
 30
0.0
 40
5.0
  1
高
  7
TATEGAKI
100
AcDbText
  0
TEXT
  5
497
330
1F
100
AcDbEntity
  8
001
 62
     3
370
    30
100
AcDbText
 10
515.125
 20
16.5
 30
0.0
 40
5.0
  1
橋
  7
TATEGAKI
100
AcDbText
  0
TEXT
  5
498
330
1F
100
AcDbEntity
  8
001
 62
     3
370
    30
100
AcDbText
 10
440.9
 20
29.5
 30
0.0
 40
3.5
  1
２０１１，１，２６
 41
0.666667
100
AcDbText
  0
ARC
  5
499
330
1F
100
AcDbEntity
  8
001
370
    30
100
AcDbCircle
 10
254.228854
 20
251.174732
 30
0.0
 40
5.0
100
AcDbArc
 50
270.0
 51
315.0
  0
LINE
  5
49A
330
1F
100
AcDbEntity
  8
001
370
    30
100
AcDbLine
 10
292.760113
 20
190.424732
 30
0.0
 11
292.760113
 21
255.424732
 31
0.0
  0
LINE
  5
49B
330
1F
100
AcDbEntity
  8
001
370
    30
100
AcDbLine
 10
201.260113
 20
250.424732
 30
0.0
 11
239.760113
 21
250.424732
 31
0.0
  0
LINE
  5
49C
330
1F
100
AcDbEntity
  8
001
370
    30
100
AcDbLine
 10
225.08118
 20
246.174732
 30
0.0
 11
254.228854
 21
246.174732
 31
0.0
  0
LINE
  5
49D
330
1F
100
AcDbEntity
  8
001
370
    30
100
AcDbLine
 10
292.260113
 20
255.924732
 30
0.0
 11
290.760113
 21
255.924732
 31
0.0
  0
LINE
  5
49E
330
1F
100
AcDbEntity
  8
001
370
    30
100
AcDbLine
 10
290.760113
 20
255.924732
 30
0.0
 11
260.760113
 21
250.634923
 31
0.0
  0
LINE
  5
49F
330
1F
100
AcDbEntity
  8
001
370
    30
100
AcDbLine
 10
260.760113
 20
250.634923
 30
0.0
 11
257.764388
 21
247.639198
 31
0.0
  0
LINE
  5
4A0
330
1F
100
AcDbEntity
  8
001
370
    30
100
AcDbLine
 10
183.760113
 20
243.924732
 30
0.0
 11
249.940261
 21
243.924732
 31
0.0
  0
LINE
  5
4A1
330
1F
100
AcDbEntity
  8
001
370
    30
100
AcDbLine
 10
253.154199
 20
242.754955
 30
0.0
 11
257.71888
 21
238.924732
 31
0.0
  0
ARC
  5
4A2
330
1F
100
AcDbEntity
  8
001
370
    30
100
AcDbCircle
 10
249.940261
 20
238.924732
 30
0.0
 40
5.0
100
AcDbArc
 50
50.0
 51
90.0
  0
LINE
  5
4A3
330
1F
100
AcDbEntity
  8
001
370
    30
100
AcDbLine
 10
241.082988
 20
250.924732
 30
0.0
 11
262.403703
 21
250.924732
 31
0.0
  0
ARC
  5
4A4
330
1F
100
AcDbEntity
  8
001
370
    30
100
AcDbCircle
 10
241.082988
 20
248.924732
 30
0.0
 40
2.000000000000003
100
AcDbArc
 50
90.0
 51
131.409622
  0
LINE
  5
4A5
330
1F
100
AcDbEntity
  8
001
370
    30
100
AcDbLine
 10
239.760113
 20
250.424732
 30
0.0
 11
239.760113
 21
246.174732
 31
0.0
  0
ARC
  5
4A6
330
1F
100
AcDbEntity
  8
001
370
    30
100
AcDbCircle
 10
289.260113
 20
256.167955
 30
0.0
 40
0.5
100
AcDbArc
 50
280.0
 51
0.0
  0
LINE
  5
4A7
330
1F
100
AcDbEntity
  8
001
370
    30
100
AcDbLine
 10
273.760113
 20
277.924732
 30
0.0
 11
288.960113
 21
277.924732
 31
0.0
  0
LINE
  5
4A8
330
1F
100
AcDbEntity
  8
001
370
    30
100
AcDbLine
 10
160.760113
 20
304.424732
 30
0.0
 11
161.760113
 21
305.424732
 31
0.0
  0
LINE
  5
4A9
330
1F
100
AcDbEntity
  8
001
370
    30
100
AcDbLine
 10
270.760113
 20
278.924732
 30
0.0
 11
270.760113
 21
277.824732
 31
0.0
  0
LINE
  5
4AA
330
1F
100
AcDbEntity
  8
001
370
    30
100
AcDbLine
 10
271.160113
 20
277.424732
 30
0.0
 11
273.260113
 21
277.424732
 31
0.0
  0
ARC
  5
4AB
330
1F
100
AcDbEntity
  8
001
370
    30
100
AcDbCircle
 10
271.160113
 20
277.824732
 30
0.0
 40
0.4000000000000057
100
AcDbArc
 50
180.0
 51
270.0
  0
ARC
  5
4AC
330
1F
100
AcDbEntity
  8
001
370
    30
100
AcDbCircle
 10
273.260113
 20
277.924732
 30
0.0
 40
0.5
100
AcDbArc
 50
270.0
 51
0.0
  0
LINE
  5
4AD
330
1F
100
AcDbEntity
  8
001
370
    30
100
AcDbLine
 10
270.260113
 20
279.424732
 30
0.0
 11
270.760113
 21
278.924732
 31
0.0
  0
LINE
  5
4AE
330
1F
100
AcDbEntity
  8
001
370
    30
100
AcDbLine
 10
276.260113
 20
279.424732
 30
0.0
 11
288.760113
 21
279.424732
 31
0.0
  0
LINE
  5
4AF
330
1F
100
AcDbEntity
  8
001
370
    30
100
AcDbLine
 10
275.760113
 20
278.924732
 30
0.0
 11
275.760113
 21
277.997942
 31
0.0
  0
LINE
  5
4B0
330
1F
100
AcDbEntity
  8
001
370
    30
100
AcDbLine
 10
276.260113
 20
279.424732
 30
0.0
 11
275.760113
 21
278.924732
 31
0.0
  0
LINE
  5
4B1
330
1F
100
AcDbEntity
  8
001
370
    30
100
AcDbLine
 10
277.760113
 20
277.924732
 30
0.0
 11
275.760113
 21
278.460631
 31
0.0
  0
ARC
  5
4B2
330
1F
100
AcDbEntity
  8
001
370
    30
100
AcDbCircle
 10
288.960113
 20
277.124732
 30
0.0
 40
0.8000000000000114
100
AcDbArc
 50
0.0
 51
90.0
  0
ARC
  5
4B3
330
1F
100
AcDbEntity
  8
001
370
    30
100
AcDbCircle
 10
288.760113
 20
276.424732
 30
0.0
 40
3.0
100
AcDbArc
 50
0.0
 51
90.0
  0
ARC
  5
4B4
330
1F
100
AcDbEntity
  8
001
370
    30
100
AcDbCircle
 10
254.228854
 20
194.674732
 30
0.0
 40
5.0
100
AcDbArc
 50
45.0
 51
90.0
  0
LINE
  5
4B5
330
1F
100
AcDbEntity
  8
001
370
    30
100
AcDbLine
 10
225.08118
 20
199.674732
 30
0.0
 11
254.228854
 21
199.674732
 31
0.0
  0
LINE
  5
4B6
330
1F
100
AcDbEntity
  8
001
370
    30
100
AcDbLine
 10
292.260113
 20
189.924732
 30
0.0
 11
290.760113
 21
189.924732
 31
0.0
  0
LINE
  5
4B7
330
1F
100
AcDbEntity
  8
001
370
    30
100
AcDbLine
 10
290.760113
 20
189.924732
 30
0.0
 11
260.760113
 21
195.214542
 31
0.0
  0
LINE
  5
4B8
330
1F
100
AcDbEntity
  8
001
370
    30
100
AcDbLine
 10
260.760113
 20
195.214542
 30
0.0
 11
257.764388
 21
198.210266
 31
0.0
  0
LINE
  5
4B9
330
1F
100
AcDbEntity
  8
001
370
    30
100
AcDbLine
 10
183.760113
 20
201.924732
 30
0.0
 11
249.940261
 21
201.924732
 31
0.0
  0
LINE
  5
4BA
330
1F
100
AcDbEntity
  8
001
370
    30
100
AcDbLine
 10
289.760113
 20
168.724732
 30
0.0
 11
289.760113
 21
190.101059
 31
0.0
  0
LINE
  5
4BB
330
1F
100
AcDbEntity
  8
001
370
    30
100
AcDbLine
 10
241.082988
 20
194.924732
 30
0.0
 11
262.403703
 21
194.924732
 31
0.0
  0
ARC
  5
4BC
330
1F
100
AcDbEntity
  8
001
370
    30
100
AcDbCircle
 10
241.082988
 20
196.924732
 30
0.0
 40
2.0
100
AcDbArc
 50
228.590378
 51
270.0
  0
LINE
  5
4BD
330
1F
100
AcDbEntity
  8
001
370
    30
100
AcDbLine
 10
239.760113
 20
195.424732
 30
0.0
 11
239.760113
 21
199.674732
 31
0.0
  0
ARC
  5
4BE
330
1F
100
AcDbEntity
  8
001
370
    30
100
AcDbCircle
 10
289.260113
 20
189.681509
 30
0.0
 40
0.499999999999999
100
AcDbArc
 50
0.0
 51
80.0
  0
LINE
  5
4BF
330
1F
100
AcDbEntity
  8
001
370
    30
100
AcDbLine
 10
273.760113
 20
167.924732
 30
0.0
 11
288.960113
 21
167.924732
 31
0.0
  0
LINE
  5
4C0
330
1F
100
AcDbEntity
  8
001
370
    30
100
AcDbLine
 10
160.760113
 20
141.424732
 30
0.0
 11
161.760113
 21
140.424732
 31
0.0
  0
LINE
  5
4C1
330
1F
100
AcDbEntity
  8
001
370
    30
100
AcDbLine
 10
270.760113
 20
166.924732
 30
0.0
 11
270.760113
 21
168.024732
 31
0.0
  0
LINE
  5
4C2
330
1F
100
AcDbEntity
  8
001
370
    30
100
AcDbLine
 10
271.160113
 20
168.424732
 30
0.0
 11
273.260113
 21
168.424732
 31
0.0
  0
ARC
  5
4C3
330
1F
100
AcDbEntity
  8
001
370
    30
100
AcDbCircle
 10
271.160113
 20
168.024732
 30
0.0
 40
0.4000000000000057
100
AcDbArc
 50
90.0
 51
180.0
  0
ARC
  5
4C4
330
1F
100
AcDbEntity
  8
001
370
    30
100
AcDbCircle
 10
273.260113
 20
167.924732
 30
0.0
 40
0.5
100
AcDbArc
 50
0.0
 51
90.0
  0
LINE
  5
4C5
330
1F
100
AcDbEntity
  8
001
370
    30
100
AcDbLine
 10
270.260113
 20
166.424732
 30
0.0
 11
270.760113
 21
166.924732
 31
0.0
  0
LINE
  5
4C6
330
1F
100
AcDbEntity
  8
001
370
    30
100
AcDbLine
 10
276.260113
 20
166.424732
 30
0.0
 11
288.760113
 21
166.424732
 31
0.0
  0
LINE
  5
4C7
330
1F
100
AcDbEntity
  8
001
370
    30
100
AcDbLine
 10
275.760113
 20
166.924732
 30
0.0
 11
275.760113
 21
167.851523
 31
0.0
  0
LINE
  5
4C8
330
1F
100
AcDbEntity
  8
001
370
    30
100
AcDbLine
 10
276.260113
 20
166.424732
 30
0.0
 11
275.760113
 21
166.924732
 31
0.0
  0
LINE
  5
4C9
330
1F
100
AcDbEntity
  8
001
370
    30
100
AcDbLine
 10
277.760113
 20
167.924732
 30
0.0
 11
275.760113
 21
167.388834
 31
0.0
  0
ARC
  5
4CA
330
1F
100
AcDbEntity
  8
001
370
    30
100
AcDbCircle
 10
288.960113
 20
168.724732
 30
0.0
 40
0.7999999999999972
100
AcDbArc
 50
270.0
 51
0.0
  0
ARC
  5
4CB
330
1F
100
AcDbEntity
  8
001
370
    30
100
AcDbCircle
 10
288.760113
 20
169.424732
 30
0.0
 40
3.0
100
AcDbArc
 50
270.0
 51
0.0
  0
LINE
  5
4CC
330
1F
100
AcDbEntity
  8
001
370
    30
100
AcDbLine
 10
251.760113
 20
242.754955
 30
0.0
 11
251.760113
 21
203.09451
 31
0.0
  0
LINE
  5
4CD
330
1F
100
AcDbEntity
  8
001
370
    30
100
AcDbLine
 10
253.154199
 20
203.09451
 30
0.0
 11
257.71888
 21
206.924732
 31
0.0
  0
ARC
  5
4CE
330
1F
100
AcDbEntity
  8
001
370
    30
100
AcDbCircle
 10
249.940261
 20
206.924732
 30
0.0
 40
4.999999999999996
100
AcDbArc
 50
270.0
 51
310.0
  0
LINE
  5
4CF
330
1F
100
AcDbEntity
  8
001
370
    30
100
AcDbLine
 10
218.760113
 20
250.424732
 30
0.0
 11
221.545646
 21
247.639198
 31
0.0
  0
ARC
  5
4D0
330
1F
100
AcDbEntity
  8
001
370
    30
100
AcDbCircle
 10
225.08118
 20
251.174732
 30
0.0
 40
5.0
100
AcDbArc
 50
225.0
 51
270.0
  0
LINE
  5
4D1
330
1F
100
AcDbEntity
  8
001
370
    30
100
AcDbLine
 10
218.760113
 20
195.424732
 30
0.0
 11
221.545646
 21
198.210266
 31
0.0
  0
ARC
  5
4D2
330
1F
100
AcDbEntity
  8
001
370
    30
100
AcDbCircle
 10
225.08118
 20
194.674732
 30
0.0
 40
5.0
100
AcDbArc
 50
90.0
 51
135.0
  0
LINE
  5
4D3
330
1F
100
AcDbEntity
  8
001
370
    30
100
AcDbLine
 10
292.260113
 20
238.924732
 30
0.0
 11
292.760113
 21
239.424732
 31
0.0
  0
LINE
  5
4D4
330
1F
100
AcDbEntity
  8
001
370
    30
100
AcDbLine
 10
292.260113
 20
206.924732
 30
0.0
 11
292.260113
 21
238.924732
 31
0.0
  0
LINE
  5
4D5
330
1F
100
AcDbEntity
  8
001
370
    30
100
AcDbLine
 10
257.71888
 20
238.924732
 30
0.0
 11
292.260113
 21
238.924732
 31
0.0
  0
LINE
  5
4D6
330
1F
100
AcDbEntity
  8
001
370
    30
100
AcDbLine
 10
292.260113
 20
206.924732
 30
0.0
 11
292.760113
 21
206.424732
 31
0.0
  0
LINE
  5
4D7
330
1F
100
AcDbEntity
  8
001
370
    30
100
AcDbLine
 10
257.71888
 20
206.924732
 30
0.0
 11
292.260113
 21
206.924732
 31
0.0
  0
LINE
  5
4D8
330
1F
100
AcDbEntity
  8
001
370
    30
100
AcDbLine
 10
160.760113
 20
301.424732
 30
0.0
 11
161.260113
 21
300.924732
 31
0.0
  0
LINE
  5
4D9
330
1F
100
AcDbEntity
  8
001
370
    30
100
AcDbLine
 10
160.760113
 20
289.424732
 30
0.0
 11
161.260113
 21
289.924732
 31
0.0
  0
LINE
  5
4DA
330
1F
100
AcDbEntity
  8
001
370
    30
100
AcDbLine
 10
257.71888
 20
238.924732
 30
0.0
 11
257.71888
 21
206.924732
 31
0.0
  0
LINE
  5
4DB
330
1F
100
AcDbEntity
  8
001
370
    30
100
AcDbLine
 10
292.260113
 20
255.924732
 30
0.0
 11
292.760113
 21
255.424732
 31
0.0
  0
LINE
  5
4DC
330
1F
100
AcDbEntity
  8
001
370
    30
100
AcDbLine
 10
292.760113
 20
190.424732
 30
0.0
 11
292.260113
 21
189.924732
 31
0.0
  0
LINE
  5
4DD
330
1F
100
AcDbEntity
  8
001
370
    30
100
AcDbLine
 10
220.760113
 20
141.424732
 30
0.0
 11
220.760113
 21
164.924732
 31
0.0
  0
LINE
  5
4DE
330
1F
100
AcDbEntity
  8
001
370
    30
100
AcDbLine
 10
223.582988
 20
166.424732
 30
0.0
 11
270.260113
 21
166.424732
 31
0.0
  0
ARC
  5
4DF
330
1F
100
AcDbEntity
  8
001
370
    30
100
AcDbCircle
 10
222.260113
 20
164.924732
 30
0.0
 40
2.000000000000001
100
AcDbArc
 50
48.590378
 51
221.409622
  0
LINE
  5
4E0
330
1F
100
AcDbEntity
  8
001
370
    30
100
AcDbLine
 10
219.760113
 20
140.424732
 30
0.0
 11
220.760113
 21
141.424732
 31
0.0
  0
LINE
  5
4E1
330
1F
100
AcDbEntity
  8
001
370
    30
100
AcDbLine
 10
161.760113
 20
140.424732
 30
0.0
 11
219.760113
 21
140.424732
 31
0.0
  0
LINE
  5
4E2
330
1F
100
AcDbEntity
  8
001
370
    30
100
AcDbLine
 10
161.760113
 20
305.424732
 30
0.0
 11
219.760113
 21
305.424732
 31
0.0
  0
LINE
  5
4E3
330
1F
100
AcDbEntity
  8
001
370
    30
100
AcDbLine
 10
220.760113
 20
304.424732
 30
0.0
 11
220.760113
 21
280.924732
 31
0.0
  0
LINE
  5
4E4
330
1F
100
AcDbEntity
  8
001
370
    30
100
AcDbLine
 10
223.582988
 20
279.424732
 30
0.0
 11
270.260113
 21
279.424732
 31
0.0
  0
LINE
  5
4E5
330
1F
100
AcDbEntity
  8
001
370
    30
100
AcDbLine
 10
219.760113
 20
305.424732
 30
0.0
 11
220.760113
 21
304.424732
 31
0.0
  0
ARC
  5
4E6
330
1F
100
AcDbEntity
  8
001
370
    30
100
AcDbCircle
 10
222.260113
 20
280.924732
 30
0.0
 40
2.000000000000003
100
AcDbArc
 50
138.590378
 51
311.409622
  0
LINE
  5
4E7
330
1F
100
AcDbEntity
  8
001
370
    30
100
AcDbLine
 10
220.760113
 20
286.424732
 30
0.0
 11
220.260113
 21
286.924732
 31
0.0
  0
LINE
  5
4E8
330
1F
100
AcDbEntity
  8
001
370
    30
100
AcDbLine
 10
220.760113
 20
304.424732
 30
0.0
 11
220.260113
 21
303.924732
 31
0.0
  0
LINE
  5
4E9
330
1F
100
AcDbEntity
  8
001
370
    30
100
AcDbLine
 10
220.260113
 20
303.924732
 30
0.0
 11
220.260113
 21
286.924732
 31
0.0
  0
LINE
  5
4EA
330
1F
100
AcDbEntity
  8
001
370
    30
100
AcDbLine
 10
161.260113
 20
300.924732
 30
0.0
 11
209.260113
 21
300.924732
 31
0.0
  0
LINE
  5
4EB
330
1F
100
AcDbEntity
  8
001
370
    30
100
AcDbLine
 10
161.260113
 20
289.924732
 30
0.0
 11
209.260113
 21
289.924732
 31
0.0
  0
LINE
  5
4EC
330
1F
100
AcDbEntity
  8
001
370
    30
100
AcDbLine
 10
209.760113
 20
303.924732
 30
0.0
 11
209.760113
 21
286.924732
 31
0.0
  0
LINE
  5
4ED
330
1F
100
AcDbEntity
  8
001
370
    30
100
AcDbLine
 10
209.260113
 20
289.924732
 30
0.0
 11
209.760113
 21
289.424732
 31
0.0
  0
LINE
  5
4EE
330
1F
100
AcDbEntity
  8
001
370
    30
100
AcDbLine
 10
209.260113
 20
300.924732
 30
0.0
 11
209.760113
 21
301.424732
 31
0.0
  0
LINE
  5
4EF
330
1F
100
AcDbEntity
  8
001
370
    30
100
AcDbLine
 10
209.760113
 20
303.924732
 30
0.0
 11
220.260113
 21
303.924732
 31
0.0
  0
LINE
  5
4F0
330
1F
100
AcDbEntity
  8
001
370
    30
100
AcDbLine
 10
209.760113
 20
286.924732
 30
0.0
 11
220.260113
 21
286.924732
 31
0.0
  0
LINE
  5
4F1
330
1F
100
AcDbEntity
  8
001
370
    30
100
AcDbLine
 10
183.760113
 20
243.924732
 30
0.0
 11
182.760113
 21
244.502083
 31
0.0
  0
LINE
  5
4F2
330
1F
100
AcDbEntity
  8
001
370
    30
100
AcDbLine
 10
183.760113
 20
201.924732
 30
0.0
 11
182.760113
 21
201.347382
 31
0.0
  0
LINE
  5
4F3
330
1F
100
AcDbEntity
  8
001
370
    30
100
AcDbLine
 10
160.760113
 20
141.424732
 30
0.0
 11
160.760113
 21
167.924732
 31
0.0
  0
LINE
  5
4F4
330
1F
100
AcDbEntity
  8
001
370
    30
100
AcDbLine
 10
209.010113
 20
195.424732
 30
0.0
 11
239.760113
 21
195.424732
 31
0.0
  0
LINE
  5
4F5
330
1F
100
AcDbEntity
  8
001
370
    30
100
AcDbLine
 10
182.260113
 20
244.424732
 30
0.0
 11
182.260113
 21
201.424732
 31
0.0
  0
LINE
  5
4F6
330
1F
100
AcDbEntity
  8
001
370
    30
100
AcDbLine
 10
182.260113
 20
244.424732
 30
0.0
 11
182.760113
 21
244.924732
 31
0.0
  0
LINE
  5
4F7
330
1F
100
AcDbEntity
  8
001
370
    30
100
AcDbLine
 10
159.760113
 20
247.374732
 30
0.0
 11
159.760113
 21
198.474871
 31
0.0
  0
LINE
  5
4F8
330
1F
100
AcDbEntity
  8
001
370
    30
100
AcDbLine
 10
156.760113
 20
248.174732
 30
0.0
 11
156.760113
 21
197.674871
 31
0.0
  0
LINE
  5
4F9
330
1F
100
AcDbEntity
  8
001
370
    30
100
AcDbLine
 10
156.760113
 20
248.174732
 30
0.0
 11
158.960113
 21
248.174732
 31
0.0
  0
LINE
  5
4FA
330
1F
100
AcDbEntity
  8
001
370
    30
100
AcDbLine
 10
156.760113
 20
248.174732
 30
0.0
 11
155.760113
 21
247.174732
 31
0.0
  0
ARC
  5
4FB
330
1F
100
AcDbEntity
  8
001
370
    30
100
AcDbCircle
 10
158.960113
 20
247.374732
 30
0.0
 40
0.7999999999999972
100
AcDbArc
 50
0.0
 51
90.0
  0
LINE
  5
4FC
330
1F
100
AcDbEntity
  8
001
370
    30
100
AcDbLine
 10
155.760113
 20
247.174732
 30
0.0
 11
155.760113
 21
198.674871
 31
0.0
  0
LINE
  5
4FD
330
1F
100
AcDbEntity
  8
001
370
    30
100
AcDbLine
 10
147.925176
 20
247.174732
 30
0.0
 11
147.925176
 21
198.674871
 31
0.0
  0
LINE
  5
4FE
330
1F
100
AcDbEntity
  8
001
370
    30
100
AcDbLine
 10
182.260113
 20
201.424732
 30
0.0
 11
182.760113
 21
200.924732
 31
0.0
  0
LINE
  5
4FF
330
1F
100
AcDbEntity
  8
001
370
    30
100
AcDbLine
 10
156.760113
 20
197.674732
 30
0.0
 11
158.960113
 21
197.674732
 31
0.0
  0
LINE
  5
500
330
1F
100
AcDbEntity
  8
001
370
    30
100
AcDbLine
 10
156.760113
 20
197.674732
 30
0.0
 11
155.760113
 21
198.674732
 31
0.0
  0
ARC
  5
501
330
1F
100
AcDbEntity
  8
001
370
    30
100
AcDbCircle
 10
158.960113
 20
198.474732
 30
0.0
 40
0.7999999999999972
100
AcDbArc
 50
270.0
 51
0.0
  0
LINE
  5
502
330
1F
100
AcDbEntity
  8
001
  6
CENTER
 62
     3
370
     9
100
AcDbLine
 10
137.79296
 20
222.924732
 30
0.0
 11
295.562386
 21
222.924732
 31
0.0
  0
LINE
  5
503
330
1F
100
AcDbEntity
  8
001
370
    30
100
AcDbLine
 10
182.760113
 20
199.079433
 30
0.0
 11
182.760113
 21
246.770032
 31
0.0
  0
LINE
  5
504
330
1F
100
AcDbEntity
  8
001
370
    30
100
AcDbLine
 10
183.760113
 20
243.924732
 30
0.0
 11
183.760113
 21
201.924732
 31
0.0
  0
LINE
  5
505
330
1F
100
AcDbEntity
  8
001
370
    30
100
AcDbLine
 10
160.060113
 20
198.924732
 30
0.0
 11
159.760113
 21
198.624732
 31
0.0
  0
LINE
  5
506
330
1F
100
AcDbEntity
  8
001
370
    30
100
AcDbLine
 10
160.060113
 20
246.924732
 30
0.0
 11
159.760113
 21
247.224732
 31
0.0
  0
LINE
  5
507
330
1F
100
AcDbEntity
  8
001
370
    30
100
AcDbLine
 10
160.060113
 20
246.924732
 30
0.0
 11
160.060113
 21
198.924732
 31
0.0
  0
ARC
  5
508
330
1F
100
AcDbEntity
  8
001
370
    30
100
AcDbCircle
 10
199.960113
 20
247.724732
 30
0.0
 40
0.7999999999999972
100
AcDbArc
 50
270.0
 51
0.0
  0
LINE
  5
509
330
1F
100
AcDbEntity
  8
001
370
    30
100
AcDbLine
 10
200.760113
 20
249.924732
 30
0.0
 11
200.760113
 21
247.724732
 31
0.0
  0
LINE
  5
50A
330
1F
100
AcDbEntity
  8
001
370
    30
100
AcDbLine
 10
184.760113
 20
247.924732
 30
0.0
 11
196.760113
 21
247.924732
 31
0.0
  0
LINE
  5
50B
330
1F
100
AcDbEntity
  8
001
370
    30
100
AcDbLine
 10
197.760113
 20
246.924732
 30
0.0
 11
199.960113
 21
246.924732
 31
0.0
  0
LINE
  5
50C
330
1F
100
AcDbEntity
  8
001
 62
     3
370
     9
100
AcDbLine
 10
183.461074
 20
247.174732
 30
0.0
 11
197.510113
 21
247.174732
 31
0.0
  0
LINE
  5
50D
330
1F
100
AcDbEntity
  8
001
370
    30
100
AcDbLine
 10
197.760113
 20
246.924732
 30
0.0
 11
196.760113
 21
247.924732
 31
0.0
  0
LINE
  5
50E
330
1F
100
AcDbEntity
  8
001
370
    30
100
AcDbLine
 10
184.760113
 20
247.924732
 30
0.0
 11
182.760113
 21
246.770032
 31
0.0
  0
LINE
  5
50F
330
1F
100
AcDbEntity
  8
001
370
    30
100
AcDbLine
 10
200.760113
 20
249.924732
 30
0.0
 11
201.260113
 21
250.424732
 31
0.0
  0
LINE
  5
510
330
1F
100
AcDbEntity
  8
001
370
    30
100
AcDbLine
 10
183.760113
 20
243.924732
 30
0.0
 11
182.760113
 21
244.502083
 31
0.0
  0
LINE
  5
511
330
1F
100
AcDbEntity
  8
001
370
    30
100
AcDbLine
 10
195.760113
 20
247.174732
 30
0.0
 11
197.760113
 21
248.329433
 31
0.0
  0
LINE
  5
512
330
1F
100
AcDbEntity
  8
001
370
    30
100
AcDbLine
 10
156.760113
 20
277.924732
 30
0.0
 11
155.760113
 21
276.924732
 31
0.0
  0
ARC
  5
513
330
1F
100
AcDbEntity
  8
001
370
    30
100
AcDbCircle
 10
199.960113
 20
198.124732
 30
0.0
 40
0.7999999999999972
100
AcDbArc
 50
0.0
 51
90.0
  0
LINE
  5
514
330
1F
100
AcDbEntity
  8
001
370
    30
100
AcDbLine
 10
200.760113
 20
195.924732
 30
0.0
 11
200.760113
 21
198.124732
 31
0.0
  0
LINE
  5
515
330
1F
100
AcDbEntity
  8
001
 62
     3
370
     9
100
AcDbLine
 10
196.760113
 20
247.924732
 30
0.0
 11
197.059151
 21
247.924732
 31
0.0
  0
LINE
  5
516
330
1F
100
AcDbEntity
  8
001
370
    30
100
AcDbLine
 10
184.760113
 20
197.924732
 30
0.0
 11
197.059151
 21
197.924732
 31
0.0
  0
LINE
  5
517
330
1F
100
AcDbEntity
  8
001
370
    30
100
AcDbLine
 10
197.760113
 20
198.924732
 30
0.0
 11
199.960113
 21
198.924732
 31
0.0
  0
LINE
  5
518
330
1F
100
AcDbEntity
  8
001
 62
     3
370
     9
100
AcDbLine
 10
183.461074
 20
198.674732
 30
0.0
 11
197.510113
 21
198.674732
 31
0.0
  0
LINE
  5
519
330
1F
100
AcDbEntity
  8
001
370
    30
100
AcDbLine
 10
197.760113
 20
198.924732
 30
0.0
 11
196.760113
 21
197.924732
 31
0.0
  0
LINE
  5
51A
330
1F
100
AcDbEntity
  8
001
370
    30
100
AcDbLine
 10
200.760113
 20
195.924732
 30
0.0
 11
201.260113
 21
195.424732
 31
0.0
  0
LINE
  5
51B
330
1F
100
AcDbEntity
  8
001
370
    30
100
AcDbLine
 10
195.760113
 20
198.674732
 30
0.0
 11
197.760113
 21
197.520032
 31
0.0
  0
LINE
  5
51C
330
1F
100
AcDbEntity
  8
001
370
    30
100
AcDbLine
 10
183.760113
 20
243.924732
 30
0.0
 11
183.760113
 21
243.674732
 31
0.0
  0
LINE
  5
51D
330
1F
100
AcDbEntity
  8
001
370
    30
100
AcDbLine
 10
183.760113
 20
201.924732
 30
0.0
 11
182.760113
 21
201.347382
 31
0.0
  0
LINE
  5
51E
330
1F
100
AcDbEntity
  8
001
370
    30
100
AcDbLine
 10
183.760113
 20
201.924732
 30
0.0
 11
183.760113
 21
202.174732
 31
0.0
  0
LINE
  5
51F
330
1F
100
AcDbEntity
  8
001
370
    30
100
AcDbLine
 10
161.360113
 20
277.424732
 30
0.0
 11
160.425798
 21
277.424732
 31
0.0
  0
LINE
  5
520
330
1F
100
AcDbEntity
  8
001
370
    30
100
AcDbLine
 10
160.142955
 20
277.54189
 30
0.0
 11
159.760113
 21
277.924732
 31
0.0
  0
ARC
  5
521
330
1F
100
AcDbEntity
  8
001
370
    30
100
AcDbCircle
 10
160.425798
 20
277.824732
 30
0.0
 40
0.4
100
AcDbArc
 50
225.0
 51
270.0
  0
ARC
  5
522
330
1F
100
AcDbEntity
  8
001
370
    30
100
AcDbCircle
 10
161.360113
 20
277.824732
 30
0.0
 40
0.4
100
AcDbArc
 50
270.0
 51
0.0
  0
LINE
  5
523
330
1F
100
AcDbEntity
  8
001
370
    30
100
AcDbLine
 10
159.760113
 20
277.924732
 30
0.0
 11
156.760113
 21
277.924732
 31
0.0
  0
LINE
  5
524
330
1F
100
AcDbEntity
  8
001
370
    30
100
AcDbLine
 10
200.760113
 20
197.424732
 30
0.0
 11
211.260113
 21
197.424732
 31
0.0
  0
ARC
  5
525
330
1F
100
AcDbEntity
  8
001
370
    30
100
AcDbCircle
 10
211.260113
 20
189.924732
 30
0.0
 40
7.500000000000003
100
AcDbArc
 50
47.166572
 51
90.0
  0
LINE
  5
526
330
1F
100
AcDbEntity
  8
001
370
    30
100
AcDbLine
 10
201.260113
 20
195.424732
 30
0.0
 11
205.510113
 21
195.424732
 31
0.0
  0
LINE
  5
527
330
1F
100
AcDbEntity
  8
001
370
    30
100
AcDbLine
 10
161.260113
 20
285.424732
 30
0.0
 11
160.760113
 21
285.924732
 31
0.0
  0
LINE
  5
528
330
1F
100
AcDbEntity
  8
001
370
    30
100
AcDbLine
 10
161.760113
 20
284.924732
 30
0.0
 11
161.760113
 21
277.824732
 31
0.0
  0
LINE
  5
529
330
1F
100
AcDbEntity
  8
001
370
    30
100
AcDbLine
 10
162.260113
 20
285.424732
 30
0.0
 11
161.760113
 21
284.924732
 31
0.0
  0
LINE
  5
52A
330
1F
100
AcDbEntity
  8
001
370
    30
100
AcDbLine
 10
178.591483
 20
285.924732
 30
0.0
 11
182.460113
 21
285.924732
 31
0.0
  0
LINE
  5
52B
330
1F
100
AcDbEntity
  8
001
370
    30
100
AcDbLine
 10
183.025798
 20
282.690418
 30
0.0
 11
182.760113
 21
282.424732
 31
0.0
  0
LINE
  5
52C
330
1F
100
AcDbEntity
  8
001
370
    30
100
AcDbLine
 10
183.260113
 20
283.256103
 30
0.0
 11
183.260113
 21
285.124732
 31
0.0
  0
ARC
  5
52D
330
1F
100
AcDbEntity
  8
001
370
    30
100
AcDbCircle
 10
182.460113
 20
283.256103
 30
0.0
 40
0.8
100
AcDbArc
 50
315.0
 51
0.0
  0
ARC
  5
52E
330
1F
100
AcDbEntity
  8
001
370
    30
100
AcDbCircle
 10
182.460113
 20
285.124732
 30
0.0
 40
0.8000000000000114
100
AcDbArc
 50
0.0
 51
90.0
  0
LINE
  5
52F
330
1F
100
AcDbEntity
  8
001
370
    30
100
AcDbLine
 10
178.025798
 20
285.690418
 30
0.0
 11
177.760113
 21
285.424732
 31
0.0
  0
ARC
  5
530
330
1F
100
AcDbEntity
  8
001
370
    30
100
AcDbCircle
 10
178.591483
 20
285.124732
 30
0.0
 40
0.8
100
AcDbArc
 50
90.0
 51
135.0
  0
LINE
  5
531
330
1F
100
AcDbEntity
  8
001
370
    30
100
AcDbLine
 10
177.760113
 20
285.424732
 30
0.0
 11
161.260113
 21
285.424732
 31
0.0
  0
LINE
  5
532
330
1F
100
AcDbEntity
  8
001
370
    30
100
AcDbLine
 10
177.760113
 20
160.424732
 30
0.0
 11
161.260113
 21
160.424732
 31
0.0
  0
LINE
  5
533
330
1F
100
AcDbEntity
  8
001
370
    30
100
AcDbLine
 10
178.591483
 20
159.924732
 30
0.0
 11
182.460113
 21
159.924732
 31
0.0
  0
LINE
  5
534
330
1F
100
AcDbEntity
  8
001
370
    30
100
AcDbLine
 10
178.025798
 20
160.159047
 30
0.0
 11
177.760113
 21
160.424732
 31
0.0
  0
ARC
  5
535
330
1F
100
AcDbEntity
  8
001
370
    30
100
AcDbCircle
 10
178.591483
 20
160.724732
 30
0.0
 40
0.8
100
AcDbArc
 50
225.0
 51
270.0
  0
LINE
  5
536
330
1F
100
AcDbEntity
  8
001
370
    30
100
AcDbLine
 10
183.025798
 20
163.159047
 30
0.0
 11
182.760113
 21
163.424732
 31
0.0
  0
LINE
  5
537
330
1F
100
AcDbEntity
  8
001
370
    30
100
AcDbLine
 10
183.260113
 20
162.593361
 30
0.0
 11
183.260113
 21
160.724732
 31
0.0
  0
ARC
  5
538
330
1F
100
AcDbEntity
  8
001
370
    30
100
AcDbCircle
 10
182.460113
 20
162.593361
 30
0.0
 40
0.8
100
AcDbArc
 50
0.0
 51
45.0
  0
ARC
  5
539
330
1F
100
AcDbEntity
  8
001
370
    30
100
AcDbCircle
 10
182.460113
 20
160.724732
 30
0.0
 40
0.7999999999999972
100
AcDbArc
 50
270.0
 51
0.0
  0
LINE
  5
53A
330
1F
100
AcDbEntity
  8
001
370
    30
100
AcDbLine
 10
203.760113
 20
266.924732
 30
0.0
 11
200.760113
 21
266.120885
 31
0.0
  0
LINE
  5
53B
330
1F
100
AcDbEntity
  8
001
370
    30
100
AcDbLine
 10
215.260113
 20
195.424732
 30
0.0
 11
215.260113
 21
178.924732
 31
0.0
  0
LINE
  5
53C
330
1F
100
AcDbEntity
  8
001
370
    30
100
AcDbLine
 10
182.760113
 20
248.424732
 30
0.0
 11
184.925176
 21
247.174732
 31
0.0
  0
LINE
  5
53D
330
1F
100
AcDbEntity
  8
001
370
    30
100
AcDbLine
 10
184.760113
 20
197.924732
 30
0.0
 11
182.760113
 21
199.079433
 31
0.0
  0
LINE
  5
53E
330
1F
100
AcDbEntity
  8
001
370
    30
100
AcDbLine
 10
183.760113
 20
201.924732
 30
0.0
 11
182.760113
 21
201.347382
 31
0.0
  0
LINE
  5
53F
330
1F
100
AcDbEntity
  8
001
370
    30
100
AcDbLine
 10
183.760113
 20
201.924732
 30
0.0
 11
183.760113
 21
202.174732
 31
0.0
  0
LINE
  5
540
330
1F
100
AcDbEntity
  8
001
370
    30
100
AcDbLine
 10
182.760113
 20
197.424732
 30
0.0
 11
184.925176
 21
198.674732
 31
0.0
  0
LINE
  5
541
330
1F
100
AcDbEntity
  8
001
370
    30
100
AcDbLine
 10
156.760113
 20
167.924732
 30
0.0
 11
155.760113
 21
168.924732
 31
0.0
  0
LINE
  5
542
330
1F
100
AcDbEntity
  8
001
370
    30
100
AcDbLine
 10
161.360113
 20
168.424732
 30
0.0
 11
160.425798
 21
168.424732
 31
0.0
  0
LINE
  5
543
330
1F
100
AcDbEntity
  8
001
370
    30
100
AcDbLine
 10
160.142955
 20
168.307575
 30
0.0
 11
159.760113
 21
167.924732
 31
0.0
  0
ARC
  5
544
330
1F
100
AcDbEntity
  8
001
370
    30
100
AcDbCircle
 10
160.425798
 20
168.024732
 30
0.0
 40
0.4
100
AcDbArc
 50
90.0
 51
135.0
  0
ARC
  5
545
330
1F
100
AcDbEntity
  8
001
370
    30
100
AcDbCircle
 10
161.360113
 20
168.024732
 30
0.0
 40
0.4
100
AcDbArc
 50
0.0
 51
90.0
  0
LINE
  5
546
330
1F
100
AcDbEntity
  8
001
370
    30
100
AcDbLine
 10
159.760113
 20
167.924732
 30
0.0
 11
156.760113
 21
167.924732
 31
0.0
  0
LINE
  5
547
330
1F
100
AcDbEntity
  8
001
370
    30
100
AcDbLine
 10
161.260113
 20
160.424732
 30
0.0
 11
160.760113
 21
159.924732
 31
0.0
  0
LINE
  5
548
330
1F
100
AcDbEntity
  8
001
370
    30
100
AcDbLine
 10
161.760113
 20
160.924732
 30
0.0
 11
161.760113
 21
168.024732
 31
0.0
  0
LINE
  5
549
330
1F
100
AcDbEntity
  8
001
370
    30
100
AcDbLine
 10
162.260113
 20
160.424732
 30
0.0
 11
161.760113
 21
160.924732
 31
0.0
  0
ARC
  5
54A
330
1F
100
AcDbEntity
  8
001
370
    30
100
AcDbCircle
 10
198.060113
 20
267.624732
 30
0.0
 40
0.8
100
AcDbArc
 50
90.0
 51
180.0
  0
ARC
  5
54B
330
1F
100
AcDbEntity
  8
001
370
    30
100
AcDbCircle
 10
198.060113
 20
178.224732
 30
0.0
 40
0.8
100
AcDbArc
 50
180.0
 51
270.0
  0
LINE
  5
54C
330
1F
100
AcDbEntity
  8
001
370
    30
100
AcDbLine
 10
197.494427
 20
179.790418
 30
0.0
 11
197.760113
 21
180.056103
 31
0.0
  0
ARC
  5
54D
330
1F
100
AcDbEntity
  8
001
370
    30
100
AcDbCircle
 10
198.060113
 20
179.224732
 30
0.0
 40
0.8
100
AcDbArc
 50
135.0
 51
180.0
  0
LINE
  5
54E
330
1F
100
AcDbEntity
  8
001
370
    30
100
AcDbLine
 10
197.260113
 20
178.224732
 30
0.0
 11
197.260113
 21
179.224732
 31
0.0
  0
LINE
  5
54F
330
1F
100
AcDbEntity
  8
001
370
    30
100
AcDbLine
 10
197.760113
 20
180.056103
 30
0.0
 11
197.760113
 21
198.265974
 31
0.0
  0
LINE
  5
550
330
1F
100
AcDbEntity
  8
001
370
    30
100
AcDbLine
 10
156.260113
 20
266.924732
 30
0.0
 11
172.460113
 21
266.924732
 31
0.0
  0
LINE
  5
551
330
1F
100
AcDbEntity
  8
001
370
    30
100
AcDbLine
 10
155.760113
 20
266.924732
 30
0.0
 11
155.760113
 21
276.924732
 31
0.0
  0
LINE
  5
552
330
1F
100
AcDbEntity
  8
001
370
    30
100
AcDbLine
 10
173.260113
 20
266.124732
 30
0.0
 11
173.260113
 21
265.424732
 31
0.0
  0
LINE
  5
553
330
1F
100
AcDbEntity
  8
001
370
    30
100
AcDbLine
 10
198.060113
 20
268.424732
 30
0.0
 11
209.928742
 21
268.424732
 31
0.0
  0
ARC
  5
554
330
1F
100
AcDbEntity
  8
001
370
    30
100
AcDbCircle
 10
209.928742
 20
267.624732
 30
0.0
 40
0.8
100
AcDbArc
 50
45.0
 51
90.0
  0
LINE
  5
555
330
1F
100
AcDbEntity
  8
001
370
    30
100
AcDbLine
 10
211.760113
 20
266.924732
 30
0.0
 11
210.494427
 21
268.190418
 31
0.0
  0
LINE
  5
556
330
1F
100
AcDbEntity
  8
001
370
    30
100
AcDbLine
 10
201.760113
 20
250.424732
 30
0.0
 11
200.760113
 21
251.002083
 31
0.0
  0
LINE
  5
557
330
1F
100
AcDbEntity
  8
001
370
    30
100
AcDbLine
 10
200.260113
 20
265.424732
 30
0.0
 11
200.760113
 21
264.924732
 31
0.0
  0
LINE
  5
558
330
1F
100
AcDbEntity
  8
001
370
    30
100
AcDbLine
 10
200.760113
 20
262.924732
 30
0.0
 11
201.260113
 21
262.924732
 31
0.0
  0
LINE
  5
559
330
1F
100
AcDbEntity
  8
001
370
    30
100
AcDbLine
 10
201.260113
 20
262.924732
 30
0.0
 11
201.260113
 21
262.424732
 31
0.0
  0
LINE
  5
55A
330
1F
100
AcDbEntity
  8
001
370
    30
100
AcDbLine
 10
201.260113
 20
262.924732
 30
0.0
 11
201.895198
 21
261.824732
 31
0.0
  0
LINE
  5
55B
330
1F
100
AcDbEntity
  8
001
370
    30
100
AcDbLine
 10
200.760113
 20
253.924732
 30
0.0
 11
201.260113
 21
253.924732
 31
0.0
  0
LINE
  5
55C
330
1F
100
AcDbEntity
  8
001
370
    30
100
AcDbLine
 10
201.260113
 20
253.924732
 30
0.0
 11
201.260113
 21
254.424732
 31
0.0
  0
LINE
  5
55D
330
1F
100
AcDbEntity
  8
001
370
    30
100
AcDbLine
 10
201.260113
 20
253.924732
 30
0.0
 11
201.895198
 21
255.024732
 31
0.0
  0
LINE
  5
55E
330
1F
100
AcDbEntity
  8
001
370
    30
100
AcDbLine
 10
200.760113
 20
254.424732
 30
0.0
 11
200.760113
 21
250.924732
 31
0.0
  0
LINE
  5
55F
330
1F
100
AcDbEntity
  8
001
370
    30
100
AcDbLine
 10
217.760113
 20
254.424732
 30
0.0
 11
217.760113
 21
262.424732
 31
0.0
  0
LINE
  5
560
330
1F
100
AcDbEntity
  8
001
370
    30
100
AcDbLine
 10
222.760113
 20
255.024732
 30
0.0
 11
222.760113
 21
261.824732
 31
0.0
  0
LINE
  5
561
330
1F
100
AcDbEntity
  8
001
370
    30
100
AcDbLine
 10
222.760113
 20
261.824732
 30
0.0
 11
224.723103
 21
258.424732
 31
0.0
  0
LINE
  5
562
330
1F
100
AcDbEntity
  8
001
370
    30
100
AcDbLine
 10
224.723103
 20
258.424732
 30
0.0
 11
222.760113
 21
255.024732
 31
0.0
  0
LINE
  5
563
330
1F
100
AcDbEntity
  8
001
370
    30
100
AcDbLine
 10
200.760113
 20
266.120885
 30
0.0
 11
200.760113
 21
262.424732
 31
0.0
  0
LINE
  5
564
330
1F
100
AcDbEntity
  8
001
370
    30
100
AcDbLine
 10
200.760113
 20
254.424732
 30
0.0
 11
200.760113
 21
250.924732
 31
0.0
  0
LINE
  5
565
330
1F
100
AcDbEntity
  8
001
370
    30
100
AcDbLine
 10
182.760113
 20
251.424732
 30
0.0
 11
182.760113
 21
243.674732
 31
0.0
  0
LINE
  5
566
330
1F
100
AcDbEntity
  8
001
370
    30
100
AcDbLine
 10
197.760113
 20
251.424732
 30
0.0
 11
197.760113
 21
247.58349
 31
0.0
  0
LINE
  5
567
330
1F
100
AcDbEntity
  8
001
370
    30
100
AcDbLine
 10
199.760113
 20
251.424732
 30
0.0
 11
200.760113
 21
252.002083
 31
0.0
  0
LINE
  5
568
330
1F
100
AcDbEntity
  8
001
370
    30
100
AcDbLine
 10
171.060113
 20
251.424732
 30
0.0
 11
199.760113
 21
251.424732
 31
0.0
  0
LINE
  5
569
330
1F
100
AcDbEntity
  8
001
370
    30
100
AcDbLine
 10
173.260113
 20
250.424732
 30
0.0
 11
197.760113
 21
250.424732
 31
0.0
  0
LINE
  5
56A
330
1F
100
AcDbEntity
  8
001
370
    30
100
AcDbLine
 10
173.126138
 20
266.424732
 30
0.0
 11
197.260113
 21
266.424732
 31
0.0
  0
ARC
  5
56B
330
1F
100
AcDbEntity
  8
001
370
    30
100
AcDbCircle
 10
172.460113
 20
266.124732
 30
0.0
 40
0.8
100
AcDbArc
 50
0.0
 51
90.0
  0
LINE
  5
56C
330
1F
100
AcDbEntity
  8
001
370
    30
100
AcDbLine
 10
156.260113
 20
266.924732
 30
0.0
 11
155.760113
 21
267.424732
 31
0.0
  0
LINE
  5
56D
330
1F
100
AcDbEntity
  8
001
370
    30
100
AcDbLine
 10
183.760113
 20
201.924732
 30
0.0
 11
182.760113
 21
201.347382
 31
0.0
  0
LINE
  5
56E
330
1F
100
AcDbEntity
  8
001
370
    30
100
AcDbLine
 10
183.760113
 20
201.924732
 30
0.0
 11
183.760113
 21
202.174732
 31
0.0
  0
LINE
  5
56F
330
1F
100
AcDbEntity
  8
001
370
    30
100
AcDbLine
 10
201.760113
 20
195.424732
 30
0.0
 11
200.760113
 21
194.847382
 31
0.0
  0
LINE
  5
570
330
1F
100
AcDbEntity
  8
001
370
    30
100
AcDbLine
 10
200.760113
 20
179.72858
 30
0.0
 11
200.760113
 21
194.924732
 31
0.0
  0
LINE
  5
571
330
1F
100
AcDbEntity
  8
001
370
    30
100
AcDbLine
 10
156.260113
 20
178.924732
 30
0.0
 11
172.460113
 21
178.924732
 31
0.0
  0
ARC
  5
572
330
1F
100
AcDbEntity
  8
001
370
    30
100
AcDbCircle
 10
172.460113
 20
179.724732
 30
0.0
 40
0.8
100
AcDbArc
 50
270.0
 51
0.0
  0
LINE
  5
573
330
1F
100
AcDbEntity
  8
001
370
    30
100
AcDbLine
 10
156.260113
 20
178.924732
 30
0.0
 11
155.760113
 21
178.424732
 31
0.0
  0
LINE
  5
574
330
1F
100
AcDbEntity
  8
001
370
    30
100
AcDbLine
 10
172.360113
 20
246.924732
 30
0.0
 11
160.060113
 21
246.924732
 31
0.0
  0
LINE
  5
575
330
1F
100
AcDbEntity
  8
001
370
    30
100
AcDbLine
 10
173.260113
 20
250.666352
 30
0.0
 11
173.260113
 21
251.424732
 31
0.0
  0
ARC
  5
576
330
1F
100
AcDbEntity
  8
001
370
    30
100
AcDbCircle
 10
172.460113
 20
250.666352
 30
0.0
 40
0.8
100
AcDbArc
 50
292.024313
 51
0.0
  0
LINE
  5
577
330
1F
100
AcDbEntity
  8
001
370
    30
100
AcDbLine
 10
170.260113
 20
250.624732
 30
0.0
 11
170.260113
 21
250.666352
 31
0.0
  0
LINE
  5
578
330
1F
100
AcDbEntity
  8
001
370
    30
100
AcDbLine
 10
172.760113
 20
247.324732
 30
0.0
 11
172.760113
 21
249.924732
 31
0.0
  0
LINE
  5
579
330
1F
100
AcDbEntity
  8
001
370
    30
100
AcDbLine
 10
170.760113
 20
247.924732
 30
0.0
 11
169.760113
 21
246.924732
 31
0.0
  0
ARC
  5
57A
330
1F
100
AcDbEntity
  8
001
370
    30
100
AcDbCircle
 10
172.360113
 20
247.324732
 30
0.0
 40
0.4
100
AcDbArc
 50
270.0
 51
0.0
  0
LINE
  5
57B
330
1F
100
AcDbEntity
  8
001
370
    30
100
AcDbLine
 10
172.360113
 20
198.924732
 30
0.0
 11
160.060113
 21
198.924732
 31
0.0
  0
LINE
  5
57C
330
1F
100
AcDbEntity
  8
001
370
    30
100
AcDbLine
 10
173.260113
 20
195.183112
 30
0.0
 11
173.260113
 21
194.424732
 31
0.0
  0
ARC
  5
57D
330
1F
100
AcDbEntity
  8
001
370
    30
100
AcDbCircle
 10
172.460113
 20
195.183112
 30
0.0
 40
0.8
100
AcDbArc
 50
0.0
 51
67.975687
  0
LINE
  5
57E
330
1F
100
AcDbEntity
  8
001
370
    30
100
AcDbLine
 10
170.260113
 20
195.224732
 30
0.0
 11
170.260113
 21
195.183112
 31
0.0
  0
LINE
  5
57F
330
1F
100
AcDbEntity
  8
001
370
    30
100
AcDbLine
 10
172.760113
 20
198.524732
 30
0.0
 11
172.760113
 21
195.924732
 31
0.0
  0
LINE
  5
580
330
1F
100
AcDbEntity
  8
001
370
    30
100
AcDbLine
 10
170.760113
 20
197.924732
 30
0.0
 11
169.760113
 21
198.924732
 31
0.0
  0
ARC
  5
581
330
1F
100
AcDbEntity
  8
001
370
    30
100
AcDbCircle
 10
172.360113
 20
198.524732
 30
0.0
 40
0.4
100
AcDbArc
 50
0.0
 51
90.0
  0
LINE
  5
582
330
1F
100
AcDbEntity
  8
001
370
    30
100
AcDbLine
 10
173.260113
 20
195.183112
 30
0.0
 11
173.260113
 21
179.724732
 31
0.0
  0
LINE
  5
583
330
1F
100
AcDbEntity
  8
001
370
    30
100
AcDbLine
 10
197.260113
 20
265.424732
 30
0.0
 11
197.260113
 21
267.624732
 31
0.0
  0
LINE
  5
584
330
1F
100
AcDbEntity
  8
001
370
    30
100
AcDbLine
 10
145.760113
 20
251.924732
 30
0.0
 11
145.760113
 21
193.924871
 31
0.0
  0
LINE
  5
585
330
1F
100
AcDbEntity
  8
001
370
    30
100
AcDbLine
 10
145.760113
 20
251.924732
 30
0.0
 11
146.760113
 21
252.924732
 31
0.0
  0
LINE
  5
586
330
1F
100
AcDbEntity
  8
001
370
    30
100
AcDbLine
 10
145.760113
 20
193.924732
 30
0.0
 11
146.760113
 21
192.924732
 31
0.0
  0
LINE
  5
587
330
1F
100
AcDbEntity
  8
001
370
    30
100
AcDbLine
 10
155.260113
 20
264.924732
 30
0.0
 11
155.760113
 21
265.424732
 31
0.0
  0
LINE
  5
588
330
1F
100
AcDbEntity
  8
001
370
    30
100
AcDbLine
 10
200.260113
 20
265.424732
 30
0.0
 11
155.760113
 21
265.424732
 31
0.0
  0
LINE
  5
589
330
1F
100
AcDbEntity
  8
001
  6
CENTER
 62
     3
370
     9
100
AcDbLine
 10
152.425733
 20
258.424732
 30
0.0
 11
227.054764
 21
258.424732
 31
0.0
  0
LINE
  5
58A
330
1F
100
AcDbEntity
  8
001
370
    30
100
AcDbLine
 10
163.760113
 20
262.924732
 30
0.0
 11
200.260113
 21
262.924732
 31
0.0
  0
LINE
  5
58B
330
1F
100
AcDbEntity
  8
001
370
    30
100
AcDbLine
 10
163.760113
 20
253.924732
 30
0.0
 11
200.260113
 21
253.924732
 31
0.0
  0
LINE
  5
58C
330
1F
100
AcDbEntity
  8
001
370
    30
100
AcDbLine
 10
155.260113
 20
253.310373
 30
0.0
 11
155.260113
 21
263.539092
 31
0.0
  0
LINE
  5
58D
330
1F
100
AcDbEntity
  8
001
370
    30
100
AcDbLine
 10
156.060113
 20
264.924732
 30
0.0
 11
155.260113
 21
263.539092
 31
0.0
  0
LINE
  5
58E
330
1F
100
AcDbEntity
  8
001
370
    30
100
AcDbLine
 10
156.060113
 20
251.924732
 30
0.0
 11
155.260113
 21
253.310373
 31
0.0
  0
LINE
  5
58F
330
1F
100
AcDbEntity
  8
001
370
    30
100
AcDbLine
 10
156.060113
 20
264.924732
 30
0.0
 11
156.060113
 21
251.924732
 31
0.0
  0
LINE
  5
590
330
1F
100
AcDbEntity
  8
001
370
    30
100
AcDbLine
 10
156.060113
 20
251.924732
 30
0.0
 11
163.260113
 21
251.924732
 31
0.0
  0
LINE
  5
591
330
1F
100
AcDbEntity
  8
001
370
    30
100
AcDbLine
 10
156.060113
 20
264.924732
 30
0.0
 11
163.260113
 21
264.924732
 31
0.0
  0
LINE
  5
592
330
1F
100
AcDbEntity
  8
001
370
    30
100
AcDbLine
 10
163.260113
 20
265.424732
 30
0.0
 11
163.260113
 21
250.924732
 31
0.0
  0
LINE
  5
593
330
1F
100
AcDbEntity
  8
001
370
    30
100
AcDbLine
 10
155.260113
 20
252.924732
 30
0.0
 11
155.260113
 21
264.924732
 31
0.0
  0
LINE
  5
594
330
1F
100
AcDbEntity
  8
001
370
    30
100
AcDbLine
 10
155.260113
 20
180.924732
 30
0.0
 11
155.760113
 21
180.424732
 31
0.0
  0
LINE
  5
595
330
1F
100
AcDbEntity
  8
001
370
    30
100
AcDbLine
 10
155.260113
 20
180.924732
 30
0.0
 11
155.260113
 21
192.924732
 31
0.0
  0
LINE
  5
596
330
1F
100
AcDbEntity
  8
001
370
    30
100
AcDbLine
 10
170.260113
 20
180.424732
 30
0.0
 11
155.760113
 21
180.424732
 31
0.0
  0
LINE
  5
597
330
1F
100
AcDbEntity
  8
001
370
    30
100
AcDbLine
 10
203.260113
 20
179.058707
 30
0.0
 11
200.760113
 21
179.72858
 31
0.0
  0
LINE
  5
598
330
1F
100
AcDbEntity
  8
001
370
    30
100
AcDbLine
 10
198.060113
 20
177.424732
 30
0.0
 11
203.260113
 21
177.424732
 31
0.0
  0
LINE
  5
599
330
1F
100
AcDbEntity
  8
001
370
    30
100
AcDbLine
 10
211.760113
 20
178.924732
 30
0.0
 11
211.260113
 21
178.424732
 31
0.0
  0
LINE
  5
59A
330
1F
100
AcDbEntity
  8
001
370
    30
100
AcDbLine
 10
155.760113
 20
179.924732
 30
0.0
 11
155.760113
 21
168.924732
 31
0.0
  0
LINE
  5
59B
330
1F
100
AcDbEntity
  8
001
370
    30
100
AcDbLine
 10
212.460113
 20
262.424732
 30
0.0
 11
163.260113
 21
262.424732
 31
0.0
  0
LINE
  5
59C
330
1F
100
AcDbEntity
  8
001
370
    30
100
AcDbLine
 10
212.460113
 20
254.424732
 30
0.0
 11
163.260113
 21
254.424732
 31
0.0
  0
LINE
  5
59D
330
1F
100
AcDbEntity
  8
001
370
    30
100
AcDbLine
 10
213.260113
 20
255.224732
 30
0.0
 11
213.260113
 21
261.624732
 31
0.0
  0
LINE
  5
59E
330
1F
100
AcDbEntity
  8
001
370
    30
100
AcDbLine
 10
213.260113
 20
261.624732
 30
0.0
 11
212.460113
 21
262.424732
 31
0.0
  0
LINE
  5
59F
330
1F
100
AcDbEntity
  8
001
370
    30
100
AcDbLine
 10
213.260113
 20
255.224732
 30
0.0
 11
212.460113
 21
254.424732
 31
0.0
  0
LINE
  5
5A0
330
1F
100
AcDbEntity
  8
001
370
    30
100
AcDbLine
 10
212.460113
 20
262.424732
 30
0.0
 11
212.460113
 21
254.424732
 31
0.0
  0
LINE
  5
5A1
330
1F
100
AcDbEntity
  8
001
 62
     3
370
     9
100
AcDbLine
 10
212.460113
 20
262.424732
 30
0.0
 11
217.760113
 21
262.424732
 31
0.0
  0
LINE
  5
5A2
330
1F
100
AcDbEntity
  8
001
370
    30
100
AcDbLine
 10
213.060113
 20
261.824732
 30
0.0
 11
222.760113
 21
261.824732
 31
0.0
  0
LINE
  5
5A3
330
1F
100
AcDbEntity
  8
001
370
    30
100
AcDbLine
 10
213.060113
 20
255.024732
 30
0.0
 11
222.760113
 21
255.024732
 31
0.0
  0
LINE
  5
5A4
330
1F
100
AcDbEntity
  8
001
 62
     3
370
     9
100
AcDbLine
 10
212.460113
 20
254.424732
 30
0.0
 11
217.760113
 21
254.424732
 31
0.0
  0
LINE
  5
5A5
330
1F
100
AcDbEntity
  8
001
370
    30
100
AcDbLine
 10
218.760113
 20
287.424732
 30
0.0
 11
209.760113
 21
287.424732
 31
0.0
  0
LINE
  5
5A6
330
1F
100
AcDbEntity
  8
001
370
    30
100
AcDbLine
 10
219.760113
 20
301.692681
 30
0.0
 11
219.760113
 21
289.156783
 31
0.0
  0
LINE
  5
5A7
330
1F
100
AcDbEntity
  8
001
370
    30
100
AcDbLine
 10
218.760113
 20
303.424732
 30
0.0
 11
209.760113
 21
303.424732
 31
0.0
  0
LINE
  5
5A8
330
1F
100
AcDbEntity
  8
001
370
    30
100
AcDbLine
 10
218.760113
 20
287.424732
 30
0.0
 11
219.760113
 21
289.156783
 31
0.0
  0
LINE
  5
5A9
330
1F
100
AcDbEntity
  8
001
370
    30
100
AcDbLine
 10
218.760113
 20
303.424732
 30
0.0
 11
219.760113
 21
301.692681
 31
0.0
  0
LINE
  5
5AA
330
1F
100
AcDbEntity
  8
001
370
    30
100
AcDbLine
 10
218.760113
 20
287.424732
 30
0.0
 11
218.760113
 21
303.424732
 31
0.0
  0
LINE
  5
5AB
330
1F
100
AcDbEntity
  8
001
370
    30
100
AcDbLine
 10
144.760113
 20
299.424732
 30
0.0
 11
144.760113
 21
291.424732
 31
0.0
  0
LINE
  5
5AC
330
1F
100
AcDbEntity
  8
001
370
    30
100
AcDbLine
 10
144.760113
 20
291.424732
 30
0.0
 11
145.760113
 21
290.424732
 31
0.0
  0
LINE
  5
5AD
330
1F
100
AcDbEntity
  8
001
370
    30
100
AcDbLine
 10
145.760113
 20
290.424732
 30
0.0
 11
145.760113
 21
300.424732
 31
0.0
  0
LINE
  5
5AE
330
1F
100
AcDbEntity
  8
001
370
    30
100
AcDbLine
 10
145.760113
 20
290.424732
 30
0.0
 11
209.760113
 21
290.424732
 31
0.0
  0
LINE
  5
5AF
330
1F
100
AcDbEntity
  8
001
370
    30
100
AcDbLine
 10
144.760113
 20
299.424732
 30
0.0
 11
145.760113
 21
300.424732
 31
0.0
  0
LINE
  5
5B0
330
1F
100
AcDbEntity
  8
001
370
    30
100
AcDbLine
 10
145.760113
 20
300.424732
 30
0.0
 11
209.760113
 21
300.424732
 31
0.0
  0
LINE
  5
5B1
330
1F
100
AcDbEntity
  8
001
370
    30
100
AcDbLine
 10
176.760113
 20
300.424732
 30
0.0
 11
176.760113
 21
290.424732
 31
0.0
  0
LINE
  5
5B2
330
1F
100
AcDbEntity
  8
001
 62
     3
370
     9
100
AcDbLine
 10
176.760113
 20
291.174732
 30
0.0
 11
145.010113
 21
291.174732
 31
0.0
  0
LINE
  5
5B3
330
1F
100
AcDbEntity
  8
001
 62
     3
370
     9
100
AcDbLine
 10
176.760113
 20
299.674732
 30
0.0
 11
145.010113
 21
299.674732
 31
0.0
  0
LINE
  5
5B4
330
1F
100
AcDbEntity
  8
001
 62
     3
370
     9
100
AcDbLine
 10
176.760113
 20
299.674732
 30
0.0
 11
178.059151
 21
300.424732
 31
0.0
  0
LINE
  5
5B5
330
1F
100
AcDbEntity
  8
001
 62
     3
370
     9
100
AcDbLine
 10
176.760113
 20
291.174732
 30
0.0
 11
178.059151
 21
290.424732
 31
0.0
  0
LINE
  5
5B6
330
1F
100
AcDbEntity
  8
001
370
    30
100
AcDbLine
 10
209.760113
 20
287.424732
 30
0.0
 11
209.760113
 21
303.424732
 31
0.0
  0
LINE
  5
5B7
330
1F
100
AcDbEntity
  8
001
370
    30
100
AcDbLine
 10
209.260113
 20
300.924732
 30
0.0
 11
209.260113
 21
300.424732
 31
0.0
  0
LINE
  5
5B8
330
1F
100
AcDbEntity
  8
001
370
    30
100
AcDbLine
 10
209.260113
 20
290.424732
 30
0.0
 11
209.260113
 21
289.924732
 31
0.0
  0
LINE
  5
5B9
330
1F
100
AcDbEntity
  8
001
370
    30
100
AcDbLine
 10
161.260113
 20
300.924732
 30
0.0
 11
161.260113
 21
300.424732
 31
0.0
  0
LINE
  5
5BA
330
1F
100
AcDbEntity
  8
001
370
    30
100
AcDbLine
 10
161.260113
 20
290.424732
 30
0.0
 11
161.260113
 21
289.924732
 31
0.0
  0
LINE
  5
5BB
330
1F
100
AcDbEntity
  8
001
370
    30
100
AcDbLine
 10
160.760113
 20
304.424732
 30
0.0
 11
160.760113
 21
300.424732
 31
0.0
  0
LINE
  5
5BC
330
1F
100
AcDbEntity
  8
001
370
    30
100
AcDbLine
 10
160.760113
 20
290.424732
 30
0.0
 11
160.760113
 21
277.924732
 31
0.0
  0
LINE
  5
5BD
330
1F
100
AcDbEntity
  8
001
  6
CENTER
 62
     3
370
     9
100
AcDbLine
 10
143.604001
 20
295.424732
 30
0.0
 11
223.938832
 21
295.424732
 31
0.0
  0
LINE
  5
5BE
330
1F
100
AcDbEntity
  8
001
370
    30
100
AcDbLine
 10
185.260113
 20
262.424732
 30
0.0
 11
185.260113
 21
254.424732
 31
0.0
  0
LINE
  5
5BF
330
1F
100
AcDbEntity
  8
001
 62
     3
370
     9
100
AcDbLine
 10
213.060113
 20
261.824732
 30
0.0
 11
185.260113
 21
261.824732
 31
0.0
  0
LINE
  5
5C0
330
1F
100
AcDbEntity
  8
001
 62
     3
370
     9
100
AcDbLine
 10
213.060113
 20
255.024732
 30
0.0
 11
185.260113
 21
255.024732
 31
0.0
  0
LINE
  5
5C1
330
1F
100
AcDbEntity
  8
001
 62
     3
370
    30
100
AcDbLine
 10
185.260113
 20
261.824732
 30
0.0
 11
184.220882
 21
262.424732
 31
0.0
  0
LINE
  5
5C2
330
1F
100
AcDbEntity
  8
001
 62
     3
370
    30
100
AcDbLine
 10
185.260113
 20
255.024732
 30
0.0
 11
184.220882
 21
254.424732
 31
0.0
  0
LINE
  5
5C3
330
1F
100
AcDbEntity
  8
001
370
    30
100
AcDbLine
 10
155.260113
 20
192.924732
 30
0.0
 11
146.760113
 21
192.924732
 31
0.0
  0
LINE
  5
5C4
330
1F
100
AcDbEntity
  8
001
370
    30
100
AcDbLine
 10
155.260113
 20
252.924732
 30
0.0
 11
146.760113
 21
252.924732
 31
0.0
  0
LINE
  5
5C5
330
1F
100
AcDbEntity
  8
001
370
    30
100
AcDbLine
 10
163.260113
 20
250.924732
 30
0.0
 11
145.760113
 21
250.924732
 31
0.0
  0
CIRCLE
  5
5C6
330
1F
100
AcDbEntity
  8
001
370
    30
100
AcDbCircle
 10
466.268759
 20
222.924732
 30
0.0
 40
33.0
  0
CIRCLE
  5
5C7
330
1F
100
AcDbEntity
  8
001
370
    30
100
AcDbCircle
 10
466.268759
 20
222.924732
 30
0.0
 40
34.25
  0
CIRCLE
  5
5C8
330
1F
100
AcDbEntity
  8
001
370
    30
100
AcDbCircle
 10
466.268759
 20
222.924732
 30
0.0
 40
56.5
  0
CIRCLE
  5
5C9
330
1F
100
AcDbEntity
  8
001
370
    30
100
AcDbCircle
 10
466.268759
 20
222.924732
 30
0.0
 40
82.5
  0
LINE
  5
5CA
330
1F
100
AcDbEntity
  8
001
  6
CENTER
 62
     3
370
     9
100
AcDbLine
 10
381.768759
 20
222.924732
 30
0.0
 11
550.768759
 21
222.924732
 31
0.0
  0
LINE
  5
5CB
330
1F
100
AcDbEntity
  8
001
  6
CENTER
 62
     3
370
     9
100
AcDbLine
 10
466.268759
 20
138.424732
 30
0.0
 11
466.268759
 21
307.424732
 31
0.0
  0
CIRCLE
  5
5CC
330
1F
100
AcDbEntity
  8
001
370
    30
100
AcDbCircle
 10
466.268759
 20
295.424732
 30
0.0
 40
8.500000000000057
  0
CIRCLE
  5
5CD
330
1F
100
AcDbEntity
  8
001
370
    30
100
AcDbCircle
 10
403.481917
 20
259.174732
 30
0.0
 40
8.500000000000057
  0
CIRCLE
  5
5CE
330
1F
100
AcDbEntity
  8
001
370
    30
100
AcDbCircle
 10
403.481917
 20
186.674732
 30
0.0
 40
8.500000000000057
  0
CIRCLE
  5
5CF
330
1F
100
AcDbEntity
  8
001
370
    30
100
AcDbCircle
 10
529.055601
 20
186.674732
 30
0.0
 40
8.500000000000057
  0
CIRCLE
  5
5D0
330
1F
100
AcDbEntity
  8
001
370
    30
100
AcDbCircle
 10
529.055601
 20
259.174732
 30
0.0
 40
8.500000000000057
  0
LINE
  5
5D1
330
1F
100
AcDbEntity
  8
001
  6
CENTER
 62
     3
370
     9
100
AcDbLine
 10
519.083631
 20
253.417413
 30
0.0
 11
539.027571
 21
264.932052
 31
0.0
  0
LINE
  5
5D2
330
1F
100
AcDbEntity
  8
001
  6
CENTER
 62
     3
370
     9
100
AcDbLine
 10
519.083631
 20
192.432052
 30
0.0
 11
539.027571
 21
180.917413
 31
0.0
  0
LINE
  5
5D3
330
1F
100
AcDbEntity
  8
001
  6
CENTER
 62
     3
370
     9
100
AcDbLine
 10
413.453888
 20
253.417413
 30
0.0
 11
393.509947
 21
264.932052
 31
0.0
  0
LINE
  5
5D4
330
1F
100
AcDbEntity
  8
001
  6
CENTER
 62
     3
370
     9
100
AcDbLine
 10
413.453888
 20
192.432052
 30
0.0
 11
393.509947
 21
180.917413
 31
0.0
  0
LINE
  5
5D5
330
1F
100
AcDbEntity
  8
001
370
    30
100
AcDbLine
 10
475.532563
 20
235.970112
 30
0.0
 11
484.050743
 21
250.724032
 31
0.0
  0
LINE
  5
5D6
330
1F
100
AcDbEntity
  8
001
370
    30
100
AcDbLine
 10
472.934487
 20
237.470112
 30
0.0
 11
481.452667
 21
252.224032
 31
0.0
  0
LINE
  5
5D7
330
1F
100
AcDbEntity
  8
001
  6
CENTER
 62
     3
370
     9
100
AcDbLine
 10
472.240566
 20
233.268206
 30
0.0
 11
483.952518
 21
253.553902
 31
0.0
  0
LINE
  5
5D8
330
1F
100
AcDbEntity
  8
001
370
    30
100
AcDbLine
 10
450.339227
 20
224.424732
 30
0.0
 11
433.302868
 21
224.424732
 31
0.0
  0
LINE
  5
5D9
330
1F
100
AcDbEntity
  8
001
370
    30
100
AcDbLine
 10
450.339227
 20
221.424732
 30
0.0
 11
433.302868
 21
221.424732
 31
0.0
  0
LINE
  5
5DA
330
1F
100
AcDbEntity
  8
001
370
    30
100
AcDbLine
 10
472.934487
 20
208.379353
 30
0.0
 11
481.452667
 21
193.625433
 31
0.0
  0
LINE
  5
5DB
330
1F
100
AcDbEntity
  8
001
370
    30
100
AcDbLine
 10
475.532563
 20
209.879353
 30
0.0
 11
484.050743
 21
195.125433
 31
0.0
  0
LINE
  5
5DC
330
1F
100
AcDbEntity
  8
001
  6
CENTER
 62
     3
370
     9
100
AcDbLine
 10
472.240566
 20
212.581259
 30
0.0
 11
483.952518
 21
192.295563
 31
0.0
  0
LINE
  5
5DD
330
1F
100
AcDbEntity
  8
001
370
    30
100
AcDbLine
 10
181.760113
 20
160.924732
 30
0.0
 11
182.760113
 21
161.924732
 31
0.0
  0
ARC
  5
5DE
330
1F
100
AcDbEntity
  8
001
370
    30
100
AcDbCircle
 10
180.001732
 20
160.124732
 30
0.0
 40
0.8
100
AcDbArc
 50
90.0
 51
157.975687
  0
LINE
  5
5DF
330
1F
100
AcDbEntity
  8
001
370
    30
100
AcDbLine
 10
180.001732
 20
160.924732
 30
0.0
 11
181.760113
 21
160.924732
 31
0.0
  0
LINE
  5
5E0
330
1F
100
AcDbEntity
  8
001
370
    30
100
AcDbLine
 10
181.760113
 20
284.924732
 30
0.0
 11
182.760113
 21
283.924732
 31
0.0
  0
ARC
  5
5E1
330
1F
100
AcDbEntity
  8
001
370
    30
100
AcDbCircle
 10
180.001732
 20
285.724732
 30
0.0
 40
0.8
100
AcDbArc
 50
202.024313
 51
270.0
  0
LINE
  5
5E2
330
1F
100
AcDbEntity
  8
001
370
    30
100
AcDbLine
 10
180.001732
 20
284.924732
 30
0.0
 11
181.760113
 21
284.924732
 31
0.0
  0
LINE
  5
5E3
330
1F
100
AcDbEntity
  8
001
370
    30
100
AcDbLine
 10
162.260113
 20
285.424732
 30
0.0
 11
179.260113
 21
285.424732
 31
0.0
  0
LINE
  5
5E4
330
1F
100
AcDbEntity
  8
001
370
    30
100
AcDbLine
 10
182.760113
 20
161.924732
 30
0.0
 11
182.760113
 21
202.174732
 31
0.0
  0
LINE
  5
5E5
330
1F
100
AcDbEntity
  8
001
370
    30
100
AcDbLine
 10
162.260113
 20
160.424732
 30
0.0
 11
179.260113
 21
160.424732
 31
0.0
  0
ARC
  5
5E6
330
1F
100
AcDbEntity
  8
001
370
    30
100
AcDbCircle
 10
466.268759
 20
222.924732
 30
0.0
 40
15.99999999999994
100
AcDbArc
 50
65.379379
 51
174.620621
  0
ARC
  5
5E7
330
1F
100
AcDbEntity
  8
001
370
    30
100
AcDbCircle
 10
466.268759
 20
222.924732
 30
0.0
 40
15.99999999999994
100
AcDbArc
 50
185.379379
 51
294.620621
  0
ARC
  5
5E8
330
1F
100
AcDbEntity
  8
001
370
    30
100
AcDbCircle
 10
466.268759
 20
222.924732
 30
0.0
 40
15.99999999999994
100
AcDbArc
 50
305.379379
 51
54.620621
  0
LINE
  5
5E9
330
1F
100
AcDbEntity
  8
001
 62
     3
370
     9
100
AcDbLine
 10
146.626138
 20
247.924732
 30
0.0
 11
156.510113
 21
247.924732
 31
0.0
  0
LINE
  5
5EA
330
1F
100
AcDbEntity
  8
001
370
    30
100
AcDbLine
 10
145.760113
 20
248.424732
 30
0.0
 11
147.925176
 21
247.174732
 31
0.0
  0
LINE
  5
5EB
330
1F
100
AcDbEntity
  8
001
370
    30
100
AcDbLine
 10
147.925176
 20
247.174732
 30
0.0
 11
155.760113
 21
247.174732
 31
0.0
  0
LINE
  5
5EC
330
1F
100
AcDbEntity
  8
001
370
    30
100
AcDbLine
 10
145.760113
 20
197.424732
 30
0.0
 11
147.925176
 21
198.674732
 31
0.0
  0
LINE
  5
5ED
330
1F
100
AcDbEntity
  8
001
370
    30
100
AcDbLine
 10
147.925176
 20
198.674732
 30
0.0
 11
155.760113
 21
198.674732
 31
0.0
  0
LINE
  5
5EE
330
1F
100
AcDbEntity
  8
001
 62
     3
370
     9
100
AcDbLine
 10
146.626138
 20
197.924732
 30
0.0
 11
156.510113
 21
197.924732
 31
0.0
  0
LINE
  5
5EF
330
1F
100
AcDbEntity
  8
001
370
    30
100
AcDbLine
 10
170.760113
 20
247.924732
 30
0.0
 11
170.760113
 21
249.883112
 31
0.0
  0
ARC
  5
5F0
330
1F
100
AcDbEntity
  8
001
370
    30
100
AcDbCircle
 10
171.060113
 20
250.624732
 30
0.0
 40
0.8
100
AcDbArc
 50
90.0
 51
247.975687
  0
LINE
  5
5F1
330
1F
100
AcDbEntity
  8
001
370
    30
100
AcDbLine
 10
170.760113
 20
197.924732
 30
0.0
 11
170.760113
 21
195.966352
 31
0.0
  0
ARC
  5
5F2
330
1F
100
AcDbEntity
  8
001
370
    30
100
AcDbCircle
 10
171.060113
 20
195.224732
 30
0.0
 40
0.8
100
AcDbArc
 50
112.024313
 51
180.0
  0
LINE
  5
5F3
330
1F
100
AcDbEntity
  8
001
370
    30
100
AcDbLine
 10
170.260113
 20
195.224732
 30
0.0
 11
170.260113
 21
180.424732
 31
0.0
  0
CIRCLE
  5
5F4
330
1F
100
AcDbEntity
  8
001
370
    30
100
AcDbCircle
 10
466.268759
 20
150.424732
 30
0.0
 40
8.500000000000057
  0
ARC
  5
5F5
330
1F
100
AcDbEntity
  8
001
370
    30
100
AcDbCircle
 10
483.393759
 20
252.586102
 30
0.0
 40
1.5
100
AcDbArc
 50
328.745248
 51
151.254752
  0
LINE
  5
5F6
330
1F
100
AcDbEntity
  8
001
370
    30
100
AcDbLine
 10
200.260113
 20
262.924732
 30
0.0
 11
200.760113
 21
263.424732
 31
0.0
  0
LINE
  5
5F7
330
1F
100
AcDbEntity
  8
001
370
    30
100
AcDbLine
 10
200.260113
 20
253.924732
 30
0.0
 11
200.760113
 21
253.424732
 31
0.0
  0
LINE
  5
5F8
330
1F
100
AcDbEntity
  8
001
370
    30
100
AcDbLine
 10
163.760113
 20
253.924732
 30
0.0
 11
163.260113
 21
253.424732
 31
0.0
  0
LINE
  5
5F9
330
1F
100
AcDbEntity
  8
001
370
    30
100
AcDbLine
 10
163.760113
 20
262.924732
 30
0.0
 11
163.260113
 21
263.424732
 31
0.0
  0
LINE
  5
5FA
330
1F
100
AcDbEntity
  8
001
370
    30
100
AcDbLine
 10
163.760113
 20
262.924732
 30
0.0
 11
163.760113
 21
262.424732
 31
0.0
  0
LINE
  5
5FB
330
1F
100
AcDbEntity
  8
001
370
    30
100
AcDbLine
 10
163.760113
 20
253.924732
 30
0.0
 11
163.760113
 21
254.424732
 31
0.0
  0
LINE
  5
5FC
330
1F
100
AcDbEntity
  8
001
370
    30
100
AcDbLine
 10
200.260113
 20
262.924732
 30
0.0
 11
200.260113
 21
262.424732
 31
0.0
  0
LINE
  5
5FD
330
1F
100
AcDbEntity
  8
001
370
    30
100
AcDbLine
 10
200.260113
 20
253.924732
 30
0.0
 11
200.260113
 21
254.424732
 31
0.0
  0
LINE
  5
5FE
330
1F
100
AcDbEntity
  8
001
370
    30
100
AcDbLine
 10
164.260113
 20
244.424732
 30
0.0
 11
162.260113
 21
245.579433
 31
0.0
  0
LINE
  5
5FF
330
1F
100
AcDbEntity
  8
001
370
    30
100
AcDbLine
 10
162.260113
 20
246.424732
 30
0.0
 11
162.760113
 21
246.924732
 31
0.0
  0
LINE
  5
600
330
1F
100
AcDbEntity
  8
001
370
    30
100
AcDbLine
 10
162.260113
 20
199.424732
 30
0.0
 11
162.260113
 21
246.424732
 31
0.0
  0
LINE
  5
601
330
1F
100
AcDbEntity
  8
001
370
    30
100
AcDbLine
 10
164.260113
 20
244.424732
 30
0.0
 11
164.260113
 21
201.424732
 31
0.0
  0
LINE
  5
602
330
1F
100
AcDbEntity
  8
001
370
    30
100
AcDbLine
 10
164.260113
 20
244.424732
 30
0.0
 11
182.260113
 21
244.424732
 31
0.0
  0
LINE
  5
603
330
1F
100
AcDbEntity
  8
001
370
    30
100
AcDbLine
 10
164.260113
 20
201.424732
 30
0.0
 11
162.260113
 21
200.270032
 31
0.0
  0
LINE
  5
604
330
1F
100
AcDbEntity
  8
001
370
    30
100
AcDbLine
 10
164.260113
 20
201.424732
 30
0.0
 11
182.260113
 21
201.424732
 31
0.0
  0
LINE
  5
605
330
1F
100
AcDbEntity
  8
001
370
    30
100
AcDbLine
 10
162.260113
 20
199.424732
 30
0.0
 11
162.760113
 21
198.924732
 31
0.0
  0
LINE
  5
606
330
1F
100
AcDbEntity
  8
001
 62
     3
370
     9
100
AcDbLine
 10
184.760113
 20
247.924732
 30
0.0
 11
183.626138
 21
247.924732
 31
0.0
  0
LINE
  5
607
330
1F
100
AcDbEntity
  8
001
370
    30
100
AcDbLine
 10
289.760113
 20
277.124732
 30
0.0
 11
289.760113
 21
255.748405
 31
0.0
  0
LINE
  5
608
330
1F
100
AcDbEntity
  8
001
370
    30
100
AcDbLine
 10
291.760113
 20
255.924732
 30
0.0
 11
291.760113
 21
276.424732
 31
0.0
  0
LINE
  5
609
330
1F
100
AcDbEntity
  8
001
370
    30
100
AcDbLine
 10
291.760113
 20
189.924732
 30
0.0
 11
291.760113
 21
169.424732
 31
0.0
  0
LINE
  5
60A
330
1F
100
AcDbEntity
  8
001
370
    30
100
AcDbLine
 10
211.760113
 20
178.924732
 30
0.0
 11
219.760113
 21
178.924732
 31
0.0
  0
LINE
  5
60B
330
1F
100
AcDbEntity
  8
001
370
    30
100
AcDbLine
 10
205.810113
 20
196.924732
 30
0.0
 11
208.710113
 21
196.924732
 31
0.0
  0
LINE
  5
60C
330
1F
100
AcDbEntity
  8
001
370
    30
100
AcDbLine
 10
205.510113
 20
196.624732
 30
0.0
 11
205.510113
 21
193.924732
 31
0.0
  0
LINE
  5
60D
330
1F
100
AcDbEntity
  8
001
370
    30
100
AcDbLine
 10
209.010113
 20
196.624732
 30
0.0
 11
209.010113
 21
193.924732
 31
0.0
  0
LINE
  5
60E
330
1F
100
AcDbEntity
  8
001
370
    30
100
AcDbLine
 10
208.710113
 20
196.924732
 30
0.0
 11
209.010113
 21
196.624732
 31
0.0
  0
LINE
  5
60F
330
1F
100
AcDbEntity
  8
001
370
    30
100
AcDbLine
 10
205.510113
 20
196.624732
 30
0.0
 11
205.810113
 21
196.924732
 31
0.0
  0
LINE
  5
610
330
1F
100
AcDbEntity
  8
001
370
    30
100
AcDbLine
 10
209.010113
 20
196.624732
 30
0.0
 11
205.510113
 21
196.624732
 31
0.0
  0
LINE
  5
611
330
1F
100
AcDbEntity
  8
001
370
    30
100
AcDbLine
 10
209.010113
 20
193.924732
 30
0.0
 11
211.260113
 21
192.625694
 31
0.0
  0
LINE
  5
612
330
1F
100
AcDbEntity
  8
001
370
    30
100
AcDbLine
 10
205.510113
 20
193.924732
 30
0.0
 11
203.260113
 21
192.625694
 31
0.0
  0
LINE
  5
613
330
1F
100
AcDbEntity
  8
001
370
    30
100
AcDbLine
 10
205.510113
 20
193.924732
 30
0.0
 11
209.010113
 21
193.924732
 31
0.0
  0
LINE
  5
614
330
1F
100
AcDbEntity
  8
001
370
    30
100
AcDbLine
 10
203.260113
 20
192.625694
 30
0.0
 11
211.260113
 21
192.625694
 31
0.0
  0
LINE
  5
615
330
1F
100
AcDbEntity
  8
001
370
    30
100
AcDbLine
 10
211.260113
 20
178.424732
 30
0.0
 11
211.760113
 21
178.924732
 31
0.0
  0
LINE
  5
616
330
1F
100
AcDbEntity
  8
001
370
    30
100
AcDbLine
 10
211.260113
 20
178.424732
 30
0.0
 11
211.260113
 21
174.496901
 31
0.0
  0
LINE
  5
617
330
1F
100
AcDbEntity
  8
001
370
    30
100
AcDbLine
 10
203.760113
 20
266.924732
 30
0.0
 11
219.760113
 21
266.924732
 31
0.0
  0
LINE
  5
618
330
1F
100
AcDbEntity
  8
001
370
    30
100
AcDbLine
 10
182.760113
 20
283.924732
 30
0.0
 11
182.760113
 21
265.424732
 31
0.0
  0
CIRCLE
  5
619
330
1F
100
AcDbEntity
  8
001
370
    30
100
AcDbCircle
 10
493.268759
 20
222.924732
 30
0.0
 40
2.5
  0
LINE
  5
61A
330
1F
100
AcDbEntity
  8
001
  6
CENTER
 62
     3
370
     9
100
AcDbLine
 10
455.259063
 20
203.855378
 30
0.0
 11
450.226752
 21
195.13916
 31
0.0
  0
ARC
  5
61B
330
1F
100
AcDbEntity
  8
001
  6
CENTER
 62
     3
370
     9
100
AcDbCircle
 10
466.268759
 20
222.924732
 30
0.0
 40
27.0
100
AcDbArc
 50
350.114005
 51
9.041756
  0
CIRCLE
  5
61C
330
1F
100
AcDbEntity
  8
001
370
    30
100
AcDbCircle
 10
452.768759
 20
246.307418
 30
0.0
 40
2.5
  0
ARC
  5
61D
330
1F
100
AcDbEntity
  8
001
  6
CENTER
 62
     3
370
     9
100
AcDbCircle
 10
466.268759
 20
222.924732
 30
0.0
 40
27.0
100
AcDbArc
 50
110.114005
 51
129.041756
  0
CIRCLE
  5
61E
330
1F
100
AcDbEntity
  8
001
370
    30
100
AcDbCircle
 10
452.768759
 20
199.542046
 30
0.0
 40
2.5
  0
ARC
  5
61F
330
1F
100
AcDbEntity
  8
001
  6
CENTER
 62
     3
370
     9
100
AcDbCircle
 10
466.268759
 20
222.924732
 30
0.0
 40
27.0
100
AcDbArc
 50
230.114005
 51
249.041756
  0
LINE
  5
620
330
1F
100
AcDbEntity
  8
001
  6
CENTER
 62
     3
370
     9
100
AcDbLine
 10
455.259063
 20
241.994086
 30
0.0
 11
450.226752
 21
250.710305
 31
0.0
  0
ARC
  5
621
330
1F
100
AcDbEntity
  8
001
  6
CENTER
 62
     3
370
     9
100
AcDbCircle
 10
466.268759
 20
222.924732
 30
0.0
 40
72.49999999999994
100
AcDbArc
 50
80.890543
 51
99.109457
  0
ARC
  5
622
330
1F
100
AcDbEntity
  8
001
  6
CENTER
 62
     3
370
     9
100
AcDbCircle
 10
466.268759
 20
222.924732
 30
0.0
 40
72.49999999999994
100
AcDbArc
 50
140.890543
 51
159.109457
  0
ARC
  5
623
330
1F
100
AcDbEntity
  8
001
  6
CENTER
 62
     3
370
     9
100
AcDbCircle
 10
466.268759
 20
222.924732
 30
0.0
 40
72.49999999999994
100
AcDbArc
 50
260.890543
 51
279.109457
  0
ARC
  5
624
330
1F
100
AcDbEntity
  8
001
  6
CENTER
 62
     3
370
     9
100
AcDbCircle
 10
466.268759
 20
222.924732
 30
0.0
 40
72.49999999999994
100
AcDbArc
 50
320.890543
 51
339.109457
  0
ARC
  5
625
330
1F
100
AcDbEntity
  8
001
  6
CENTER
 62
     3
370
     9
100
AcDbCircle
 10
466.268759
 20
222.924732
 30
0.0
 40
72.49999999999994
100
AcDbArc
 50
6.229519
 51
39.109457
  0
ARC
  5
626
330
1F
100
AcDbEntity
  8
001
  6
CENTER
 62
     3
370
     9
100
AcDbCircle
 10
466.268759
 20
222.924732
 30
0.0
 40
72.49999999999994
100
AcDbArc
 50
186.35434
 51
219.109457
  0
ARC
  5
627
330
1F
100
AcDbEntity
  8
001
370
    30
100
AcDbCircle
 10
466.268759
 20
222.924732
 30
0.0
 40
21.0
100
AcDbArc
 50
295.903956
 51
304.096044
  0
ARC
  5
628
330
1F
100
AcDbEntity
  8
001
370
    30
100
AcDbCircle
 10
466.268759
 20
222.924732
 30
0.0
 40
23.25
100
AcDbArc
 50
296.300929
 51
303.699071
  0
ARC
  5
629
330
1F
100
AcDbEntity
  8
001
370
    30
100
AcDbCircle
 10
466.268759
 20
222.924732
 30
0.0
 40
27.5
100
AcDbArc
 50
296.873224
 51
303.126776
  0
ARC
  5
62A
330
1F
100
AcDbEntity
  8
001
370
    30
100
AcDbCircle
 10
466.268759
 20
222.924732
 30
0.0
 40
21.0
100
AcDbArc
 50
55.903956
 51
64.096044
  0
ARC
  5
62B
330
1F
100
AcDbEntity
  8
001
370
    30
100
AcDbCircle
 10
466.268759
 20
222.924732
 30
0.0
 40
23.25
100
AcDbArc
 50
56.300929
 51
63.699071
  0
ARC
  5
62C
330
1F
100
AcDbEntity
  8
001
370
    30
100
AcDbCircle
 10
466.268759
 20
222.924732
 30
0.0
 40
27.5
100
AcDbArc
 50
56.873224
 51
63.126776
  0
ARC
  5
62D
330
1F
100
AcDbEntity
  8
001
370
    30
100
AcDbCircle
 10
466.268759
 20
222.924732
 30
0.0
 40
21.0
100
AcDbArc
 50
175.903956
 51
184.096044
  0
ARC
  5
62E
330
1F
100
AcDbEntity
  8
001
370
    30
100
AcDbCircle
 10
466.268759
 20
222.924732
 30
0.0
 40
23.25
100
AcDbArc
 50
176.300929
 51
183.699071
  0
ARC
  5
62F
330
1F
100
AcDbEntity
  8
001
370
    30
100
AcDbCircle
 10
466.268759
 20
222.924732
 30
0.0
 40
27.5
100
AcDbArc
 50
176.873224
 51
183.126776
  0
LINE
  5
630
330
1F
100
AcDbEntity
  8
001
  6
CENTER
 62
     3
370
     9
100
AcDbLine
 10
207.260113
 20
199.403401
 30
0.0
 11
207.260113
 21
138.29271
 31
0.0
  0
LINE
  5
631
330
1F
100
AcDbEntity
  8
001
370
    30
100
AcDbLine
 10
215.260113
 20
142.224732
 30
0.0
 11
213.874472
 21
141.424732
 31
0.0
  0
LINE
  5
632
330
1F
100
AcDbEntity
  8
001
370
    30
100
AcDbLine
 10
199.260113
 20
142.224732
 30
0.0
 11
200.645753
 21
141.424732
 31
0.0
  0
LINE
  5
633
330
1F
100
AcDbEntity
  8
001
370
    30
100
AcDbLine
 10
215.260113
 20
142.224732
 30
0.0
 11
199.260113
 21
142.224732
 31
0.0
  0
LINE
  5
634
330
1F
100
AcDbEntity
  8
001
370
    30
100
AcDbLine
 10
213.874472
 20
141.424732
 30
0.0
 11
200.645753
 21
141.424732
 31
0.0
  0
LINE
  5
635
330
1F
100
AcDbEntity
  8
001
370
    30
100
AcDbLine
 10
215.760113
 20
140.924732
 30
0.0
 11
215.760113
 21
151.424732
 31
0.0
  0
LINE
  5
636
330
1F
100
AcDbEntity
  8
001
370
    30
100
AcDbLine
 10
215.260113
 20
142.224732
 30
0.0
 11
215.260113
 21
151.424732
 31
0.0
  0
LINE
  5
637
330
1F
100
AcDbEntity
  8
001
370
    30
100
AcDbLine
 10
198.760113
 20
140.924732
 30
0.0
 11
198.760113
 21
151.424732
 31
0.0
  0
LINE
  5
638
330
1F
100
AcDbEntity
  8
001
370
    30
100
AcDbLine
 10
199.260113
 20
142.224732
 30
0.0
 11
199.260113
 21
151.424732
 31
0.0
  0
LINE
  5
639
330
1F
100
AcDbEntity
  8
001
370
    30
100
AcDbLine
 10
215.760113
 20
151.424732
 30
0.0
 11
198.760113
 21
151.424732
 31
0.0
  0
LINE
  5
63A
330
1F
100
AcDbEntity
  8
001
370
    30
100
AcDbLine
 10
211.260113
 20
153.424732
 30
0.0
 11
212.260113
 21
154.424732
 31
0.0
  0
ARC
  5
63B
330
1F
100
AcDbEntity
  8
001
370
    30
100
AcDbCircle
 10
211.660113
 20
151.824732
 30
0.0
 40
0.4
100
AcDbArc
 50
180.0
 51
270.0
  0
LINE
  5
63C
330
1F
100
AcDbEntity
  8
001
 62
     3
370
     9
100
AcDbLine
 10
212.260113
 20
154.424732
 30
0.0
 11
212.260113
 21
151.624732
 31
0.0
  0
LINE
  5
63D
330
1F
100
AcDbEntity
  8
001
370
    30
100
AcDbLine
 10
211.260113
 20
151.824732
 30
0.0
 11
211.260113
 21
153.424732
 31
0.0
  0
LINE
  5
63E
330
1F
100
AcDbEntity
  8
001
370
    30
100
AcDbLine
 10
211.510113
 20
163.424732
 30
0.0
 11
212.260113
 21
162.674732
 31
0.0
  0
LINE
  5
63F
330
1F
100
AcDbEntity
  8
001
370
    30
100
AcDbLine
 10
212.260113
 20
154.424732
 30
0.0
 11
212.260113
 21
162.674732
 31
0.0
  0
LINE
  5
640
330
1F
100
AcDbEntity
  8
001
370
    30
100
AcDbLine
 10
212.260113
 20
154.424732
 30
0.0
 11
202.260113
 21
154.424732
 31
0.0
  0
LINE
  5
641
330
1F
100
AcDbEntity
  8
001
370
    30
100
AcDbLine
 10
203.260113
 20
153.424732
 30
0.0
 11
211.260113
 21
153.424732
 31
0.0
  0
LINE
  5
642
330
1F
100
AcDbEntity
  8
001
370
    30
100
AcDbLine
 10
211.260113
 20
192.625694
 30
0.0
 11
211.260113
 21
163.424732
 31
0.0
  0
LINE
  5
643
330
1F
100
AcDbEntity
  8
001
370
    30
100
AcDbLine
 10
211.510113
 20
152.374732
 30
0.0
 11
212.460113
 21
151.424732
 31
0.0
  0
LINE
  5
644
330
1F
100
AcDbEntity
  8
001
370
    30
100
AcDbLine
 10
211.510113
 20
153.674732
 30
0.0
 11
211.510113
 21
152.374732
 31
0.0
  0
LINE
  5
645
330
1F
100
AcDbEntity
  8
001
 62
     3
370
     9
100
AcDbLine
 10
211.510113
 20
153.674732
 30
0.0
 11
211.510113
 21
163.424732
 31
0.0
  0
LINE
  5
646
330
1F
100
AcDbEntity
  8
001
370
    30
100
AcDbLine
 10
203.260113
 20
153.424732
 30
0.0
 11
202.260113
 21
154.424732
 31
0.0
  0
ARC
  5
647
330
1F
100
AcDbEntity
  8
001
370
    30
100
AcDbCircle
 10
202.860113
 20
151.824732
 30
0.0
 40
0.4
100
AcDbArc
 50
270.0
 51
0.0
  0
LINE
  5
648
330
1F
100
AcDbEntity
  8
001
 62
     3
370
     9
100
AcDbLine
 10
202.260113
 20
154.424732
 30
0.0
 11
202.260113
 21
151.624732
 31
0.0
  0
LINE
  5
649
330
1F
100
AcDbEntity
  8
001
370
    30
100
AcDbLine
 10
203.260113
 20
151.824732
 30
0.0
 11
203.260113
 21
153.424732
 31
0.0
  0
LINE
  5
64A
330
1F
100
AcDbEntity
  8
001
370
    30
100
AcDbLine
 10
203.010113
 20
163.424732
 30
0.0
 11
202.260113
 21
162.674732
 31
0.0
  0
LINE
  5
64B
330
1F
100
AcDbEntity
  8
001
370
    30
100
AcDbLine
 10
202.260113
 20
154.424732
 30
0.0
 11
202.260113
 21
162.674732
 31
0.0
  0
LINE
  5
64C
330
1F
100
AcDbEntity
  8
001
370
    30
100
AcDbLine
 10
203.260113
 20
192.625694
 30
0.0
 11
203.260113
 21
163.424732
 31
0.0
  0
LINE
  5
64D
330
1F
100
AcDbEntity
  8
001
370
    30
100
AcDbLine
 10
203.010113
 20
152.374732
 30
0.0
 11
202.060113
 21
151.424732
 31
0.0
  0
LINE
  5
64E
330
1F
100
AcDbEntity
  8
001
370
    30
100
AcDbLine
 10
203.010113
 20
153.674732
 30
0.0
 11
203.010113
 21
152.374732
 31
0.0
  0
LINE
  5
64F
330
1F
100
AcDbEntity
  8
001
 62
     3
370
     9
100
AcDbLine
 10
203.010113
 20
153.674732
 30
0.0
 11
203.010113
 21
163.424732
 31
0.0
  0
LINE
  5
650
330
1F
100
AcDbEntity
  8
001
370
    30
100
AcDbLine
 10
211.510113
 20
163.424732
 30
0.0
 11
203.010113
 21
163.424732
 31
0.0
  0
LINE
  5
651
330
1F
100
AcDbEntity
  8
001
370
    30
100
AcDbLine
 10
215.760113
 20
140.924732
 30
0.0
 11
216.260113
 21
140.424732
 31
0.0
  0
LINE
  5
652
330
1F
100
AcDbEntity
  8
001
370
    30
100
AcDbLine
 10
198.760113
 20
140.924732
 30
0.0
 11
198.260113
 21
140.424732
 31
0.0
  0
LINE
  5
653
330
1F
100
AcDbEntity
  8
001
370
    30
100
AcDbLine
 10
215.760113
 20
140.924732
 30
0.0
 11
198.760113
 21
140.924732
 31
0.0
  0
LINE
  5
654
330
1F
100
AcDbEntity
  8
001
 62
     3
370
     9
100
AcDbLine
 10
212.260113
 20
162.674732
 30
0.0
 11
212.260113
 21
166.424732
 31
0.0
  0
LINE
  5
655
330
1F
100
AcDbEntity
  8
001
370
    30
100
AcDbLine
 10
212.260113
 20
166.424732
 30
0.0
 11
211.260113
 21
166.424732
 31
0.0
  0
LINE
  5
656
330
1F
100
AcDbEntity
  8
001
 62
     3
370
     9
100
AcDbLine
 10
202.260113
 20
162.674732
 30
0.0
 11
202.260113
 21
166.424732
 31
0.0
  0
LINE
  5
657
330
1F
100
AcDbEntity
  8
001
370
    30
100
AcDbLine
 10
202.260113
 20
166.424732
 30
0.0
 11
203.260113
 21
166.424732
 31
0.0
  0
LINE
  5
658
330
1F
100
AcDbEntity
  8
001
370
    30
100
AcDbLine
 10
211.510113
 20
163.424732
 30
0.0
 11
211.510113
 21
170.424732
 31
0.0
  0
LINE
  5
659
330
1F
100
AcDbEntity
  8
001
370
    30
100
AcDbLine
 10
211.510113
 20
170.424732
 30
0.0
 11
211.260113
 21
170.56907
 31
0.0
  0
LINE
  5
65A
330
1F
100
AcDbEntity
  8
001
370
    30
100
AcDbLine
 10
211.510113
 20
170.424732
 30
0.0
 11
211.260113
 21
170.424732
 31
0.0
  0
LINE
  5
65B
330
1F
100
AcDbEntity
  8
001
370
    30
100
AcDbLine
 10
203.010113
 20
163.424732
 30
0.0
 11
203.010113
 21
170.424732
 31
0.0
  0
LINE
  5
65C
330
1F
100
AcDbEntity
  8
001
370
    30
100
AcDbLine
 10
203.010113
 20
170.424732
 30
0.0
 11
203.260113
 21
170.56907
 31
0.0
  0
LINE
  5
65D
330
1F
100
AcDbEntity
  8
001
370
    30
100
AcDbLine
 10
203.010113
 20
170.424732
 30
0.0
 11
203.260113
 21
170.424732
 31
0.0
  0
LINE
  5
65E
330
1F
100
AcDbEntity
  8
001
  6
PHANTOM
 62
     3
370
     9
100
AcDbLine
 10
152.260113
 20
180.924732
 30
0.0
 11
152.760113
 21
180.424732
 31
0.0
  0
LINE
  5
65F
330
1F
100
AcDbEntity
  8
001
  6
PHANTOM
 62
     3
370
     9
100
AcDbLine
 10
152.260113
 20
180.924732
 30
0.0
 11
152.260113
 21
192.924732
 31
0.0
  0
LINE
  5
660
330
1F
100
AcDbEntity
  8
001
  6
PHANTOM
 62
     3
370
     9
100
AcDbLine
 10
154.981961
 20
180.424732
 30
0.0
 11
152.760113
 21
180.424732
 31
0.0
  0
ENDSEC
  0
SECTION
  2
OBJECTS
  0
DICTIONARY
  5
C
330
0
100
AcDbDictionary
281
     1
  3
ACAD_GROUP
350
D
  3
ACAD_LAYOUT
350
1A
  3
ACAD_MLEADERSTYLE
350
663
  3
ACAD_MLINESTYLE
350
17
  3
ACAD_PLOTSETTINGS
350
19
  3
ACAD_PLOTSTYLENAME
350
E
  3
ACAD_SCALELIST
350
231
  3
ACAD_VISUALSTYLE
350
2A
  3
AcDbVariableDictionary
350
661
  0
DICTIONARY
  5
D
102
{ACAD_REACTORS
330
C
102
}
330
C
100
AcDbDictionary
281
     1
  0
DICTIONARY
  5
1A
102
{ACAD_REACTORS
330
C
102
}
330
C
100
AcDbDictionary
281
     1
  3
Layout1
350
1E
  3
Layout2
350
26
  3
Model
350
22
  0
DICTIONARY
  5
663
102
{ACAD_REACTORS
330
C
102
}
330
C
100
AcDbDictionary
281
     1
  0
DICTIONARY
  5
17
102
{ACAD_REACTORS
330
C
102
}
330
C
100
AcDbDictionary
281
     1
  3
Standard
350
18
  0
DICTIONARY
  5
19
102
{ACAD_REACTORS
330
C
102
}
330
C
100
AcDbDictionary
281
     1
  0
ACDBDICTIONARYWDFLT
  5
E
102
{ACAD_REACTORS
330
C
102
}
330
C
100
AcDbDictionary
281
     1
  3
Normal
350
F
100
AcDbDictionaryWithDefault
340
F
  0
DICTIONARY
  5
231
102
{ACAD_REACTORS
330
C
102
}
330
C
100
AcDbDictionary
281
     1
  3
A0
350
232
  3
A1
350
233
  3
A2
350
234
  3
A3
350
235
  3
A4
350
236
  3
A5
350
237
  3
A6
350
238
  3
A7
350
239
  3
A8
350
23A
  3
A9
350
23B
  3
B0
350
23C
  3
B1
350
23D
  3
B2
350
23E
  3
B3
350
23F
  3
B4
350
240
  3
B5
350
241
  3
B6
350
242
  3
B7
350
243
  3
B8
350
244
  3
B9
350
245
  3
C0
350
246
  3
C1
350
247
  3
C2
350
248
  3
C3
350
249
  3
C4
350
24A
  3
C5
350
24B
  3
C6
350
24C
  3
C7
350
24D
  3
C8
350
24E
  3
C9
350
24F
  3
D0
350
250
  3
D1
350
251
  3
D2
350
252
  0
DICTIONARY
  5
2A
102
{ACAD_REACTORS
330
C
102
}
330
C
100
AcDbDictionary
281
     1
  3
2dWireframe
350
2F
  3
3D Hidden
350
31
  3
3dWireframe
350
30
  3
Basic
350
32
  3
Brighten
350
36
  3
ColorChange
350
3A
  3
Conceptual
350
34
  3
Dim
350
35
  3
Facepattern
350
39
  3
Flat
350
2B
  3
FlatWithEdges
350
2C
  3
Gouraud
350
2D
  3
GouraudWithEdges
350
2E
  3
Linepattern
350
38
  3
Realistic
350
33
  3
Thicken
350
37
  0
DICTIONARY
  5
661
102
{ACAD_REACTORS
330
C
102
}
330
C
100
AcDbDictionary
281
     1
  3
CANNOSCALE
350
666
  3
PSOLHEIGHT
350
665
  3
PSOLWIDTH
350
664
  0
LAYOUT
  5
1E
102
{ACAD_REACTORS
330
1A
102
}
330
1A
100
AcDbPlotSettings
  1

  2
none_device
  4

  6

 40
0.0
 41
0.0
 42
0.0
 43
0.0
 44
0.0
 45
0.0
 46
0.0
 47
0.0
 48
0.0
 49
0.0
140
0.0
141
0.0
142
1.0
143
1.0
 70
   688
 72
     0
 73
     0
 74
     5
  7

 75
    16
147
1.0
148
0.0
149
0.0
100
AcDbLayout
  1
Layout1
 70
     1
 71
     1
 10
0.0
 20
0.0
 11
12.0
 21
9.0
 12
0.0
 22
0.0
 32
0.0
 14
1.000000E+20
 24
1.000000E+20
 34
0.0
 15
-1.000000E+20
 25
-1.000000E+20
 35
0.0
146
0.0
 13
0.0
 23
0.0
 33
0.0
 16
1.0
 26
0.0
 36
0.0
 17
0.0
 27
1.0
 37
0.0
 76
     0
330
1B
  0
LAYOUT
  5
26
102
{ACAD_REACTORS
330
1A
102
}
330
1A
100
AcDbPlotSettings
  1

  2
none_device
  4

  6

 40
0.0
 41
0.0
 42
0.0
 43
0.0
 44
0.0
 45
0.0
 46
0.0
 47
0.0
 48
0.0
 49
0.0
140
0.0
141
0.0
142
1.0
143
1.0
 70
   688
 72
     0
 73
     0
 74
     5
  7

 75
    16
147
1.0
148
0.0
149
0.0
100
AcDbLayout
  1
Layout2
 70
     1
 71
     2
 10
0.0
 20
0.0
 11
0.0
 21
0.0
 12
0.0
 22
0.0
 32
0.0
 14
0.0
 24
0.0
 34
0.0
 15
0.0
 25
0.0
 35
0.0
146
0.0
 13
0.0
 23
0.0
 33
0.0
 16
1.0
 26
0.0
 36
0.0
 17
0.0
 27
1.0
 37
0.0
 76
     0
330
23
  0
LAYOUT
  5
22
102
{ACAD_REACTORS
330
1A
102
}
330
1A
100
AcDbPlotSettings
  1

  2
none_device
  4

  6

 40
0.0
 41
0.0
 42
0.0
 43
0.0
 44
0.0
 45
0.0
 46
0.0
 47
0.0
 48
0.0
 49
0.0
140
0.0
141
0.0
142
1.0
143
1.0
 70
  1712
 72
     0
 73
     0
 74
     0
  7

 75
     0
147
1.0
148
0.0
149
0.0
100
AcDbLayout
  1
Model
 70
     1
 71
     0
 10
0.0
 20
0.0
 11
12.0
 21
9.0
 12
0.0
 22
0.0
 32
0.0
 14
0.0
 24
0.0
 34
0.0
 15
594.0
 25
420.0
 35
0.0
146
0.0
 13
0.0
 23
0.0
 33
0.0
 16
1.0
 26
0.0
 36
0.0
 17
0.0
 27
1.0
 37
0.0
 76
     0
330
1F
331
29
  0
MLINESTYLE
  5
18
102
{ACAD_REACTORS
330
17
102
}
330
17
100
AcDbMlineStyle
  2
Standard
 70
     0
  3

 62
   256
 51
90.0
 52
90.0
 71
     2
 49
0.5
 62
   256
  6
BYLAYER
 49
-0.5
 62
   256
  6
BYLAYER
  0
ACDBPLACEHOLDER
  5
F
102
{ACAD_REACTORS
330
E
102
}
330
E
  0
SCALE
  5
232
102
{ACAD_REACTORS
330
231
102
}
330
231
100
AcDbScale
 70
     0
300
1:1
140
1.0
141
1.0
290
     1
  0
SCALE
  5
233
102
{ACAD_REACTORS
330
231
102
}
330
231
100
AcDbScale
 70
     0
300
1:2
140
1.0
141
2.0
290
     0
  0
SCALE
  5
234
102
{ACAD_REACTORS
330
231
102
}
330
231
100
AcDbScale
 70
     0
300
1:4
140
1.0
141
4.0
290
     0
  0
SCALE
  5
235
102
{ACAD_REACTORS
330
231
102
}
330
231
100
AcDbScale
 70
     0
300
1:5
140
1.0
141
5.0
290
     0
  0
SCALE
  5
236
102
{ACAD_REACTORS
330
231
102
}
330
231
100
AcDbScale
 70
     0
300
1:8
140
1.0
141
8.0
290
     0
  0
SCALE
  5
237
102
{ACAD_REACTORS
330
231
102
}
330
231
100
AcDbScale
 70
     0
300
1:10
140
1.0
141
10.0
290
     0
  0
SCALE
  5
238
102
{ACAD_REACTORS
330
231
102
}
330
231
100
AcDbScale
 70
     0
300
1:16
140
1.0
141
16.0
290
     0
  0
SCALE
  5
239
102
{ACAD_REACTORS
330
231
102
}
330
231
100
AcDbScale
 70
     0
300
1:20
140
1.0
141
20.0
290
     0
  0
SCALE
  5
23A
102
{ACAD_REACTORS
330
231
102
}
330
231
100
AcDbScale
 70
     0
300
1:30
140
1.0
141
30.0
290
     0
  0
SCALE
  5
23B
102
{ACAD_REACTORS
330
231
102
}
330
231
100
AcDbScale
 70
     0
300
1:40
140
1.0
141
40.0
290
     0
  0
SCALE
  5
23C
102
{ACAD_REACTORS
330
231
102
}
330
231
100
AcDbScale
 70
     0
300
1:50
140
1.0
141
50.0
290
     0
  0
SCALE
  5
23D
102
{ACAD_REACTORS
330
231
102
}
330
231
100
AcDbScale
 70
     0
300
1:100
140
1.0
141
100.0
290
     0
  0
SCALE
  5
23E
102
{ACAD_REACTORS
330
231
102
}
330
231
100
AcDbScale
 70
     0
300
2:1
140
2.0
141
1.0
290
     0
  0
SCALE
  5
23F
102
{ACAD_REACTORS
330
231
102
}
330
231
100
AcDbScale
 70
     0
300
4:1
140
4.0
141
1.0
290
     0
  0
SCALE
  5
240
102
{ACAD_REACTORS
330
231
102
}
330
231
100
AcDbScale
 70
     0
300
8:1
140
8.0
141
1.0
290
     0
  0
SCALE
  5
241
102
{ACAD_REACTORS
330
231
102
}
330
231
100
AcDbScale
 70
     0
300
10:1
140
10.0
141
1.0
290
     0
  0
SCALE
  5
242
102
{ACAD_REACTORS
330
231
102
}
330
231
100
AcDbScale
 70
     0
300
100:1
140
100.0
141
1.0
290
     0
  0
SCALE
  5
243
102
{ACAD_REACTORS
330
231
102
}
330
231
100
AcDbScale
 70
     0
300
1/128" = 1'-0"
140
0.007812
141
12.0
290
     0
  0
SCALE
  5
244
102
{ACAD_REACTORS
330
231
102
}
330
231
100
AcDbScale
 70
     0
300
1/64" = 1'-0"
140
0.015625
141
12.0
290
     0
  0
SCALE
  5
245
102
{ACAD_REACTORS
330
231
102
}
330
231
100
AcDbScale
 70
     0
300
1/32" = 1'-0"
140
0.03125
141
12.0
290
     0
  0
SCALE
  5
246
102
{ACAD_REACTORS
330
231
102
}
330
231
100
AcDbScale
 70
     0
300
1/16" = 1'-0"
140
0.0625
141
12.0
290
     0
  0
SCALE
  5
247
102
{ACAD_REACTORS
330
231
102
}
330
231
100
AcDbScale
 70
     0
300
3/32" = 1'-0"
140
0.09375
141
12.0
290
     0
  0
SCALE
  5
248
102
{ACAD_REACTORS
330
231
102
}
330
231
100
AcDbScale
 70
     0
300
1/8" = 1'-0"
140
0.125
141
12.0
290
     0
  0
SCALE
  5
249
102
{ACAD_REACTORS
330
231
102
}
330
231
100
AcDbScale
 70
     0
300
3/16" = 1'-0"
140
0.1875
141
12.0
290
     0
  0
SCALE
  5
24A
102
{ACAD_REACTORS
330
231
102
}
330
231
100
AcDbScale
 70
     0
300
1/4" = 1'-0"
140
0.25
141
12.0
290
     0
  0
SCALE
  5
24B
102
{ACAD_REACTORS
330
231
102
}
330
231
100
AcDbScale
 70
     0
300
3/8" = 1'-0"
140
0.375
141
12.0
290
     0
  0
SCALE
  5
24C
102
{ACAD_REACTORS
330
231
102
}
330
231
100
AcDbScale
 70
     0
300
1/2" = 1'-0"
140
0.5
141
12.0
290
     0
  0
SCALE
  5
24D
102
{ACAD_REACTORS
330
231
102
}
330
231
100
AcDbScale
 70
     0
300
3/4" = 1'-0"
140
0.75
141
12.0
290
     0
  0
SCALE
  5
24E
102
{ACAD_REACTORS
330
231
102
}
330
231
100
AcDbScale
 70
     0
300
1" = 1'-0"
140
1.0
141
12.0
290
     0
  0
SCALE
  5
24F
102
{ACAD_REACTORS
330
231
102
}
330
231
100
AcDbScale
 70
     0
300
1-1/2" = 1'-0"
140
1.5
141
12.0
290
     0
  0
SCALE
  5
250
102
{ACAD_REACTORS
330
231
102
}
330
231
100
AcDbScale
 70
     0
300
3" = 1'-0"
140
3.0
141
12.0
290
     0
  0
SCALE
  5
251
102
{ACAD_REACTORS
330
231
102
}
330
231
100
AcDbScale
 70
     0
300
6" = 1'-0"
140
6.0
141
12.0
290
     0
  0
SCALE
  5
252
102
{ACAD_REACTORS
330
231
102
}
330
231
100
AcDbScale
 70
     0
300
1'-0" = 1'-0"
140
12.0
141
12.0
290
     0
  0
VISUALSTYLE
  5
2F
102
{ACAD_REACTORS
330
2A
102
}
330
2A
100
AcDbVisualStyle
  2
2dWireframe
 70
     4
 71
     0
 72
     2
 73
     0
 90
        0
 40
-0.6
 41
-30.0
 62
     5
 63
     7
 74
     1
 91
        4
 64
     7
 65
   257
 75
     1
175
     1
 42
1.0
 92
        0
 66
   257
 43
1.0
 76
     1
 77
     6
 78
     2
 67
     7
 79
     5
170
     0
171
     0
290
     0
174
     0
 93
        1
 44
0.0
173
     0
291
     0
 45
0.0
1001
ACAD
1000
AcDbSavedByObjectVersion
1070
     0
  0
VISUALSTYLE
  5
31
102
{ACAD_REACTORS
330
2A
102
}
330
2A
100
AcDbVisualStyle
  2
3D Hidden
 70
     6
 71
     1
 72
     2
 73
     2
 90
        0
 40
-0.6
 41
-30.0
 62
     5
 63
     7
 74
     2
 91
        2
 64
     7
 65
   257
 75
     2
175
     1
 42
40.0
 92
        0
 66
   257
 43
1.0
 76
     1
 77
     6
 78
     2
 67
     7
 79
     3
170
     0
171
     0
290
     0
174
     0
 93
        1
 44
0.0
173
     0
291
     0
 45
0.0
1001
ACAD
1000
AcDbSavedByObjectVersion
1070
     0
  0
VISUALSTYLE
  5
30
102
{ACAD_REACTORS
330
2A
102
}
330
2A
100
AcDbVisualStyle
  2
3dWireframe
 70
     5
 71
     0
 72
     2
 73
     0
 90
        0
 40
-0.6
 41
-30.0
 62
     5
 63
     7
 74
     1
 91
        4
 64
     7
 65
   257
 75
     1
175
     1
 42
1.0
 92
        0
 66
   257
 43
1.0
 76
     1
 77
     6
 78
     2
 67
     7
 79
     5
170
     0
171
     0
290
     0
174
     0
 93
        1
 44
0.0
173
     0
291
     0
 45
0.0
1001
ACAD
1000
AcDbSavedByObjectVersion
1070
     0
  0
VISUALSTYLE
  5
32
102
{ACAD_REACTORS
330
2A
102
}
330
2A
100
AcDbVisualStyle
  2
Basic
 70
     7
 71
     1
 72
     0
 73
     1
 90
        0
 40
-0.6
 41
-30.0
 62
     5
 63
     7
 74
     0
 91
        4
 64
     7
 65
   257
 75
     1
175
     1
 42
1.0
 92
        8
 66
     7
 43
1.0
 76
     1
 77
     6
 78
     2
 67
     7
 79
     5
170
     0
171
     0
290
     0
174
     0
 93
        1
 44
0.0
173
     0
291
     1
 45
0.0
1001
ACAD
1000
AcDbSavedByObjectVersion
1070
     0
  0
VISUALSTYLE
  5
36
102
{ACAD_REACTORS
330
2A
102
}
330
2A
100
AcDbVisualStyle
  2
Brighten
 70
    12
 71
     2
 72
     2
 73
     0
 90
        0
 40
-0.6
 41
-30.0
 62
     5
 63
     7
 74
     1
 91
        4
 64
     7
 65
   257
 75
     1
175
     1
 42
1.0
 92
        8
 66
     7
 43
1.0
 76
     1
 77
     6
 78
     2
 67
     7
 79
     5
170
     0
171
     0
290
     0
174
     0
 93
        1
 44
50.0
173
     0
291
     1
 45
0.0
1001
ACAD
1000
AcDbSavedByObjectVersion
1070
     0
  0
VISUALSTYLE
  5
3A
102
{ACAD_REACTORS
330
2A
102
}
330
2A
100
AcDbVisualStyle
  2
ColorChange
 70
    16
 71
     2
 72
     2
 73
     3
 90
        0
 40
-0.6
 41
-30.0
 62
     5
 63
     8
 74
     1
 91
        4
 64
     7
 65
   257
 75
     1
175
     1
 42
1.0
 92
        8
 66
     8
 43
1.0
 76
     1
 77
     6
 78
     2
 67
     7
 79
     5
170
     0
171
     0
290
     0
174
     0
 93
        1
 44
0.0
173
     0
291
     1
 45
0.0
1001
ACAD
1000
AcDbSavedByObjectVersion
1070
     0
  0
VISUALSTYLE
  5
34
102
{ACAD_REACTORS
330
2A
102
}
330
2A
100
AcDbVisualStyle
  2
Conceptual
 70
     9
 71
     3
 72
     2
 73
     0
 90
        0
 40
-0.6
 41
-30.0
 62
     5
 63
     7
 74
     2
 91
        2
 64
     7
 65
   257
 75
     1
175
     1
 42
40.0
 92
        8
 66
     7
 43
1.0
 76
     1
 77
     6
 78
     2
 67
     7
 79
     3
170
     0
171
     0
290
     0
174
     0
 93
        1
 44
0.0
173
     0
291
     0
 45
0.0
1001
ACAD
1000
AcDbSavedByObjectVersion
1070
     0
  0
VISUALSTYLE
  5
35
102
{ACAD_REACTORS
330
2A
102
}
330
2A
100
AcDbVisualStyle
  2
Dim
 70
    11
 71
     2
 72
     2
 73
     0
 90
        0
 40
-0.6
 41
-30.0
 62
     5
 63
     7
 74
     1
 91
        4
 64
     7
 65
   257
 75
     1
175
     1
 42
1.0
 92
        8
 66
     7
 43
1.0
 76
     1
 77
     6
 78
     2
 67
     7
 79
     5
170
     0
171
     0
290
     0
174
     0
 93
        1
 44
-50.0
173
     0
291
     1
 45
0.0
1001
ACAD
1000
AcDbSavedByObjectVersion
1070
     0
  0
VISUALSTYLE
  5
39
102
{ACAD_REACTORS
330
2A
102
}
330
2A
100
AcDbVisualStyle
  2
Facepattern
 70
    15
 71
     2
 72
     2
 73
     0
 90
        0
 40
-0.6
 41
-30.0
 62
     5
 63
     7
 74
     1
 91
        4
 64
     7
 65
   257
 75
     1
175
     1
 42
1.0
 92
        8
 66
     7
 43
1.0
 76
     1
 77
     6
 78
     2
 67
     7
 79
     5
170
     0
171
     0
290
     0
174
     0
 93
        1
 44
0.0
173
     0
291
     1
 45
0.0
1001
ACAD
1000
AcDbSavedByObjectVersion
1070
     0
  0
VISUALSTYLE
  5
2B
102
{ACAD_REACTORS
330
2A
102
}
330
2A
100
AcDbVisualStyle
  2
Flat
 70
     0
 71
     2
 72
     1
 73
     1
 90
        2
 40
-0.6
 41
30.0
 62
     5
 63
     7
 74
     0
 91
        4
 64
     7
 65
   257
 75
     1
175
     1
 42
1.0
 92
        8
 66
     7
 43
1.0
 76
     1
 77
     6
 78
     2
 67
     7
 79
     5
170
     0
171
     0
290
     0
174
     0
 93
       13
 44
0.0
173
     0
291
     1
 45
0.0
1001
ACAD
1000
AcDbSavedByObjectVersion
1070
     0
  0
VISUALSTYLE
  5
2C
102
{ACAD_REACTORS
330
2A
102
}
330
2A
100
AcDbVisualStyle
  2
FlatWithEdges
 70
     1
 71
     2
 72
     1
 73
     1
 90
        2
 40
-0.6
 41
30.0
 62
     5
 63
     7
 74
     1
 91
        4
 64
     7
 65
   257
 75
     1
175
     1
 42
1.0
 92
        0
 66
   257
 43
1.0
 76
     1
 77
     6
 78
     2
 67
     7
 79
     5
170
     0
171
     0
290
     0
174
     0
 93
       13
 44
0.0
173
     0
291
     1
 45
0.0
1001
ACAD
1000
AcDbSavedByObjectVersion
1070
     0
  0
VISUALSTYLE
  5
2D
102
{ACAD_REACTORS
330
2A
102
}
330
2A
100
AcDbVisualStyle
  2
Gouraud
 70
     2
 71
     2
 72
     2
 73
     1
 90
        2
 40
-0.6
 41
30.0
 62
     5
 63
     7
 74
     0
 91
        4
 64
     7
 65
   257
 75
     1
175
     1
 42
1.0
 92
        0
 66
     7
 43
1.0
 76
     1
 77
     6
 78
     2
 67
     7
 79
     5
170
     0
171
     0
290
     0
174
     0
 93
       13
 44
0.0
173
     0
291
     1
 45
0.0
1001
ACAD
1000
AcDbSavedByObjectVersion
1070
     0
  0
VISUALSTYLE
  5
2E
102
{ACAD_REACTORS
330
2A
102
}
330
2A
100
AcDbVisualStyle
  2
GouraudWithEdges
 70
     3
 71
     2
 72
     2
 73
     1
 90
        2
 40
-0.6
 41
30.0
 62
     5
 63
     7
 74
     1
 91
        4
 64
     7
 65
   257
 75
     1
175
     1
 42
1.0
 92
        0
 66
   257
 43
1.0
 76
     1
 77
     6
 78
     2
 67
     7
 79
     5
170
     0
171
     0
290
     0
174
     0
 93
       13
 44
0.0
173
     0
291
     1
 45
0.0
1001
ACAD
1000
AcDbSavedByObjectVersion
1070
     0
  0
VISUALSTYLE
  5
38
102
{ACAD_REACTORS
330
2A
102
}
330
2A
100
AcDbVisualStyle
  2
Linepattern
 70
    14
 71
     2
 72
     2
 73
     0
 90
        0
 40
-0.6
 41
-30.0
 62
     5
 63
     7
 74
     1
 91
        4
 64
     7
 65
   257
 75
     7
175
     7
 42
1.0
 92
        8
 66
     7
 43
1.0
 76
     1
 77
     6
 78
     2
 67
     7
 79
     5
170
     0
171
     0
290
     0
174
     0
 93
        1
 44
0.0
173
     0
291
     1
 45
0.0
1001
ACAD
1000
AcDbSavedByObjectVersion
1070
     0
  0
VISUALSTYLE
  5
33
102
{ACAD_REACTORS
330
2A
102
}
330
2A
100
AcDbVisualStyle
  2
Realistic
 70
     8
 71
     2
 72
     2
 73
     0
 90
        0
 40
-0.6
 41
-30.0
 62
     5
 63
     7
 74
     1
 91
        0
 64
     7
 65
   257
 75
     1
175
     1
 42
1.0
 92
        8
 66
     8
 43
1.0
 76
     1
 77
     6
 78
     2
 67
     7
 79
     5
170
     0
171
     0
290
     0
174
     0
 93
       13
 44
0.0
173
     0
291
     0
 45
0.0
1001
ACAD
1000
AcDbSavedByObjectVersion
1070
     0
  0
VISUALSTYLE
  5
37
102
{ACAD_REACTORS
330
2A
102
}
330
2A
100
AcDbVisualStyle
  2
Thicken
 70
    13
 71
     2
 72
     2
 73
     0
 90
        0
 40
-0.6
 41
-30.0
 62
     5
 63
     7
 74
     1
 91
        4
 64
     7
 65
   257
 75
     1
175
     1
 42
1.0
 92
       12
 66
     7
 43
1.0
 76
     1
 77
     6
 78
     2
 67
     7
 79
     5
170
     0
171
     0
290
     0
174
     0
 93
        1
 44
0.0
173
     0
291
     1
 45
0.0
1001
ACAD
1000
AcDbSavedByObjectVersion
1070
     0
  0
DICTIONARYVAR
  5
666
102
{ACAD_REACTORS
330
661
102
}
330
661
100
DictionaryVariables
280
     0
  1
1:1
  0
DICTIONARYVAR
  5
665
102
{ACAD_REACTORS
330
661
102
}
330
661
100
DictionaryVariables
280
     0
  1
80.000000
  0
DICTIONARYVAR
  5
664
102
{ACAD_REACTORS
330
661
102
}
330
661
100
DictionaryVariables
280
     0
  1
5.000000
  0
ENDSEC
  0
EOF
