  0
SECTION
  2
HEADER
  9
$ACADVER
  1
AC1015
  9
$ACADMAINTVER
 70
     6
  9
$DWGCODEPAGE
  3
ANSI_932
  9
$INSBASE
 10
0.0
 20
0.0
 30
0.0
  9
$EXTMIN
 10
0.0
 20
0.0
 30
0.0
  9
$EXTMAX
 10
594.0
 20
420.0
 30
0.0
  9
$LIMMIN
 10
0.0
 20
0.0
  9
$LIMMAX
 10
594.0
 20
420.0
  9
$ORTHOMODE
 70
     0
  9
$REGENMODE
 70
     1
  9
$FILLMODE
 70
     1
  9
$QTEXTMODE
 70
     0
  9
$MIRRTEXT
 70
     1
  9
$LTSCALE
 40
0.257244094488189
  9
$ATTMODE
 70
     1
  9
$TEXTSIZE
 40
2.5
  9
$TRACEWID
 40
1.0
  9
$TEXTSTYLE
  7
Standard
  9
$CLAYER
  8
0
  9
$CELTYPE
  6
ByLayer
  9
$CECOLOR
 62
   256
  9
$CELTSCALE
 40
1.0
  9
$DISPSILH
 70
     0
  9
$DIMSCALE
 40
1.0
  9
$DIMASZ
 40
2.5
  9
$DIMEXO
 40
0.625
  9
$DIMDLI
 40
3.75
  9
$DIMRND
 40
0.0
  9
$DIMDLE
 40
0.0
  9
$DIMEXE
 40
1.25
  9
$DIMTP
 40
0.0
  9
$DIMTM
 40
0.0
  9
$DIMTXT
 40
2.5
  9
$DIMCEN
 40
2.5
  9
$DIMTSZ
 40
0.0
  9
$DIMTOL
 70
     0
  9
$DIMLIM
 70
     0
  9
$DIMTIH
 70
     0
  9
$DIMTOH
 70
     0
  9
$DIMSE1
 70
     0
  9
$DIMSE2
 70
     0
  9
$DIMTAD
 70
     1
  9
$DIMZIN
 70
     0
  9
$DIMBLK
  1

  9
$DIMASO
 70
     1
  9
$DIMSHO
 70
     1
  9
$DIMPOST
  1

  9
$DIMAPOST
  1

  9
$DIMALT
 70
     0
  9
$DIMALTD
 70
     3
  9
$DIMALTF
 40
0.03937007874016
  9
$DIMLFAC
 40
1.0
  9
$DIMTOFL
 70
     1
  9
$DIMTVP
 40
0.0
  9
$DIMTIX
 70
     0
  9
$DIMSOXD
 70
     0
  9
$DIMSAH
 70
     0
  9
$DIMBLK1
  1

  9
$DIMBLK2
  1

  9
$DIMSTYLE
  2
Standard
  9
$DIMCLRD
 70
     0
  9
$DIMCLRE
 70
     0
  9
$DIMCLRT
 70
     0
  9
$DIMTFAC
 40
0.75
  9
$DIMGAP
 40
0.625
  9
$DIMJUST
 70
     0
  9
$DIMSD1
 70
     0
  9
$DIMSD2
 70
     0
  9
$DIMTOLJ
 70
     0
  9
$DIMTZIN
 70
     8
  9
$DIMALTZ
 70
     0
  9
$DIMALTTZ
 70
     0
  9
$DIMUPT
 70
     0
  9
$DIMDEC
 70
     2
  9
$DIMTDEC
 70
     2
  9
$DIMALTU
 70
     2
  9
$DIMALTTD
 70
     3
  9
$DIMTXSTY
  7
Standard
  9
$DIMAUNIT
 70
     0
  9
$DIMADEC
 70
     0
  9
$DIMALTRND
 40
0.0
  9
$DIMAZIN
 70
     0
  9
$DIMDSEP
 70
    46
  9
$DIMATFIT
 70
     3
  9
$DIMFRAC
 70
     0
  9
$DIMLDRBLK
  1

  9
$DIMLUNIT
 70
     2
  9
$DIMLWD
 70
    -2
  9
$DIMLWE
 70
    -2
  9
$DIMTMOVE
 70
     0
  9
$LUNITS
 70
     2
  9
$LUPREC
 70
     4
  9
$SKETCHINC
 40
1.0
  9
$FILLETRAD
 40
10.0
  9
$AUNITS
 70
     0
  9
$AUPREC
 70
     0
  9
$MENU
  1
.
  9
$ELEVATION
 40
0.0
  9
$PELEVATION
 40
0.0
  9
$THICKNESS
 40
0.0
  9
$LIMCHECK
 70
     0
  9
$CHAMFERA
 40
10.0
  9
$CHAMFERB
 40
10.0
  9
$CHAMFERC
 40
20.0
  9
$CHAMFERD
 40
0.0
  9
$SKPOLY
 70
     0
  9
$TDCREATE
 40
2455188.75
  9
$TDUCREATE
 40
2455188.375
  9
$TDUPDATE
 40
2455188.75
  9
$TDUUPDATE
 40
2455188.375
  9
$TDINDWG
 40
0.0000000116
  9
$TDUSRTIMER
 40
0.0000000116
  9
$USRTIMER
 70
     1
  9
$ANGBASE
 50
0.0
  9
$ANGDIR
 70
     0
  9
$PDMODE
 70
     0
  9
$PDSIZE
 40
0.0
  9
$PLINEWID
 40
0.0
  9
$SPLFRAME
 70
     0
  9
$SPLINETYPE
 70
     6
  9
$SPLINESEGS
 70
     8
  9
$HANDSEED
  5
4B6
  9
$SURFTAB1
 70
     6
  9
$SURFTAB2
 70
     6
  9
$SURFTYPE
 70
     6
  9
$SURFU
 70
     6
  9
$SURFV
 70
     6
  9
$UCSBASE
  2

  9
$UCSNAME
  2

  9
$UCSORG
 10
0.0
 20
0.0
 30
0.0
  9
$UCSXDIR
 10
1.0
 20
0.0
 30
0.0
  9
$UCSYDIR
 10
0.0
 20
1.0
 30
0.0
  9
$UCSORTHOREF
  2

  9
$UCSORTHOVIEW
 70
     0
  9
$UCSORGTOP
 10
0.0
 20
0.0
 30
0.0
  9
$UCSORGBOTTOM
 10
0.0
 20
0.0
 30
0.0
  9
$UCSORGLEFT
 10
0.0
 20
0.0
 30
0.0
  9
$UCSORGRIGHT
 10
0.0
 20
0.0
 30
0.0
  9
$UCSORGFRONT
 10
0.0
 20
0.0
 30
0.0
  9
$UCSORGBACK
 10
0.0
 20
0.0
 30
0.0
  9
$PUCSBASE
  2

  9
$PUCSNAME
  2

  9
$PUCSORG
 10
0.0
 20
0.0
 30
0.0
  9
$PUCSXDIR
 10
1.0
 20
0.0
 30
0.0
  9
$PUCSYDIR
 10
0.0
 20
1.0
 30
0.0
  9
$PUCSORTHOREF
  2

  9
$PUCSORTHOVIEW
 70
     0
  9
$PUCSORGTOP
 10
0.0
 20
0.0
 30
0.0
  9
$PUCSORGBOTTOM
 10
0.0
 20
0.0
 30
0.0
  9
$PUCSORGLEFT
 10
0.0
 20
0.0
 30
0.0
  9
$PUCSORGRIGHT
 10
0.0
 20
0.0
 30
0.0
  9
$PUCSORGFRONT
 10
0.0
 20
0.0
 30
0.0
  9
$PUCSORGBACK
 10
0.0
 20
0.0
 30
0.0
  9
$USERI1
 70
     0
  9
$USERI2
 70
     0
  9
$USERI3
 70
     0
  9
$USERI4
 70
     0
  9
$USERI5
 70
     0
  9
$USERR1
 40
0.0
  9
$USERR2
 40
0.0
  9
$USERR3
 40
0.0
  9
$USERR4
 40
0.0
  9
$USERR5
 40
0.0
  9
$WORLDVIEW
 70
     1
  9
$SHADEDGE
 70
     3
  9
$SHADEDIF
 70
    70
  9
$TILEMODE
 70
     1
  9
$MAXACTVP
 70
    64
  9
$PINSBASE
 10
0.0
 20
0.0
 30
0.0
  9
$PLIMCHECK
 70
     0
  9
$PEXTMIN
 10
1.000000000000000E+20
 20
1.000000000000000E+20
 30
1.000000000000000E+20
  9
$PEXTMAX
 10
-1.000000000000000E+20
 20
-1.000000000000000E+20
 30
-1.000000000000000E+20
  9
$PLIMMIN
 10
0.0
 20
0.0
  9
$PLIMMAX
 10
420.0
 20
297.0
  9
$UNITMODE
 70
     0
  9
$VISRETAIN
 70
     1
  9
$PLINEGEN
 70
     0
  9
$PSLTSCALE
 70
     0
  9
$TREEDEPTH
 70
  3020
  9
$CMLSTYLE
  2
Standard
  9
$CMLJUST
 70
     0
  9
$CMLSCALE
 40
20.0
  9
$PROXYGRAPHICS
 70
     1
  9
$MEASUREMENT
 70
     1
  9
$CELWEIGHT
370
    -1
  9
$ENDCAPS
280
     0
  9
$JOINSTYLE
280
     0
  9
$LWDISPLAY
290
     0
  9
$INSUNITS
 70
     4
  9
$HYPERLINKBASE
  1

  9
$STYLESHEET
  1

  9
$XEDIT
290
     1
  9
$CEPSNTYPE
380
     0
  9
$PSTYLEMODE
290
     1
  9
$FINGERPRINTGUID
  2
{A0E373AB-5D78-4AC3-9367-8BCC32F3BFFD}
  9
$VERSIONGUID
  2
{FAEB1C32-E019-11D5-929B-00C0DF256EC4}
  9
$EXTNAMES
290
     1
  9
$PSVPSCALE
 40
0.0
  9
$OLESTARTUP
290
     0
  0
ENDSEC
  0
SECTION
  2
CLASSES
  0
CLASS
  1
ACDBDICTIONARYWDFLT
  2
AcDbDictionaryWithDefault
  3
ObjectDBX Classes
 90
        0
280
     0
281
     0
  0
CLASS
  1
VISUALSTYLE
  2
AcDbVisualStyle
  3
ObjectDBX Classes
 90
     4095
280
     0
281
     0
  0
CLASS
  1
MATERIAL
  2
AcDbMaterial
  3
ObjectDBX Classes
 90
     1153
280
     0
281
     0
  0
CLASS
  1
SCALE
  2
AcDbScale
  3
ObjectDBX Classes
 90
     1153
280
     0
281
     0
  0
CLASS
  1
SUN
  2
AcDbSun
  3
SCENEOE
 90
     1153
280
     0
281
     0
  0
CLASS
  1
DICTIONARYVAR
  2
AcDbDictionaryVar
  3
ObjectDBX Classes
 90
        0
280
     0
281
     0
  0
CLASS
  1
ACDBPLACEHOLDER
  2
AcDbPlaceHolder
  3
ObjectDBX Classes
 90
        0
280
     0
281
     0
  0
CLASS
  1
LAYOUT
  2
AcDbLayout
  3
ObjectDBX Classes
 90
        0
280
     0
281
     0
  0
ENDSEC
  0
SECTION
  2
TABLES
  0
TABLE
  2
VPORT
  5
8
330
0
100
AcDbSymbolTable
 70
     1
  0
VPORT
  5
29
330
8
100
AcDbSymbolTableRecord
100
AcDbViewportTableRecord
  2
*Active
 70
     0
 10
0.0
 20
0.0
 11
1.0
 21
1.0
 12
297.0
 22
210.0
 13
0.0
 23
0.0
 14
10.0
 24
10.0
 15
10.0
 25
10.0
 16
0.0
 26
0.0
 36
1.0
 17
0.0
 27
0.0
 37
0.0
 40
490.0500000000001
 41
1.333333333333333
 42
50.0
 43
0.0
 44
0.0
 50
0.0
 51
0.0
 71
     0
 72
 20000
 73
     1
 74
     3
 75
     0
 76
     0
 77
     0
 78
     0
281
     0
 65
     1
110
0.0
120
0.0
130
0.0
111
1.0
121
0.0
131
0.0
112
0.0
122
1.0
132
0.0
 79
     0
146
0.0
  0
ENDTAB
  0
TABLE
  2
LTYPE
  5
5
330
0
100
AcDbSymbolTable
 70
     7
  0
LTYPE
  5
14
330
5
100
AcDbSymbolTableRecord
100
AcDbLinetypeTableRecord
  2
ByBlock
 70
     0
  3

 72
    65
 73
     0
 40
0.0
  0
LTYPE
  5
15
330
5
100
AcDbSymbolTableRecord
100
AcDbLinetypeTableRecord
  2
ByLayer
 70
     0
  3

 72
    65
 73
     0
 40
0.0
  0
LTYPE
  5
16
330
5
100
AcDbSymbolTableRecord
100
AcDbLinetypeTableRecord
  2
Continuous
 70
     0
  3
Solid line
 72
    65
 73
     0
 40
0.0
  0
LTYPE
  5
6B
330
5
100
AcDbSymbolTableRecord
100
AcDbLinetypeTableRecord
  2
DASHED
 70
     0
  3
ICAD/SX(2) Dashed __ __ __ __ __ __ __ __ __ __ __ __ __ _
 72
    65
 73
     2
 40
19.05
 49
12.7
 74
     0
 49
-6.35
 74
     0
  0
LTYPE
  5
6C
330
5
100
AcDbSymbolTableRecord
100
AcDbLinetypeTableRecord
  2
CENTER
 70
     0
  3
ICAD/SX(3) Center ____ _ ____ _ ____ _ ____ _ ____ _ ____
 72
    65
 73
     4
 40
50.8
 49
31.75
 74
     0
 49
-6.35
 74
     0
 49
6.35
 74
     0
 49
-6.35
 74
     0
  0
LTYPE
  5
6D
330
5
100
AcDbSymbolTableRecord
100
AcDbLinetypeTableRecord
  2
PHANTOM
 70
     0
  3
ICAD/SX(4) Phantom ______  __  __  ______  __  __  ______
 72
    65
 73
     6
 40
63.5
 49
31.75
 74
     0
 49
-6.35
 74
     0
 49
6.35
 74
     0
 49
-6.35
 74
     0
 49
6.35
 74
     0
 49
-6.35
 74
     0
  0
LTYPE
  5
6E
330
5
100
AcDbSymbolTableRecord
100
AcDbLinetypeTableRecord
  2
DOT
 70
     0
  3
ICAD/SX(5) Dot . . . . . . . . . . . . . . . . . . . . . . . .
 72
    65
 73
     2
 40
6.35
 49
0.0
 74
     0
 49
-6.35
 74
     0
  0
LTYPE
  5
6F
330
5
100
AcDbSymbolTableRecord
100
AcDbLinetypeTableRecord
  2
HIDDEN
 70
     0
  3
ICAD/SX(6) Hidden __ __ __ __ __ __ __ __ __ __ __ __ __ __
 72
    65
 73
     2
 40
9.525
 49
6.35
 74
     0
 49
-3.175
 74
     0
  0
LTYPE
  5
70
330
5
100
AcDbSymbolTableRecord
100
AcDbLinetypeTableRecord
  2
DOTSX
 70
     0
  3
ICAD/SX(5) Dot . . . . . . . . . . . . . . . . . . . . . . . .
 72
    65
 73
     2
 40
6.35
 49
3.175
 74
     0
 49
-3.175
 74
     0
  0
ENDTAB
  0
TABLE
  2
LAYER
  5
2
330
0
100
AcDbSymbolTable
 70
     3
  0
LAYER
  5
10
330
2
100
AcDbSymbolTableRecord
100
AcDbLayerTableRecord
  2
0
 70
     0
 62
     7
  6
Continuous
370
    -3
390
F
  0
LAYER
  5
71
330
2
100
AcDbSymbolTableRecord
100
AcDbLayerTableRecord
  2
NoLayerName_001
 70
     0
 62
     7
  6
Continuous
370
    -3
390
F
  0
LAYER
  5
72
330
2
100
AcDbSymbolTableRecord
100
AcDbLayerTableRecord
  2
Defpoints
 70
     0
 62
     7
  6
Continuous
290
     0
370
    -3
390
F
  0
ENDTAB
  0
TABLE
  2
STYLE
  5
3
330
0
100
AcDbSymbolTable
 70
     3
  0
STYLE
  5
11
330
3
100
AcDbSymbolTableRecord
100
AcDbTextStyleTableRecord
  2
Standard
 70
     0
 40
0.0
 41
1.0
 50
0.0
 71
     0
 42
2.5
  3
txt
  4
extfont2
  0
STYLE
  5
6A
330
3
100
AcDbSymbolTableRecord
100
AcDbTextStyleTableRecord
  2

 70
     1
 40
0.0
 41
1.0
 50
0.0
 71
     0
 42
2.5
  3
ltypeshp.shx
  4

  0
STYLE
  5
78
330
3
100
AcDbSymbolTableRecord
100
AcDbTextStyleTableRecord
  2
@Standard
 70
     4
 40
0.0
 41
1.0
 50
0.0
 71
     0
 42
2.5
  3
txt
  4
@extfont2
  0
ENDTAB
  0
TABLE
  2
VIEW
  5
6
330
0
100
AcDbSymbolTable
 70
     0
  0
ENDTAB
  0
TABLE
  2
UCS
  5
7
330
0
100
AcDbSymbolTable
 70
     0
  0
ENDTAB
  0
TABLE
  2
APPID
  5
9
330
0
100
AcDbSymbolTable
 70
     5
  0
APPID
  5
12
330
9
100
AcDbSymbolTableRecord
100
AcDbRegAppTableRecord
  2
ACAD
 70
     0
  0
APPID
  5
345
330
9
100
AcDbSymbolTableRecord
100
AcDbRegAppTableRecord
  2
ACAD_DSTYLE_DIMRADIAL_EXTENSION
 70
     0
  0
APPID
  5
47B
330
9
100
AcDbSymbolTableRecord
100
AcDbRegAppTableRecord
  2
ACAD_DSTYLE_DIM_LINETYPE
 70
     0
  0
APPID
  5
47C
330
9
100
AcDbSymbolTableRecord
100
AcDbRegAppTableRecord
  2
ACAD_DSTYLE_DIM_EXT1_LINETYPE
 70
     0
  0
APPID
  5
47D
330
9
100
AcDbSymbolTableRecord
100
AcDbRegAppTableRecord
  2
ACAD_DSTYLE_DIM_EXT2_LINETYPE
 70
     0
  0
ENDTAB
  0
TABLE
  2
DIMSTYLE
  5
A
330
0
100
AcDbSymbolTable
 70
     1
100
AcDbDimStyleTable
  0
DIMSTYLE
105
27
102
{ACAD_REACTORS
330
272
330
286
330
294
330
2A2
330
2B0
330
2BE
330
2CC
330
2DA
330
2E8
330
2F7
330
343
330
360
330
36E
330
385
330
3A3
330
3B1
330
3BF
102
}
330
A
100
AcDbSymbolTableRecord
100
AcDbDimStyleTableRecord
  2
Standard
 70
     0
 41
2.5
 42
0.625
 43
3.75
 44
1.25
 73
     0
 74
     0
 77
     1
140
2.5
141
2.5
143
0.03937007874016
146
0.75
147
0.625
171
     3
172
     1
178
     0
271
     2
272
     2
274
     3
283
     0
284
     8
340
11
  0
ENDTAB
  0
TABLE
  2
BLOCK_RECORD
  5
1
330
0
100
AcDbSymbolTable
 70
    23
  0
BLOCK_RECORD
  5
1F
330
1
100
AcDbSymbolTableRecord
100
AcDbBlockTableRecord
  2
*Model_Space
340
22
  0
BLOCK_RECORD
  5
1B
330
1
100
AcDbSymbolTableRecord
100
AcDbBlockTableRecord
  2
*Paper_Space
340
1E
  0
BLOCK_RECORD
  5
23
330
1
100
AcDbSymbolTableRecord
100
AcDbBlockTableRecord
  2
*Paper_Space0
340
0
  0
BLOCK_RECORD
  5
73
330
1
100
AcDbSymbolTableRecord
100
AcDbBlockTableRecord
  2
JZB_0001
340
0
102
{BLKREFS
331
470
102
}
  0
BLOCK_RECORD
  5
274
330
1
100
AcDbSymbolTableRecord
100
AcDbBlockTableRecord
  2
_OPEN30
340
0
102
{BLKREFS
331
281
331
280
331
28F
331
28E
331
29D
331
29C
331
2AB
331
2AA
331
2B9
331
2B8
331
2C7
331
2C6
331
2D5
331
2D4
331
2E3
331
2E2
331
2F2
331
2F1
331
300
331
2FF
331
34C
331
34B
331
369
331
368
331
377
331
376
331
38E
331
38D
331
3AC
331
3AB
331
3BA
331
3B9
331
3C8
331
3C7
102
}
  0
BLOCK_RECORD
  5
27A
330
1
100
AcDbSymbolTableRecord
100
AcDbBlockTableRecord
  2
*D3
340
0
  0
BLOCK_RECORD
  5
288
330
1
100
AcDbSymbolTableRecord
100
AcDbBlockTableRecord
  2
*D4
340
0
  0
BLOCK_RECORD
  5
296
330
1
100
AcDbSymbolTableRecord
100
AcDbBlockTableRecord
  2
*D5
340
0
  0
BLOCK_RECORD
  5
2A4
330
1
100
AcDbSymbolTableRecord
100
AcDbBlockTableRecord
  2
*D6
340
0
  0
BLOCK_RECORD
  5
2B2
330
1
100
AcDbSymbolTableRecord
100
AcDbBlockTableRecord
  2
*D7
340
0
  0
BLOCK_RECORD
  5
2C0
330
1
100
AcDbSymbolTableRecord
100
AcDbBlockTableRecord
  2
*D8
340
0
  0
BLOCK_RECORD
  5
2CE
330
1
100
AcDbSymbolTableRecord
100
AcDbBlockTableRecord
  2
*D9
340
0
  0
BLOCK_RECORD
  5
2DC
330
1
100
AcDbSymbolTableRecord
100
AcDbBlockTableRecord
  2
*D10
340
0
  0
BLOCK_RECORD
  5
2EA
330
1
100
AcDbSymbolTableRecord
100
AcDbBlockTableRecord
  2
*D11
340
0
  0
BLOCK_RECORD
  5
2F9
330
1
100
AcDbSymbolTableRecord
100
AcDbBlockTableRecord
  2
*D12
340
0
  0
BLOCK_RECORD
  5
346
330
1
100
AcDbSymbolTableRecord
100
AcDbBlockTableRecord
  2
*D13
340
0
  0
BLOCK_RECORD
  5
34F
330
1
100
AcDbSymbolTableRecord
100
AcDbBlockTableRecord
  2
DIM_0001
340
0
102
{BLKREFS
331
357
102
}
  0
BLOCK_RECORD
  5
362
330
1
100
AcDbSymbolTableRecord
100
AcDbBlockTableRecord
  2
*D15
340
0
  0
BLOCK_RECORD
  5
370
330
1
100
AcDbSymbolTableRecord
100
AcDbBlockTableRecord
  2
*D16
340
0
  0
BLOCK_RECORD
  5
37C
330
1
100
AcDbSymbolTableRecord
100
AcDbBlockTableRecord
  2
DIM_0002
340
0
102
{BLKREFS
331
384
102
}
  0
BLOCK_RECORD
  5
387
330
1
100
AcDbSymbolTableRecord
100
AcDbBlockTableRecord
  2
*D18
340
0
  0
BLOCK_RECORD
  5
3A5
330
1
100
AcDbSymbolTableRecord
100
AcDbBlockTableRecord
  2
*D19
340
0
  0
BLOCK_RECORD
  5
3B3
330
1
100
AcDbSymbolTableRecord
100
AcDbBlockTableRecord
  2
*D20
340
0
  0
BLOCK_RECORD
  5
3C1
330
1
100
AcDbSymbolTableRecord
100
AcDbBlockTableRecord
  2
*D21
340
0
  0
BLOCK_RECORD
  5
44B
330
1
100
AcDbSymbolTableRecord
100
AcDbBlockTableRecord
  2
SX_DeltaSymbol
340
0
102
{BLKREFS
331
44A
331
452
331
455
331
458
331
45B
331
45E
331
461
331
464
331
467
102
}
  0
ENDTAB
  0
ENDSEC
  0
SECTION
  2
BLOCKS
  0
BLOCK
  5
20
330
1F
100
AcDbEntity
  8
0
100
AcDbBlockBegin
  2
*Model_Space
 70
     0
 10
0.0
 20
0.0
 30
0.0
  3
*Model_Space
  1
*Model_Space
  0
ENDBLK
  5
21
330
1F
100
AcDbEntity
  8
0
100
AcDbBlockEnd
  0
BLOCK
  5
1C
330
1B
100
AcDbEntity
 67
     1
  8
0
100
AcDbBlockBegin
  2
*Paper_Space
 70
     0
 10
0.0
 20
0.0
 30
0.0
  3
*Paper_Space
  1
*Paper_Space
  0
ENDBLK
  5
1D
330
1B
100
AcDbEntity
 67
     1
  8
0
100
AcDbBlockEnd
  0
BLOCK
  5
24
330
23
100
AcDbEntity
  8
0
100
AcDbBlockBegin
  2
*Paper_Space0
 70
     0
 10
0.0
 20
0.0
 30
0.0
  3
*Paper_Space0
  1
*Paper_Space0
  0
ENDBLK
  5
25
330
23
100
AcDbEntity
  8
0
100
AcDbBlockEnd
  0
BLOCK
  5
74
330
73
100
AcDbEntity
  8
0
100
AcDbBlockBegin
  2
JZB_0001
 70
     0
 10
0.0
 20
0.0
 30
0.0
  3
JZB_0001
  1
JZB_0001
  0
MTEXT
  5
76
330
73
100
AcDbEntity
  8
NoLayerName_001
 62
     3
370
    25
100
AcDbMText
 10
6.50000003814705
 20
6.500000047683727
 30
0.0
 40
2.400000095367432
 41
0.0
 71
     5
 72
     5
  1
\A1;\W0.5000;０５，１，３１
 73
     1
 44
1.0
1001
ACAD
1000
ACAD_MTEXT_DEFINED_HEIGHT_BEGIN
1070
    46
1040
2.400000095367432
1000
ACAD_MTEXT_DEFINED_HEIGHT_END
  0
MTEXT
  5
77
330
73
100
AcDbEntity
  8
NoLayerName_001
 62
     3
370
    25
100
AcDbMText
 10
20.25000003814705
 20
6.500000047683727
 30
0.0
 40
2.400000095367432
 41
0.0
 71
     5
 72
     5
  1
\A1;\W0.5000;０５，１，３１
 73
     1
 44
1.0
1001
ACAD
1000
ACAD_MTEXT_DEFINED_HEIGHT_BEGIN
1070
    46
1040
2.400000095367432
1000
ACAD_MTEXT_DEFINED_HEIGHT_END
  0
MTEXT
  5
79
330
73
100
AcDbEntity
  8
NoLayerName_001
 62
     3
370
    25
100
AcDbMText
 10
20.2499999284507
 20
12.50000189841495
 30
0.0
 40
7.5
 41
0.0
 71
     2
 72
     5
  1
\A1;\W0.8333;坂詰
  7
@Standard
 73
     2
 44
0.6
  0
MTEXT
  5
7A
330
73
100
AcDbEntity
  8
NoLayerName_001
 62
     3
370
    25
100
AcDbMText
 10
6.499999928450816
 20
12.5000018984149
 30
0.0
 40
7.5
 41
0.0
 71
     2
 72
     5
  1
\A1;\W0.8333;青木
  7
@Standard
 73
     2
 44
0.6
  0
CIRCLE
  5
7B
330
73
100
AcDbEntity
  8
NoLayerName_001
  6
Continuous
 62
     7
370
    50
100
AcDbCircle
 10
20.25000000000011
 20
6.5
 30
0.0
 40
6.5
  0
LINE
  5
7C
330
73
100
AcDbEntity
  8
NoLayerName_001
  6
Continuous
 62
     3
370
    50
100
AcDbLine
 10
26.25000000000011
 20
9.0
 30
0.0
 11
14.25000000000011
 21
9.0
 31
0.0
  0
LINE
  5
7D
330
73
100
AcDbEntity
  8
NoLayerName_001
  6
Continuous
 62
     3
370
    50
100
AcDbLine
 10
26.25000000000011
 20
3.999999999999988
 30
0.0
 11
14.25000000000011
 21
3.999999999999988
 31
0.0
  0
CIRCLE
  5
7E
330
73
100
AcDbEntity
  8
NoLayerName_001
  6
Continuous
 62
     7
370
    50
100
AcDbCircle
 10
6.500000000000114
 20
6.5
 30
0.0
 40
6.5
  0
LINE
  5
7F
330
73
100
AcDbEntity
  8
NoLayerName_001
  6
Continuous
 62
     3
370
    50
100
AcDbLine
 10
12.50000000000011
 20
9.0
 30
0.0
 11
0.5000000000001137
 21
9.0
 31
0.0
  0
LINE
  5
80
330
73
100
AcDbEntity
  8
NoLayerName_001
  6
Continuous
 62
     3
370
    50
100
AcDbLine
 10
12.50000000000011
 20
3.999999999999988
 30
0.0
 11
0.5000000000001137
 21
3.999999999999988
 31
0.0
  0
ENDBLK
  5
75
330
73
100
AcDbEntity
  8
0
100
AcDbBlockEnd
  0
BLOCK
  5
278
330
274
100
AcDbEntity
  8
0
100
AcDbBlockBegin
  2
_OPEN30
 70
     0
 10
0.0
 20
0.0
 30
0.0
  3
_OPEN30
  1
_OPEN30
  0
LINE
  5
275
330
274
100
AcDbEntity
  8
0
  6
ByBlock
 62
     0
370
    -2
100
AcDbLine
 10
-1.0
 20
0.267949
 30
0.0
 11
0.0
 21
0.0
 31
0.0
  0
LINE
  5
276
330
274
100
AcDbEntity
  8
0
  6
ByBlock
 62
     0
370
    -2
100
AcDbLine
 10
0.0
 20
0.0
 30
0.0
 11
-1.0
 21
-0.267949
 31
0.0
  0
LINE
  5
277
330
274
100
AcDbEntity
  8
0
  6
ByBlock
 62
     0
370
    -2
100
AcDbLine
 10
0.0
 20
0.0
 30
0.0
 11
-1.0
 21
0.0
 31
0.0
  0
ENDBLK
  5
279
330
274
100
AcDbEntity
  8
0
100
AcDbBlockEnd
  0
BLOCK
  5
27B
330
27A
100
AcDbEntity
  8
0
100
AcDbBlockBegin
  2
*D3
 70
     1
 10
0.0
 20
0.0
 30
0.0
  3
*D3
  1
*D3
  0
LINE
  5
27D
330
27A
100
AcDbEntity
  8
NoLayerName_001
  6
Continuous
 62
     0
370
    25
100
AcDbLine
 10
296.8532759784126
 20
239.1777493522891
 30
0.0
 11
296.8532759784126
 21
321.3978428955039
 31
0.0
  0
LINE
  5
27E
330
27A
100
AcDbEntity
  8
NoLayerName_001
  6
Continuous
 62
     0
370
    25
100
AcDbLine
 10
351.8532759784126
 20
252.1777493522891
 30
0.0
 11
351.8532759784126
 21
321.3978428955039
 31
0.0
  0
LINE
  5
27F
330
27A
100
AcDbEntity
  8
NoLayerName_001
  6
Continuous
 62
     0
370
    25
100
AcDbLine
 10
298.8532759784126
 20
320.1978428955039
 30
0.0
 11
349.8532759784126
 21
320.1978428955039
 31
0.0
  0
INSERT
  5
280
330
27A
100
AcDbEntity
  8
NoLayerName_001
 62
     0
370
    25
100
AcDbBlockReference
  2
_OPEN30
 10
296.8532759784126
 20
320.1978428955039
 30
0.0
 41
2.0
 42
2.0
 43
2.0
 50
180.0
  0
INSERT
  5
281
330
27A
100
AcDbEntity
  8
NoLayerName_001
 62
     0
370
    25
100
AcDbBlockReference
  2
_OPEN30
 10
351.8532759784126
 20
320.1978428955039
 30
0.0
 41
2.0
 42
2.0
 43
2.0
  0
MTEXT
  5
282
330
27A
100
AcDbEntity
  8
NoLayerName_001
 62
     0
370
    25
100
AcDbMText
 10
324.3532759784126
 20
322.9478428955039
 30
0.0
 40
3.5
 41
0.0
 71
     5
 72
     1
  1
\W0.8000;55
 73
     1
 44
1.0
  0
POINT
  5
283
330
27A
100
AcDbEntity
  8
Defpoints
 62
     0
100
AcDbPoint
 10
296.8532759784126
 20
238.5527493522891
 30
0.0
  0
POINT
  5
284
330
27A
100
AcDbEntity
  8
Defpoints
 62
     0
100
AcDbPoint
 10
351.8532759784126
 20
251.5527493522891
 30
0.0
  0
POINT
  5
285
330
27A
100
AcDbEntity
  8
Defpoints
 62
     0
100
AcDbPoint
 10
351.8532759784126
 20
320.1978428955039
 30
0.0
  0
ENDBLK
  5
27C
330
27A
100
AcDbEntity
  8
0
100
AcDbBlockEnd
  0
BLOCK
  5
289
330
288
100
AcDbEntity
  8
0
100
AcDbBlockBegin
  2
*D4
 70
     1
 10
0.0
 20
0.0
 30
0.0
  3
*D4
  1
*D4
  0
LINE
  5
28B
330
288
100
AcDbEntity
  8
NoLayerName_001
  6
Continuous
 62
     0
370
    25
100
AcDbLine
 10
263.8532759784126
 20
245.5230488139098
 30
0.0
 11
263.8532759784126
 21
331.3978428955039
 31
0.0
  0
LINE
  5
28C
330
288
100
AcDbEntity
  8
NoLayerName_001
  6
Continuous
 62
     0
370
    25
100
AcDbLine
 10
351.8532759784126
 20
252.1777493522891
 30
0.0
 11
351.8532759784126
 21
331.3978428955039
 31
0.0
  0
LINE
  5
28D
330
288
100
AcDbEntity
  8
NoLayerName_001
  6
Continuous
 62
     0
370
    25
100
AcDbLine
 10
265.8532759784126
 20
330.1978428955039
 30
0.0
 11
349.8532759784126
 21
330.1978428955039
 31
0.0
  0
INSERT
  5
28E
330
288
100
AcDbEntity
  8
NoLayerName_001
 62
     0
370
    25
100
AcDbBlockReference
  2
_OPEN30
 10
263.8532759784126
 20
330.1978428955039
 30
0.0
 41
2.0
 42
2.0
 43
2.0
 50
180.0
  0
INSERT
  5
28F
330
288
100
AcDbEntity
  8
NoLayerName_001
 62
     0
370
    25
100
AcDbBlockReference
  2
_OPEN30
 10
351.8532759784126
 20
330.1978428955039
 30
0.0
 41
2.0
 42
2.0
 43
2.0
  0
MTEXT
  5
290
330
288
100
AcDbEntity
  8
NoLayerName_001
 62
     0
370
    25
100
AcDbMText
 10
307.8532759784126
 20
332.9478428955039
 30
0.0
 40
3.5
 41
0.0
 71
     5
 72
     1
  1
\W0.8000;88
 73
     1
 44
1.0
  0
POINT
  5
291
330
288
100
AcDbEntity
  8
Defpoints
 62
     0
100
AcDbPoint
 10
263.8532759784126
 20
244.8980488139098
 30
0.0
  0
POINT
  5
292
330
288
100
AcDbEntity
  8
Defpoints
 62
     0
100
AcDbPoint
 10
351.8532759784126
 20
251.5527493522891
 30
0.0
  0
POINT
  5
293
330
288
100
AcDbEntity
  8
Defpoints
 62
     0
100
AcDbPoint
 10
351.8532759784126
 20
330.1978428955039
 30
0.0
  0
ENDBLK
  5
28A
330
288
100
AcDbEntity
  8
0
100
AcDbBlockEnd
  0
BLOCK
  5
297
330
296
100
AcDbEntity
  8
0
100
AcDbBlockBegin
  2
*D5
 70
     1
 10
0.0
 20
0.0
 30
0.0
  3
*D5
  1
*D5
  0
LINE
  5
299
330
296
100
AcDbEntity
  8
NoLayerName_001
  6
Continuous
 62
     0
370
    25
100
AcDbLine
 10
246.8532759784127
 20
195.4277493522891
 30
0.0
 11
246.8532759784127
 21
128.9978428955039
 31
0.0
  0
LINE
  5
29A
330
296
100
AcDbEntity
  8
NoLayerName_001
  6
Continuous
 62
     0
370
    25
100
AcDbLine
 10
256.8532759784126
 20
171.9277493522891
 30
0.0
 11
256.8532759784126
 21
128.9978428955039
 31
0.0
  0
LINE
  5
29B
330
296
100
AcDbEntity
  8
NoLayerName_001
  6
Continuous
 62
     0
370
    25
100
AcDbLine
 10
248.8532759784127
 20
130.1978428955039
 30
0.0
 11
254.8532759784126
 21
130.1978428955039
 31
0.0
  0
INSERT
  5
29C
330
296
100
AcDbEntity
  8
NoLayerName_001
 62
     0
370
    25
100
AcDbBlockReference
  2
_OPEN30
 10
246.8532759784127
 20
130.1978428955039
 30
0.0
 41
2.0
 42
2.0
 43
2.0
 50
180.0
  0
INSERT
  5
29D
330
296
100
AcDbEntity
  8
NoLayerName_001
 62
     0
370
    25
100
AcDbBlockReference
  2
_OPEN30
 10
256.8532759784126
 20
130.1978428955039
 30
0.0
 41
2.0
 42
2.0
 43
2.0
  0
MTEXT
  5
29E
330
296
100
AcDbEntity
  8
NoLayerName_001
 62
     0
370
    25
100
AcDbMText
 10
251.8532759784127
 20
132.9478428955039
 30
0.0
 40
3.5
 41
0.0
 71
     5
 72
     1
  1
\W0.8000;10
 73
     1
 44
1.0
  0
POINT
  5
29F
330
296
100
AcDbEntity
  8
Defpoints
 62
     0
100
AcDbPoint
 10
246.8532759784127
 20
196.0527493522891
 30
0.0
  0
POINT
  5
2A0
330
296
100
AcDbEntity
  8
Defpoints
 62
     0
100
AcDbPoint
 10
256.8532759784126
 20
172.5527493522891
 30
0.0
  0
POINT
  5
2A1
330
296
100
AcDbEntity
  8
Defpoints
 62
     0
100
AcDbPoint
 10
256.8532759784126
 20
130.1978428955039
 30
0.0
  0
ENDBLK
  5
298
330
296
100
AcDbEntity
  8
0
100
AcDbBlockEnd
  0
BLOCK
  5
2A5
330
2A4
100
AcDbEntity
  8
0
100
AcDbBlockBegin
  2
*D6
 70
     1
 10
0.0
 20
0.0
 30
0.0
  3
*D6
  1
*D6
  0
LINE
  5
2A7
330
2A4
100
AcDbEntity
  8
NoLayerName_001
  6
Continuous
 62
     0
370
    25
100
AcDbLine
 10
280.8532759784126
 20
171.9277493522891
 30
0.0
 11
280.8532759784126
 21
128.9978428955039
 31
0.0
  0
LINE
  5
2A8
330
2A4
100
AcDbEntity
  8
NoLayerName_001
  6
Continuous
 62
     0
370
    25
100
AcDbLine
 10
256.8532759784126
 20
171.9277493522891
 30
0.0
 11
256.8532759784126
 21
128.9978428955039
 31
0.0
  0
LINE
  5
2A9
330
2A4
100
AcDbEntity
  8
NoLayerName_001
  6
Continuous
 62
     0
370
    25
100
AcDbLine
 10
278.8532759784126
 20
130.1978428955039
 30
0.0
 11
258.8532759784126
 21
130.1978428955039
 31
0.0
  0
INSERT
  5
2AA
330
2A4
100
AcDbEntity
  8
NoLayerName_001
 62
     0
370
    25
100
AcDbBlockReference
  2
_OPEN30
 10
280.8532759784126
 20
130.1978428955039
 30
0.0
 41
2.0
 42
2.0
 43
2.0
  0
INSERT
  5
2AB
330
2A4
100
AcDbEntity
  8
NoLayerName_001
 62
     0
370
    25
100
AcDbBlockReference
  2
_OPEN30
 10
256.8532759784126
 20
130.1978428955039
 30
0.0
 41
2.0
 42
2.0
 43
2.0
 50
180.0
  0
MTEXT
  5
2AC
330
2A4
100
AcDbEntity
  8
NoLayerName_001
 62
     0
370
    25
100
AcDbMText
 10
268.8532759784126
 20
132.9478428955039
 30
0.0
 40
3.5
 41
0.0
 71
     5
 72
     1
  1
\W0.8000;24
 73
     1
 44
1.0
  0
POINT
  5
2AD
330
2A4
100
AcDbEntity
  8
Defpoints
 62
     0
100
AcDbPoint
 10
280.8532759784126
 20
172.5527493522891
 30
0.0
  0
POINT
  5
2AE
330
2A4
100
AcDbEntity
  8
Defpoints
 62
     0
100
AcDbPoint
 10
256.8532759784126
 20
172.5527493522891
 30
0.0
  0
POINT
  5
2AF
330
2A4
100
AcDbEntity
  8
Defpoints
 62
     0
100
AcDbPoint
 10
256.8532759784126
 20
130.1978428955039
 30
0.0
  0
ENDBLK
  5
2A6
330
2A4
100
AcDbEntity
  8
0
100
AcDbBlockEnd
  0
BLOCK
  5
2B3
330
2B2
100
AcDbEntity
  8
0
100
AcDbBlockBegin
  2
*D7
 70
     1
 10
0.0
 20
0.0
 30
0.0
  3
*D7
  1
*D7
  0
LINE
  5
2B5
330
2B2
100
AcDbEntity
  8
NoLayerName_001
  6
Continuous
 62
     0
370
    25
100
AcDbLine
 10
137.8532759784127
 20
223.6277493522891
 30
0.0
 11
137.8532759784126
 21
118.9978428955039
 31
0.0
  0
LINE
  5
2B6
330
2B2
100
AcDbEntity
  8
NoLayerName_001
  6
Continuous
 62
     0
370
    25
100
AcDbLine
 10
119.8532759784127
 20
224.8296731409358
 30
0.0
 11
119.8532759784126
 21
118.9978428955039
 31
0.0
  0
LINE
  5
2B7
330
2B2
100
AcDbEntity
  8
NoLayerName_001
  6
Continuous
 62
     0
370
    25
100
AcDbLine
 10
135.8532759784126
 20
120.1978428955039
 30
0.0
 11
121.8532759784126
 21
120.1978428955039
 31
0.0
  0
INSERT
  5
2B8
330
2B2
100
AcDbEntity
  8
NoLayerName_001
 62
     0
370
    25
100
AcDbBlockReference
  2
_OPEN30
 10
137.8532759784126
 20
120.1978428955039
 30
0.0
 41
2.0
 42
2.0
 43
2.0
  0
INSERT
  5
2B9
330
2B2
100
AcDbEntity
  8
NoLayerName_001
 62
     0
370
    25
100
AcDbBlockReference
  2
_OPEN30
 10
119.8532759784126
 20
120.1978428955039
 30
0.0
 41
2.0
 42
2.0
 43
2.0
 50
180.0
  0
MTEXT
  5
2BA
330
2B2
100
AcDbEntity
  8
NoLayerName_001
 62
     0
370
    25
100
AcDbMText
 10
128.8532759784127
 20
122.9478428955039
 30
0.0
 40
3.5
 41
0.0
 71
     5
 72
     1
  1
\W0.8000;18
 73
     1
 44
1.0
  0
POINT
  5
2BB
330
2B2
100
AcDbEntity
  8
Defpoints
 62
     0
100
AcDbPoint
 10
137.8532759784127
 20
224.2527493522891
 30
0.0
  0
POINT
  5
2BC
330
2B2
100
AcDbEntity
  8
Defpoints
 62
     0
100
AcDbPoint
 10
119.8532759784127
 20
225.4546731409358
 30
0.0
  0
POINT
  5
2BD
330
2B2
100
AcDbEntity
  8
Defpoints
 62
     0
100
AcDbPoint
 10
119.8532759784126
 20
120.1978428955039
 30
0.0
  0
ENDBLK
  5
2B4
330
2B2
100
AcDbEntity
  8
0
100
AcDbBlockEnd
  0
BLOCK
  5
2C1
330
2C0
100
AcDbEntity
  8
0
100
AcDbBlockBegin
  2
*D8
 70
     1
 10
0.0
 20
0.0
 30
0.0
  3
*D8
  1
*D8
  0
LINE
  5
2C3
330
2C0
100
AcDbEntity
  8
NoLayerName_001
  6
Continuous
 62
     0
370
    25
100
AcDbLine
 10
137.8532759784127
 20
223.6277493522891
 30
0.0
 11
137.8532759784127
 21
118.9978428955039
 31
0.0
  0
LINE
  5
2C4
330
2C0
100
AcDbEntity
  8
NoLayerName_001
  6
Continuous
 62
     0
370
    25
100
AcDbLine
 10
167.8532759784127
 20
213.9277493522891
 30
0.0
 11
167.8532759784127
 21
118.9978428955039
 31
0.0
  0
LINE
  5
2C5
330
2C0
100
AcDbEntity
  8
NoLayerName_001
  6
Continuous
 62
     0
370
    25
100
AcDbLine
 10
139.8532759784127
 20
120.1978428955039
 30
0.0
 11
165.8532759784127
 21
120.1978428955039
 31
0.0
  0
INSERT
  5
2C6
330
2C0
100
AcDbEntity
  8
NoLayerName_001
 62
     0
370
    25
100
AcDbBlockReference
  2
_OPEN30
 10
137.8532759784127
 20
120.1978428955039
 30
0.0
 41
2.0
 42
2.0
 43
2.0
 50
180.0
  0
INSERT
  5
2C7
330
2C0
100
AcDbEntity
  8
NoLayerName_001
 62
     0
370
    25
100
AcDbBlockReference
  2
_OPEN30
 10
167.8532759784127
 20
120.1978428955039
 30
0.0
 41
2.0
 42
2.0
 43
2.0
  0
MTEXT
  5
2C8
330
2C0
100
AcDbEntity
  8
NoLayerName_001
 62
     0
370
    25
100
AcDbMText
 10
152.8532759784127
 20
122.9478428955039
 30
0.0
 40
3.5
 41
0.0
 71
     5
 72
     1
  1
\W0.8000;30
 73
     1
 44
1.0
  0
POINT
  5
2C9
330
2C0
100
AcDbEntity
  8
Defpoints
 62
     0
100
AcDbPoint
 10
137.8532759784127
 20
224.2527493522891
 30
0.0
  0
POINT
  5
2CA
330
2C0
100
AcDbEntity
  8
Defpoints
 62
     0
100
AcDbPoint
 10
167.8532759784127
 20
214.5527493522891
 30
0.0
  0
POINT
  5
2CB
330
2C0
100
AcDbEntity
  8
Defpoints
 62
     0
100
AcDbPoint
 10
167.8532759784127
 20
120.1978428955039
 30
0.0
  0
ENDBLK
  5
2C2
330
2C0
100
AcDbEntity
  8
0
100
AcDbBlockEnd
  0
BLOCK
  5
2CF
330
2CE
100
AcDbEntity
  8
0
100
AcDbBlockBegin
  2
*D9
 70
     1
 10
0.0
 20
0.0
 30
0.0
  3
*D9
  1
*D9
  0
LINE
  5
2D1
330
2CE
100
AcDbEntity
  8
NoLayerName_001
  6
Continuous
 62
     0
370
    25
100
AcDbLine
 10
256.8532759784126
 20
171.9277493522891
 30
0.0
 11
256.8532759784126
 21
118.9978428955039
 31
0.0
  0
LINE
  5
2D2
330
2CE
100
AcDbEntity
  8
NoLayerName_001
  6
Continuous
 62
     0
370
    25
100
AcDbLine
 10
167.8532759784127
 20
213.9277493522891
 30
0.0
 11
167.8532759784127
 21
118.997842895504
 31
0.0
  0
LINE
  5
2D3
330
2CE
100
AcDbEntity
  8
NoLayerName_001
  6
Continuous
 62
     0
370
    25
100
AcDbLine
 10
254.8532759784126
 20
120.1978428955039
 30
0.0
 11
169.8532759784127
 21
120.1978428955039
 31
0.0
  0
INSERT
  5
2D4
330
2CE
100
AcDbEntity
  8
NoLayerName_001
 62
     0
370
    25
100
AcDbBlockReference
  2
_OPEN30
 10
256.8532759784126
 20
120.1978428955039
 30
0.0
 41
2.0
 42
2.0
 43
2.0
 50
360.0
  0
INSERT
  5
2D5
330
2CE
100
AcDbEntity
  8
NoLayerName_001
 62
     0
370
    25
100
AcDbBlockReference
  2
_OPEN30
 10
167.8532759784127
 20
120.1978428955039
 30
0.0
 41
2.0
 42
2.0
 43
2.0
 50
180.0
  0
MTEXT
  5
2D6
330
2CE
100
AcDbEntity
  8
NoLayerName_001
 62
     0
370
    25
100
AcDbMText
 10
212.3532759784127
 20
122.9478428955039
 30
0.0
 40
3.5
 41
0.0
 71
     5
 72
     1
  1
\W0.8000;89
 73
     1
 44
1.0
  0
POINT
  5
2D7
330
2CE
100
AcDbEntity
  8
Defpoints
 62
     0
100
AcDbPoint
 10
256.8532759784126
 20
172.5527493522891
 30
0.0
  0
POINT
  5
2D8
330
2CE
100
AcDbEntity
  8
Defpoints
 62
     0
100
AcDbPoint
 10
167.8532759784127
 20
214.5527493522891
 30
0.0
  0
POINT
  5
2D9
330
2CE
100
AcDbEntity
  8
Defpoints
 62
     0
100
AcDbPoint
 10
167.8532759784127
 20
120.1978428955039
 30
0.0
  0
ENDBLK
  5
2D0
330
2CE
100
AcDbEntity
  8
0
100
AcDbBlockEnd
  0
BLOCK
  5
2DD
330
2DC
100
AcDbEntity
  8
0
100
AcDbBlockBegin
  2
*D10
 70
     1
 10
0.0
 20
0.0
 30
0.0
  3
*D10
  1
*D10
  0
LINE
  5
2DF
330
2DC
100
AcDbEntity
  8
NoLayerName_001
  6
Continuous
 62
     0
370
    25
100
AcDbLine
 10
351.8532759784126
 20
195.4277493522892
 30
0.0
 11
351.8532759784126
 21
118.9978428955039
 31
0.0
  0
LINE
  5
2E0
330
2DC
100
AcDbEntity
  8
NoLayerName_001
  6
Continuous
 62
     0
370
    25
100
AcDbLine
 10
256.8532759784126
 20
171.9277493522891
 30
0.0
 11
256.8532759784126
 21
118.9978428955039
 31
0.0
  0
LINE
  5
2E1
330
2DC
100
AcDbEntity
  8
NoLayerName_001
  6
Continuous
 62
     0
370
    25
100
AcDbLine
 10
349.8532759784126
 20
120.1978428955039
 30
0.0
 11
258.8532759784126
 21
120.1978428955039
 31
0.0
  0
INSERT
  5
2E2
330
2DC
100
AcDbEntity
  8
NoLayerName_001
 62
     0
370
    25
100
AcDbBlockReference
  2
_OPEN30
 10
351.8532759784126
 20
120.1978428955039
 30
0.0
 41
2.0
 42
2.0
 43
2.0
 50
360.0
  0
INSERT
  5
2E3
330
2DC
100
AcDbEntity
  8
NoLayerName_001
 62
     0
370
    25
100
AcDbBlockReference
  2
_OPEN30
 10
256.8532759784126
 20
120.1978428955039
 30
0.0
 41
2.0
 42
2.0
 43
2.0
 50
180.0
  0
MTEXT
  5
2E4
330
2DC
100
AcDbEntity
  8
NoLayerName_001
 62
     0
370
    25
100
AcDbMText
 10
304.3532759784126
 20
122.9478428955039
 30
0.0
 40
3.5
 41
0.0
 71
     5
 72
     1
  1
\W0.8000;95
 73
     1
 44
1.0
  0
POINT
  5
2E5
330
2DC
100
AcDbEntity
  8
Defpoints
 62
     0
100
AcDbPoint
 10
351.8532759784126
 20
196.0527493522892
 30
0.0
  0
POINT
  5
2E6
330
2DC
100
AcDbEntity
  8
Defpoints
 62
     0
100
AcDbPoint
 10
256.8532759784126
 20
172.5527493522891
 30
0.0
  0
POINT
  5
2E7
330
2DC
100
AcDbEntity
  8
Defpoints
 62
     0
100
AcDbPoint
 10
256.8532759784126
 20
120.1978428955039
 30
0.0
  0
ENDBLK
  5
2DE
330
2DC
100
AcDbEntity
  8
0
100
AcDbBlockEnd
  0
BLOCK
  5
2EB
330
2EA
100
AcDbEntity
  8
0
100
AcDbBlockBegin
  2
*D11
 70
     1
 10
0.0
 20
0.0
 30
0.0
  3
*D11
  1
*D11
  0
LINE
  5
2ED
330
2EA
100
AcDbEntity
  8
NoLayerName_001
  6
Continuous
 62
     0
370
    25
100
AcDbLine
 10
296.9782759784126
 20
224.5527493522891
 30
0.0
 11
312.5363549306101
 21
224.5527493522891
 31
0.0
  0
LINE
  5
2EE
330
2EA
100
AcDbEntity
  8
NoLayerName_001
  6
Continuous
 62
     0
370
    25
100
AcDbLine
 10
296.9782759784126
 20
235.5527493522891
 30
0.0
 11
312.5363549306101
 21
235.5527493522891
 31
0.0
  0
LINE
  5
2EF
330
2EA
100
AcDbEntity
  8
NoLayerName_001
  6
Continuous
 62
     0
370
    25
100
AcDbLine
 10
311.3363549306101
 20
235.5527493522891
 30
0.0
 11
311.3363549306101
 21
263.5349602666481
 31
0.0
  0
LINE
  5
2F0
330
2EA
100
AcDbEntity
  8
NoLayerName_001
  6
Continuous
 62
     0
370
    25
100
AcDbLine
 10
311.3363549306101
 20
226.5527493522891
 30
0.0
 11
311.3363549306101
 21
233.5527493522891
 31
0.0
  0
INSERT
  5
2F1
330
2EA
100
AcDbEntity
  8
NoLayerName_001
 62
     0
370
    25
100
AcDbBlockReference
  2
_OPEN30
 10
311.3363549306101
 20
224.5527493522891
 30
0.0
 41
2.0
 42
2.0
 43
2.0
 50
270.0
  0
INSERT
  5
2F2
330
2EA
100
AcDbEntity
  8
NoLayerName_001
 62
     0
370
    25
100
AcDbBlockReference
  2
_OPEN30
 10
311.3363549306101
 20
235.5527493522891
 30
0.0
 41
2.0
 42
2.0
 43
2.0
 50
90.0
  0
MTEXT
  5
2F3
330
2EA
100
AcDbEntity
  8
NoLayerName_001
 62
     0
370
    25
100
AcDbMText
 10
308.5863549306101
 20
256.5349602666481
 30
0.0
 40
3.5
 41
0.0
 71
     5
 72
     1
  1
\W0.8000;φ11Ｈ7
 11
0.0
 21
1.0
 31
0.0
 73
     1
 44
1.0
  0
POINT
  5
2F4
330
2EA
100
AcDbEntity
  8
Defpoints
 62
     0
100
AcDbPoint
 10
296.3532759784126
 20
224.5527493522891
 30
0.0
  0
POINT
  5
2F5
330
2EA
100
AcDbEntity
  8
Defpoints
 62
     0
100
AcDbPoint
 10
296.3532759784126
 20
235.5527493522891
 30
0.0
  0
POINT
  5
2F6
330
2EA
100
AcDbEntity
  8
Defpoints
 62
     0
100
AcDbPoint
 10
311.3363549306101
 20
235.5527493522891
 30
0.0
  0
ENDBLK
  5
2EC
330
2EA
100
AcDbEntity
  8
0
100
AcDbBlockEnd
  0
BLOCK
  5
2FA
330
2F9
100
AcDbEntity
  8
0
100
AcDbBlockBegin
  2
*D12
 70
     1
 10
0.0
 20
0.0
 30
0.0
  3
*D12
  1
*D12
  0
LINE
  5
2FC
330
2F9
100
AcDbEntity
  8
NoLayerName_001
  6
Continuous
 62
     0
370
    25
100
AcDbLine
 10
120.7282759784127
 20
225.0527493522891
 30
0.0
 11
95.04636375679111
 21
225.0527493522891
 31
0.0
  0
LINE
  5
2FD
330
2F9
100
AcDbEntity
  8
NoLayerName_001
  6
Continuous
 62
     0
370
    25
100
AcDbLine
 10
120.7282759784127
 20
235.0527493522891
 30
0.0
 11
95.04636375679111
 21
235.0527493522891
 31
0.0
  0
LINE
  5
2FE
330
2F9
100
AcDbEntity
  8
NoLayerName_001
  6
Continuous
 62
     0
370
    25
100
AcDbLine
 10
96.24636375679111
 20
227.0527493522891
 30
0.0
 11
96.24636375679111
 21
233.0527493522891
 31
0.0
  0
INSERT
  5
2FF
330
2F9
100
AcDbEntity
  8
NoLayerName_001
 62
     0
370
    25
100
AcDbBlockReference
  2
_OPEN30
 10
96.24636375679111
 20
225.0527493522891
 30
0.0
 41
2.0
 42
2.0
 43
2.0
 50
270.0
  0
INSERT
  5
300
330
2F9
100
AcDbEntity
  8
NoLayerName_001
 62
     0
370
    25
100
AcDbBlockReference
  2
_OPEN30
 10
96.24636375679111
 20
235.0527493522891
 30
0.0
 41
2.0
 42
2.0
 43
2.0
 50
90.0
  0
MTEXT
  5
301
330
2F9
100
AcDbEntity
  8
NoLayerName_001
 62
     0
370
    25
100
AcDbMText
 10
93.49636375679111
 20
230.0527492757942
 30
0.0
 40
3.5
 41
0.0
 71
     5
 72
     1
  1
\W0.8000;φ10ｆ7
 11
0.0
 21
1.0
 31
0.0
 73
     1
 44
1.0
  0
POINT
  5
302
330
2F9
100
AcDbEntity
  8
Defpoints
 62
     0
100
AcDbPoint
 10
121.3532759784127
 20
225.0527493522891
 30
0.0
  0
POINT
  5
303
330
2F9
100
AcDbEntity
  8
Defpoints
 62
     0
100
AcDbPoint
 10
121.3532759784127
 20
235.0527493522891
 30
0.0
  0
POINT
  5
304
330
2F9
100
AcDbEntity
  8
Defpoints
 62
     0
100
AcDbPoint
 10
96.24636375679111
 20
235.0527493522891
 30
0.0
  0
ENDBLK
  5
2FB
330
2F9
100
AcDbEntity
  8
0
100
AcDbBlockEnd
  0
BLOCK
  5
347
330
346
100
AcDbEntity
  8
0
100
AcDbBlockBegin
  2
*D13
 70
     1
 10
0.0
 20
0.0
 30
0.0
  3
*D13
  1
*D13
  0
LINE
  5
349
330
346
100
AcDbEntity
  8
NoLayerName_001
  6
Continuous
 62
     0
370
    25
100
AcDbLine
 10
522.0870790365922
 20
241.779575843857
 30
0.0
 11
434.1613935871932
 21
218.3259228607213
 31
0.0
  0
MTEXT
  5
34A
330
346
100
AcDbEntity
  8
NoLayerName_001
 62
     0
370
    25
100
AcDbMText
 10
505.687873711287
 20
240.2513390128091
 30
0.0
 40
3.5
 41
0.0
 71
     5
 72
     1
  1
\W0.8000;%%c95
 11
0.9662163236197691
 21
0.2577324503641282
 31
0.0
 73
     1
 44
1.0
  0
INSERT
  5
34B
330
346
100
AcDbEntity
  8
NoLayerName_001
 62
     0
370
    25
100
AcDbBlockReference
  2
_OPEN30
 10
432.2289609399537
 20
217.810457959993
 30
0.0
 41
2.0
 42
2.0
 43
2.0
 50
194.9355562053335
  0
INSERT
  5
34C
330
346
100
AcDbEntity
  8
NoLayerName_001
 62
     0
370
    25
100
AcDbBlockReference
  2
_OPEN30
 10
524.0195116838318
 20
242.2950407445852
 30
0.0
 41
2.0
 42
2.0
 43
2.0
 50
14.93555620533345
  0
POINT
  5
34D
330
346
100
AcDbEntity
  8
Defpoints
 62
     0
100
AcDbPoint
 10
524.0195116838318
 20
242.2950407445852
 30
0.0
  0
POINT
  5
34E
330
346
100
AcDbEntity
  8
Defpoints
 62
     0
100
AcDbPoint
 10
432.2289609399537
 20
217.810457959993
 30
0.0
  0
ENDBLK
  5
348
330
346
100
AcDbEntity
  8
0
100
AcDbBlockEnd
  0
BLOCK
  5
350
330
34F
100
AcDbEntity
  8
0
100
AcDbBlockBegin
  2
DIM_0001
 70
     0
 10
0.0
 20
0.0
 30
0.0
  3
DIM_0001
  1
DIM_0001
  0
TEXT
  5
352
330
34F
100
AcDbEntity
  8
0
  6
Continuous
 62
     4
370
    50
100
AcDbText
 10
12.46928774636427
 20
26.38574174231167
 30
0.0
 40
4.0
  1
６－９キリ通シ
 41
0.8333333333333333
100
AcDbText
  0
LWPOLYLINE
  5
353
330
34F
100
AcDbEntity
  8
0
  6
Continuous
 62
     3
370
    25
100
AcDbPolyline
 90
        3
 70
     0
 43
0.0
 10
1.311820831534419
 20
1.601970841117293
 10
-0.0000043924005126
 20
0.0000027825262237
 10
0.3350855475567869
 20
2.0432604292848
  0
LWPOLYLINE
  5
354
330
34F
100
AcDbEntity
  8
0
  6
Continuous
 62
     3
370
    25
100
AcDbPolyline
 90
        3
 70
     0
 43
0.0
 10
-0.0000043924005126
 20
0.0000027825262237
 10
11.46928772252238
 20
25.38574174231164
 10
53.46928777020617
 20
25.38574174231164
  0
TEXT
  5
355
330
34F
100
AcDbEntity
  8
0
  6
Continuous
 62
     4
370
    50
100
AcDbText
 10
12.46928774636427
 20
20.38574174231167
 30
0.0
 40
4.0
  1
１４深ザグリ、深サ９
 41
0.8333333333333335
100
AcDbText
  0
LWPOLYLINE
  5
356
330
34F
100
AcDbEntity
  8
0
  6
Continuous
 62
     3
370
    25
100
AcDbPolyline
 90
        2
 70
     0
 43
0.0
 10
11.46928772252238
 20
19.38574174231167
 10
53.46928777020617
 20
19.38574174231167
  0
ENDBLK
  5
351
330
34F
100
AcDbEntity
  8
0
100
AcDbBlockEnd
  0
BLOCK
  5
363
330
362
100
AcDbEntity
  8
0
100
AcDbBlockBegin
  2
*D15
 70
     1
 10
0.0
 20
0.0
 30
0.0
  3
*D15
  1
*D15
  0
LINE
  5
365
330
362
100
AcDbEntity
  8
NoLayerName_001
  6
Continuous
 62
     0
370
    25
100
AcDbLine
 10
278.8532759784126
 20
236.277749352289
 30
0.0
 11
278.8532759784126
 21
321.3978428955039
 31
0.0
  0
LINE
  5
366
330
362
100
AcDbEntity
  8
NoLayerName_001
  6
Continuous
 62
     0
370
    25
100
AcDbLine
 10
296.8532759784126
 20
239.1777493522891
 30
0.0
 11
296.8532759784126
 21
321.3978428955039
 31
0.0
  0
LINE
  5
367
330
362
100
AcDbEntity
  8
NoLayerName_001
  6
Continuous
 62
     0
370
    25
100
AcDbLine
 10
280.8532759784126
 20
320.1978428955039
 30
0.0
 11
294.8532759784126
 21
320.1978428955039
 31
0.0
  0
INSERT
  5
368
330
362
100
AcDbEntity
  8
NoLayerName_001
 62
     0
370
    25
100
AcDbBlockReference
  2
_OPEN30
 10
278.8532759784126
 20
320.1978428955039
 30
0.0
 41
2.0
 42
2.0
 43
2.0
 50
180.0
  0
INSERT
  5
369
330
362
100
AcDbEntity
  8
NoLayerName_001
 62
     0
370
    25
100
AcDbBlockReference
  2
_OPEN30
 10
296.8532759784126
 20
320.1978428955039
 30
0.0
 41
2.0
 42
2.0
 43
2.0
  0
MTEXT
  5
36A
330
362
100
AcDbEntity
  8
NoLayerName_001
 62
     0
370
    25
100
AcDbMText
 10
287.8532759784126
 20
322.9478428955039
 30
0.0
 40
3.5
 41
0.0
 71
     5
 72
     1
  1
\W0.8000;18
 73
     1
 44
1.0
  0
POINT
  5
36B
330
362
100
AcDbEntity
  8
Defpoints
 62
     0
100
AcDbPoint
 10
278.8532759784126
 20
235.652749352289
 30
0.0
  0
POINT
  5
36C
330
362
100
AcDbEntity
  8
Defpoints
 62
     0
100
AcDbPoint
 10
296.8532759784126
 20
238.5527493522891
 30
0.0
  0
POINT
  5
36D
330
362
100
AcDbEntity
  8
Defpoints
 62
     0
100
AcDbPoint
 10
296.8532759784126
 20
320.1978428955039
 30
0.0
  0
ENDBLK
  5
364
330
362
100
AcDbEntity
  8
0
100
AcDbBlockEnd
  0
BLOCK
  5
371
330
370
100
AcDbEntity
  8
0
100
AcDbBlockBegin
  2
*D16
 70
     1
 10
0.0
 20
0.0
 30
0.0
  3
*D16
  1
*D16
  0
LINE
  5
373
330
370
100
AcDbEntity
  8
NoLayerName_001
  6
Continuous
 62
     0
370
    25
100
AcDbLine
 10
266.8532759784126
 20
235.9277493522891
 30
0.0
 11
266.8532759784126
 21
321.3978428955039
 31
0.0
  0
LINE
  5
374
330
370
100
AcDbEntity
  8
NoLayerName_001
  6
Continuous
 62
     0
370
    25
100
AcDbLine
 10
278.8532759784126
 20
236.277749352289
 30
0.0
 11
278.8532759784126
 21
321.3978428955039
 31
0.0
  0
LINE
  5
375
330
370
100
AcDbEntity
  8
NoLayerName_001
  6
Continuous
 62
     0
370
    25
100
AcDbLine
 10
268.8532759784126
 20
320.1978428955039
 30
0.0
 11
276.8532759784126
 21
320.1978428955039
 31
0.0
  0
INSERT
  5
376
330
370
100
AcDbEntity
  8
NoLayerName_001
 62
     0
370
    25
100
AcDbBlockReference
  2
_OPEN30
 10
266.8532759784126
 20
320.1978428955039
 30
0.0
 41
2.0
 42
2.0
 43
2.0
 50
180.0
  0
INSERT
  5
377
330
370
100
AcDbEntity
  8
NoLayerName_001
 62
     0
370
    25
100
AcDbBlockReference
  2
_OPEN30
 10
278.8532759784126
 20
320.1978428955039
 30
0.0
 41
2.0
 42
2.0
 43
2.0
  0
MTEXT
  5
378
330
370
100
AcDbEntity
  8
NoLayerName_001
 62
     0
370
    25
100
AcDbMText
 10
272.8532759784126
 20
322.9478428955039
 30
0.0
 40
3.5
 41
0.0
 71
     5
 72
     1
  1
\W0.8000;12
 73
     1
 44
1.0
  0
POINT
  5
379
330
370
100
AcDbEntity
  8
Defpoints
 62
     0
100
AcDbPoint
 10
266.8532759784126
 20
235.3027493522891
 30
0.0
  0
POINT
  5
37A
330
370
100
AcDbEntity
  8
Defpoints
 62
     0
100
AcDbPoint
 10
278.8532759784126
 20
235.652749352289
 30
0.0
  0
POINT
  5
37B
330
370
100
AcDbEntity
  8
Defpoints
 62
     0
100
AcDbPoint
 10
278.8532759784126
 20
320.1978428955039
 30
0.0
  0
ENDBLK
  5
372
330
370
100
AcDbEntity
  8
0
100
AcDbBlockEnd
  0
BLOCK
  5
37D
330
37C
100
AcDbEntity
  8
0
100
AcDbBlockBegin
  2
DIM_0002
 70
     0
 10
0.0
 20
0.0
 30
0.0
  3
DIM_0002
  1
DIM_0002
  0
TEXT
  5
37F
330
37C
100
AcDbEntity
  8
0
  6
Continuous
 62
     4
370
    50
100
AcDbText
 10
0.9999955515086469
 20
6.499997643466742
 30
0.0
 40
3.5
  1
ＭＡＸ　９０
 41
0.8333333333333333
100
AcDbText
  0
LWPOLYLINE
  5
380
330
37C
100
AcDbEntity
  8
0
  6
Continuous
 62
     3
370
    25
100
AcDbPolyline
 90
        3
 70
     0
 43
0.0
 10
36.76808240483791
 20
17.78648844669972
 10
38.25846406489117
 20
19.22382959836654
 10
37.68642626178402
 20
17.23386481709167
  0
LWPOLYLINE
  5
381
330
37C
100
AcDbEntity
  8
0
  6
Continuous
 62
     3
370
    25
100
AcDbPolyline
 90
        3
 70
     0
 43
0.0
 10
38.25846406489117
 20
19.22382959836654
 10
29.99999555150865
 20
5.499997643466742
 10
-0.0000044484913531
 20
5.499997643466742
  0
TEXT
  5
382
330
37C
100
AcDbEntity
  8
0
  6
Continuous
 62
     4
370
    50
100
AcDbText
 10
0.9999955515086469
 20
0.9999976434667417
 30
0.0
 40
3.5
  1
ＭＩＮ　８６．５
 41
0.8333333333333334
100
AcDbText
  0
LWPOLYLINE
  5
383
330
37C
100
AcDbEntity
  8
0
  6
Continuous
 62
     3
370
    25
100
AcDbPolyline
 90
        2
 70
     0
 43
0.0
 10
29.99999555150865
 20
-0.0000023565332583
 10
-0.0000044484913531
 20
-0.0000023565332583
  0
ENDBLK
  5
37E
330
37C
100
AcDbEntity
  8
0
100
AcDbBlockEnd
  0
BLOCK
  5
388
330
387
100
AcDbEntity
  8
0
100
AcDbBlockBegin
  2
*D18
 70
     1
 10
0.0
 20
0.0
 30
0.0
  3
*D18
  1
*D18
  0
LINE
  5
38A
330
387
100
AcDbEntity
  8
NoLayerName_001
  6
Continuous
 62
     0
370
    25
100
AcDbLine
 10
351.4782759784126
 20
195.0527493522891
 30
0.0
 11
386.0159311143621
 21
195.0527493522892
 31
0.0
  0
LINE
  5
38B
330
387
100
AcDbEntity
  8
NoLayerName_001
  6
Continuous
 62
     0
370
    25
100
AcDbLine
 10
351.4782759784126
 20
265.0527493522891
 30
0.0
 11
386.0159311143621
 21
265.0527493522892
 31
0.0
  0
LINE
  5
38C
330
387
100
AcDbEntity
  8
NoLayerName_001
  6
Continuous
 62
     0
370
    25
100
AcDbLine
 10
384.8159311143621
 20
197.0527493522892
 30
0.0
 11
384.8159311143621
 21
263.0527493522892
 31
0.0
  0
INSERT
  5
38D
330
387
100
AcDbEntity
  8
NoLayerName_001
 62
     0
370
    25
100
AcDbBlockReference
  2
_OPEN30
 10
384.8159311143621
 20
195.0527493522892
 30
0.0
 41
2.0
 42
2.0
 43
2.0
 50
270.0
  0
INSERT
  5
38E
330
387
100
AcDbEntity
  8
NoLayerName_001
 62
     0
370
    25
100
AcDbBlockReference
  2
_OPEN30
 10
384.8159311143621
 20
265.0527493522892
 30
0.0
 41
2.0
 42
2.0
 43
2.0
 50
90.0
  0
MTEXT
  5
38F
330
387
100
AcDbEntity
  8
NoLayerName_001
 62
     0
370
    25
100
AcDbMText
 10
382.0659311143621
 20
230.0527492757942
 30
0.0
 40
3.5
 41
0.0
 71
     5
 72
     1
  1
\W0.8000;φ70
 11
0.0
 21
1.0
 31
0.0
 73
     1
 44
1.0
  0
POINT
  5
390
330
387
100
AcDbEntity
  8
Defpoints
 62
     0
100
AcDbPoint
 10
350.8532759784126
 20
195.0527493522891
 30
0.0
  0
POINT
  5
391
330
387
100
AcDbEntity
  8
Defpoints
 62
     0
100
AcDbPoint
 10
350.8532759784126
 20
265.0527493522891
 30
0.0
  0
POINT
  5
392
330
387
100
AcDbEntity
  8
Defpoints
 62
     0
100
AcDbPoint
 10
384.8159311143621
 20
265.0527493522891
 30
0.0
  0
ENDBLK
  5
389
330
387
100
AcDbEntity
  8
0
100
AcDbBlockEnd
  0
BLOCK
  5
3A6
330
3A5
100
AcDbEntity
  8
0
100
AcDbBlockBegin
  2
*D19
 70
     1
 10
0.0
 20
0.0
 30
0.0
  3
*D19
  1
*D19
  0
LINE
  5
3A8
330
3A5
100
AcDbEntity
  8
NoLayerName_001
  6
Continuous
 62
     0
370
    25
100
AcDbLine
 10
186.2282759784127
 20
212.0527493522891
 30
0.0
 11
85.04636375679111
 21
212.0527493522891
 31
0.0
  0
LINE
  5
3A9
330
3A5
100
AcDbEntity
  8
NoLayerName_001
  6
Continuous
 62
     0
370
    25
100
AcDbLine
 10
186.2282759784127
 20
248.0527493522891
 30
0.0
 11
85.04636375679111
 21
248.0527493522891
 31
0.0
  0
LINE
  5
3AA
330
3A5
100
AcDbEntity
  8
NoLayerName_001
  6
Continuous
 62
     0
370
    25
100
AcDbLine
 10
86.24636375679111
 20
214.0527493522891
 30
0.0
 11
86.24636375679111
 21
246.0527493522891
 31
0.0
  0
INSERT
  5
3AB
330
3A5
100
AcDbEntity
  8
NoLayerName_001
 62
     0
370
    25
100
AcDbBlockReference
  2
_OPEN30
 10
86.24636375679111
 20
212.0527493522891
 30
0.0
 41
2.0
 42
2.0
 43
2.0
 50
270.0
  0
INSERT
  5
3AC
330
3A5
100
AcDbEntity
  8
NoLayerName_001
 62
     0
370
    25
100
AcDbBlockReference
  2
_OPEN30
 10
86.24636375679111
 20
248.0527493522891
 30
0.0
 41
2.0
 42
2.0
 43
2.0
 50
90.0
  0
MTEXT
  5
3AD
330
3A5
100
AcDbEntity
  8
NoLayerName_001
 62
     0
370
    25
100
AcDbMText
 10
83.49636375679111
 20
230.0527492757942
 30
0.0
 40
3.5
 41
0.0
 71
     5
 72
     1
  1
\W0.8000;φ36
 11
0.0
 21
1.0
 31
0.0
 73
     1
 44
1.0
  0
POINT
  5
3AE
330
3A5
100
AcDbEntity
  8
Defpoints
 62
     0
100
AcDbPoint
 10
186.8532759784127
 20
212.0527493522891
 30
0.0
  0
POINT
  5
3AF
330
3A5
100
AcDbEntity
  8
Defpoints
 62
     0
100
AcDbPoint
 10
186.8532759784127
 20
248.0527493522891
 30
0.0
  0
POINT
  5
3B0
330
3A5
100
AcDbEntity
  8
Defpoints
 62
     0
100
AcDbPoint
 10
86.24636375679111
 20
248.0527493522891
 30
0.0
  0
ENDBLK
  5
3A7
330
3A5
100
AcDbEntity
  8
0
100
AcDbBlockEnd
  0
BLOCK
  5
3B4
330
3B3
100
AcDbEntity
  8
0
100
AcDbBlockBegin
  2
*D20
 70
     1
 10
0.0
 20
0.0
 30
0.0
  3
*D20
  1
*D20
  0
LINE
  5
3B6
330
3B3
100
AcDbEntity
  8
NoLayerName_001
  6
Continuous
 62
     0
370
    25
100
AcDbLine
 10
251.7282759784127
 20
190.0527493522891
 30
0.0
 11
75.04636375679112
 21
190.0527493522892
 31
0.0
  0
LINE
  5
3B7
330
3B3
100
AcDbEntity
  8
NoLayerName_001
  6
Continuous
 62
     0
370
    25
100
AcDbLine
 10
251.7282759784127
 20
270.0527493522891
 30
0.0
 11
75.04636375679112
 21
270.0527493522892
 31
0.0
  0
LINE
  5
3B8
330
3B3
100
AcDbEntity
  8
NoLayerName_001
  6
Continuous
 62
     0
370
    25
100
AcDbLine
 10
76.24636375679111
 20
192.0527493522892
 30
0.0
 11
76.24636375679111
 21
268.0527493522892
 31
0.0
  0
INSERT
  5
3B9
330
3B3
100
AcDbEntity
  8
NoLayerName_001
 62
     0
370
    25
100
AcDbBlockReference
  2
_OPEN30
 10
76.24636375679111
 20
190.0527493522892
 30
0.0
 41
2.0
 42
2.0
 43
2.0
 50
270.0
  0
INSERT
  5
3BA
330
3B3
100
AcDbEntity
  8
NoLayerName_001
 62
     0
370
    25
100
AcDbBlockReference
  2
_OPEN30
 10
76.24636375679111
 20
270.0527493522892
 30
0.0
 41
2.0
 42
2.0
 43
2.0
 50
90.0
  0
MTEXT
  5
3BB
330
3B3
100
AcDbEntity
  8
NoLayerName_001
 62
     0
370
    25
100
AcDbMText
 10
73.49636375679111
 20
230.0527492757942
 30
0.0
 40
3.5
 41
0.0
 71
     5
 72
     1
  1
\W0.8000;φ80ｈ7
 11
0.0
 21
1.0
 31
0.0
 73
     1
 44
1.0
  0
POINT
  5
3BC
330
3B3
100
AcDbEntity
  8
Defpoints
 62
     0
100
AcDbPoint
 10
252.3532759784127
 20
190.0527493522891
 30
0.0
  0
POINT
  5
3BD
330
3B3
100
AcDbEntity
  8
Defpoints
 62
     0
100
AcDbPoint
 10
252.3532759784127
 20
270.0527493522891
 30
0.0
  0
POINT
  5
3BE
330
3B3
100
AcDbEntity
  8
Defpoints
 62
     0
100
AcDbPoint
 10
76.24636375679111
 20
270.0527493522891
 30
0.0
  0
ENDBLK
  5
3B5
330
3B3
100
AcDbEntity
  8
0
100
AcDbBlockEnd
  0
BLOCK
  5
3C2
330
3C1
100
AcDbEntity
  8
0
100
AcDbBlockBegin
  2
*D21
 70
     1
 10
0.0
 20
0.0
 30
0.0
  3
*D21
  1
*D21
  0
LINE
  5
3C4
330
3C1
100
AcDbEntity
  8
NoLayerName_001
  6
Continuous
 62
     0
370
    25
100
AcDbLine
 10
257.2282759784126
 20
171.5527493522891
 30
0.0
 11
65.04636375679112
 21
171.5527493522892
 31
0.0
  0
LINE
  5
3C5
330
3C1
100
AcDbEntity
  8
NoLayerName_001
  6
Continuous
 62
     0
370
    25
100
AcDbLine
 10
257.2282759784126
 20
288.5527493522891
 30
0.0
 11
65.04636375679114
 21
288.5527493522892
 31
0.0
  0
LINE
  5
3C6
330
3C1
100
AcDbEntity
  8
NoLayerName_001
  6
Continuous
 62
     0
370
    25
100
AcDbLine
 10
66.24636375679111
 20
173.5527493522892
 30
0.0
 11
66.24636375679113
 21
286.5527493522892
 31
0.0
  0
INSERT
  5
3C7
330
3C1
100
AcDbEntity
  8
NoLayerName_001
 62
     0
370
    25
100
AcDbBlockReference
  2
_OPEN30
 10
66.24636375679111
 20
171.5527493522892
 30
0.0
 41
2.0
 42
2.0
 43
2.0
 50
270.0
  0
INSERT
  5
3C8
330
3C1
100
AcDbEntity
  8
NoLayerName_001
 62
     0
370
    25
100
AcDbBlockReference
  2
_OPEN30
 10
66.24636375679113
 20
288.5527493522892
 30
0.0
 41
2.0
 42
2.0
 43
2.0
 50
90.0
  0
MTEXT
  5
3C9
330
3C1
100
AcDbEntity
  8
NoLayerName_001
 62
     0
370
    25
100
AcDbMText
 10
63.49636375679111
 20
230.0527492757942
 30
0.0
 40
3.5
 41
0.0
 71
     5
 72
     1
  1
\W0.8000;φ117
 11
1.214602967111283E-16
 21
1.0
 31
0.0
 73
     1
 44
1.0
  0
POINT
  5
3CA
330
3C1
100
AcDbEntity
  8
Defpoints
 62
     0
100
AcDbPoint
 10
257.8532759784126
 20
171.5527493522891
 30
0.0
  0
POINT
  5
3CB
330
3C1
100
AcDbEntity
  8
Defpoints
 62
     0
100
AcDbPoint
 10
257.8532759784126
 20
288.5527493522891
 30
0.0
  0
POINT
  5
3CC
330
3C1
100
AcDbEntity
  8
Defpoints
 62
     0
100
AcDbPoint
 10
66.24636375679111
 20
288.5527493522891
 30
0.0
  0
ENDBLK
  5
3C3
330
3C1
100
AcDbEntity
  8
0
100
AcDbBlockEnd
  0
BLOCK
  5
44E
330
44B
100
AcDbEntity
  8
0
100
AcDbBlockBegin
  2
SX_DeltaSymbol
 70
     2
 10
0.0
 20
0.0
 30
0.0
  3
SX_DeltaSymbol
  1
SX_DeltaSymbol
  0
LWPOLYLINE
  5
44C
330
44B
100
AcDbEntity
  8
0
  6
ByBlock
 62
     0
370
    -2
100
AcDbPolyline
 90
        3
 70
     1
 43
0.0
 10
-0.5
 20
-0.2886751345948129
 10
0.0
 20
0.5773502691896257
 10
0.5
 20
-0.2886751345948129
  0
ATTDEF
  5
44D
330
44B
100
AcDbEntity
  8
0
100
AcDbText
 10
-0.8571428571428572
 20
-0.2
 30
0.0
 40
0.4
  1
デルタ文字
 72
     4
 11
0.0
 21
0.0
 31
0.0
100
AcDbAttributeDefinition
  3
デルタ文字を入力
  2
デルタ文字
 70
     0
 74
     2
  0
ENDBLK
  5
44F
330
44B
100
AcDbEntity
  8
0
100
AcDbBlockEnd
  0
ENDSEC
  0
SECTION
  2
ENTITIES
  0
POINT
  5
81
330
1F
100
AcDbEntity
  8
NoLayerName_001
  6
Continuous
 62
     7
 60
     1
370
    50
100
AcDbPoint
 10
0.0
 20
0.0
 30
0.0
  0
LINE
  5
82
330
1F
100
AcDbEntity
  8
NoLayerName_001
  6
Continuous
 62
     7
370
    50
100
AcDbLine
 10
251.8532759784127
 20
265.0527493522891
 30
0.0
 11
251.8532759784127
 21
269.5527493522891
 31
0.0
  0
LINE
  5
83
330
1F
100
AcDbEntity
  8
NoLayerName_001
  6
Continuous
 62
     7
370
    50
100
AcDbLine
 10
252.3532759784127
 20
270.0527493522891
 30
0.0
 11
256.287590545034
 21
270.0527493522891
 31
0.0
  0
LINE
  5
84
330
1F
100
AcDbEntity
  8
NoLayerName_001
  6
Continuous
 62
     7
370
    50
100
AcDbLine
 10
256.8532759784126
 20
270.0573328396718
 30
0.0
 11
256.8532759784126
 21
287.5527493522891
 31
0.0
  0
LINE
  5
85
330
1F
100
AcDbEntity
  8
NoLayerName_001
  6
Continuous
 62
     7
370
    50
100
AcDbLine
 10
280.8532759784126
 20
287.5527493522891
 30
0.0
 11
280.8532759784126
 21
267.5527493522891
 31
0.0
  0
LINE
  5
86
330
1F
100
AcDbEntity
  8
NoLayerName_001
  6
Continuous
 62
     7
370
    50
100
AcDbLine
 10
285.5115883735904
 20
265.0527493522891
 30
0.0
 11
334.5532759784127
 21
265.0527493522891
 31
0.0
  0
LINE
  5
87
330
1F
100
AcDbEntity
  8
NoLayerName_001
  6
Continuous
 62
     7
370
    50
100
AcDbLine
 10
255.2875905450341
 20
265.0527493522891
 30
0.0
 11
247.8532759784127
 21
265.0527493522891
 31
0.0
  0
LINE
  5
88
330
1F
100
AcDbEntity
  8
NoLayerName_001
  6
Continuous
 62
     7
370
    50
100
AcDbLine
 10
281.8532759784126
 20
249.9213785023906
 30
0.0
 11
281.8532759784126
 21
245.6027493403681
 31
0.0
  0
LINE
  5
89
330
1F
100
AcDbEntity
  8
NoLayerName_001
  6
Continuous
 62
     7
370
    50
100
AcDbLine
 10
282.3532759784126
 20
248.0527493522891
 30
0.0
 11
285.6032759784126
 21
248.0527493522891
 31
0.0
  0
LINE
  5
8A
330
1F
100
AcDbEntity
  8
NoLayerName_001
  6
Continuous
 62
     7
370
    50
100
AcDbLine
 10
305.9835414339584
 20
248.402749352289
 30
0.0
 11
329.153097336808
 21
248.402749352289
 31
0.0
  0
LINE
  5
8B
330
1F
100
AcDbEntity
  8
NoLayerName_001
  6
Continuous
 62
     7
370
    50
100
AcDbLine
 10
334.8532759784126
 20
264.7527493522891
 30
0.0
 11
334.8532759784126
 21
263.9527493522891
 31
0.0
  0
LINE
  5
8C
330
1F
100
AcDbEntity
  8
NoLayerName_001
  6
Continuous
 62
     7
370
    50
100
AcDbLine
 10
335.2532759784125
 20
263.5527493522891
 30
0.0
 11
336.4532759784125
 21
263.5527493522891
 31
0.0
  0
LINE
  5
8D
330
1F
100
AcDbEntity
  8
NoLayerName_001
  6
Continuous
 62
     7
370
    50
100
AcDbLine
 10
335.8532759784126
 20
264.0527493522891
 30
0.0
 11
350.4532759784126
 21
264.0527493522891
 31
0.0
  0
LINE
  5
8E
330
1F
100
AcDbEntity
  8
NoLayerName_001
  6
Continuous
 62
     7
370
    50
100
AcDbLine
 10
349.8532759784126
 20
252.0527493522891
 30
0.0
 11
349.8532759784126
 21
264.0527493522891
 31
0.0
  0
LINE
  5
8F
330
1F
100
AcDbEntity
  8
NoLayerName_001
  6
Continuous
 62
     7
370
    50
100
AcDbLine
 10
349.8532759784126
 20
252.0527493522891
 30
0.0
 11
329.1530973368079
 21
248.4027493522892
 31
0.0
  0
LINE
  5
90
330
1F
100
AcDbEntity
  8
NoLayerName_001
  6
Continuous
 62
     7
370
    50
100
AcDbLine
 10
348.3532759784126
 20
264.0527493522891
 30
0.0
 11
349.8532759784126
 21
262.5527493522891
 31
0.0
  0
ARC
  5
91
330
1F
100
AcDbEntity
  8
NoLayerName_001
  6
Continuous
 62
     7
370
    50
100
AcDbCircle
 10
349.3532759784126
 20
252.4722991678778
 30
0.0
 40
0.5
100
AcDbArc
 50
280.0000000000002
 51
0.0
  0
LINE
  5
92
330
1F
100
AcDbEntity
  8
NoLayerName_001
  6
Continuous
 62
     7
370
    50
100
AcDbLine
 10
334.5532759784127
 20
265.0527493522891
 30
0.0
 11
334.8532759784127
 21
264.7527493522891
 31
0.0
  0
ARC
  5
93
330
1F
100
AcDbEntity
  8
NoLayerName_001
  6
Continuous
 62
     7
370
    50
100
AcDbCircle
 10
335.2532759784125
 20
263.9527493522891
 30
0.0
 40
0.4000000000000057
100
AcDbArc
 50
180.0
 51
270.0
  0
ARC
  5
94
330
1F
100
AcDbEntity
  8
NoLayerName_001
  6
Continuous
 62
     7
370
    50
100
AcDbCircle
 10
336.4532759784128
 20
263.9527493522891
 30
0.0
 40
0.3999999999999986
100
AcDbArc
 50
270.0
 51
0.0
  0
ARC
  5
95
330
1F
100
AcDbEntity
  8
NoLayerName_001
  6
Continuous
 62
     7
370
    50
100
AcDbCircle
 10
305.9835414339584
 20
246.402749352289
 30
0.0
 40
1.999999999999997
100
AcDbArc
 50
89.99999999999997
 51
124.4115086697698
  0
LINE
  5
96
330
1F
100
AcDbEntity
  8
NoLayerName_001
  6
Continuous
 62
     7
370
    50
100
AcDbLine
 10
279.5948958271222
 20
251.5527493522891
 30
0.0
 11
281.5532759784126
 21
251.5527493522891
 31
0.0
  0
ARC
  5
97
330
1F
100
AcDbEntity
  8
NoLayerName_001
  6
Continuous
 62
     7
370
    50
100
AcDbCircle
 10
281.5532759784127
 20
250.7527493522891
 30
0.0
 40
0.7999999999999972
100
AcDbArc
 50
314.9999999999998
 51
90.0
  0
LINE
  5
98
330
1F
100
AcDbEntity
  8
NoLayerName_001
  6
Continuous
 62
     7
370
    50
100
AcDbLine
 10
281.8532759784126
 20
248.5527493522891
 30
0.0
 11
282.3532759784126
 21
248.0527493522891
 31
0.0
  0
LINE
  5
99
330
1F
100
AcDbEntity
  8
NoLayerName_001
  6
Continuous
 62
     7
370
    50
100
AcDbLine
 10
282.1189614033618
 20
250.1870639273398
 30
0.0
 11
281.8532759784126
 21
249.9213785023906
 31
0.0
  0
ARC
  5
9A
330
1F
100
AcDbEntity
  8
NoLayerName_001
  6
Continuous
 62
     7
370
    50
100
AcDbCircle
 10
279.5948958271222
 20
250.7527493522891
 30
0.0
 40
0.8000000000000009
100
AcDbArc
 50
90.0
 51
157.9756871629581
  0
ARC
  5
9B
330
1F
100
AcDbEntity
  8
NoLayerName_001
  6
Continuous
 62
     7
370
    50
100
AcDbCircle
 10
283.8532759784126
 20
267.5527493522891
 30
0.0
 40
2.999999999999998
100
AcDbArc
 50
180.0
 51
303.5573097619206
  0
ARC
  5
9C
330
1F
100
AcDbEntity
  8
NoLayerName_001
  6
Continuous
 62
     7
370
    50
100
AcDbCircle
 10
279.8532759784126
 20
287.5527493522891
 30
0.0
 40
1.0
100
AcDbArc
 50
0.0
 51
90.0
  0
LINE
  5
9D
330
1F
100
AcDbEntity
  8
NoLayerName_001
  6
Continuous
 62
     7
370
    50
100
AcDbLine
 10
256.8532759784126
 20
287.5527493522891
 30
0.0
 11
257.8532759784126
 21
288.5527493522891
 31
0.0
  0
LINE
  5
9E
330
1F
100
AcDbEntity
  8
NoLayerName_001
  6
Continuous
 62
     7
370
    50
100
AcDbLine
 10
251.8532759784127
 20
269.5527493522891
 30
0.0
 11
252.3532759784127
 21
270.0527493522891
 31
0.0
  0
LINE
  5
9F
330
1F
100
AcDbEntity
  8
NoLayerName_001
  6
Continuous
 62
     7
370
    50
100
AcDbLine
 10
251.8532759784127
 20
265.5527493522891
 30
0.0
 11
252.3532759784127
 21
265.0527493522891
 31
0.0
  0
LINE
  5
A0
330
1F
100
AcDbEntity
  8
NoLayerName_001
  6
CENTER
 62
     3
370
    25
100
AcDbLine
 10
255.0976580008845
 20
277.5527493522891
 30
0.0
 11
282.909280191896
 21
277.5527493522891
 31
0.0
  0
ARC
  5
A1
330
1F
100
AcDbEntity
  8
NoLayerName_001
  6
Continuous
 62
     7
370
    50
100
AcDbCircle
 10
255.9532759784127
 20
265.152749352289
 30
0.0
 40
0.3999999999999992
100
AcDbArc
 50
0.0
 51
135.0
  0
LINE
  5
A2
330
1F
100
AcDbEntity
  8
NoLayerName_001
  6
Continuous
 62
     7
370
    50
100
AcDbLine
 10
256.3532759784126
 20
265.152749352289
 30
0.0
 11
256.3532759784126
 21
263.9527493522891
 31
0.0
  0
ARC
  5
A3
330
1F
100
AcDbEntity
  8
NoLayerName_001
  6
Continuous
 62
     7
370
    50
100
AcDbCircle
 10
255.9532759784127
 20
263.9527493522891
 30
0.0
 40
0.3999999999999986
100
AcDbArc
 50
314.9999999999978
 51
0.0
  0
LINE
  5
A4
330
1F
100
AcDbEntity
  8
NoLayerName_001
  6
Continuous
 62
     7
370
    50
100
AcDbLine
 10
256.2361186951019
 20
263.6699066355998
 30
0.0
 11
255.8532759784126
 21
263.2870639189105
 31
0.0
  0
LINE
  5
A5
330
1F
100
AcDbEntity
  8
NoLayerName_001
  6
Continuous
 62
     7
370
    50
100
AcDbLine
 10
255.6704332617234
 20
265.4355920689785
 30
0.0
 11
255.2875905450341
 21
265.0527493522891
 31
0.0
  0
ARC
  5
A6
330
1F
100
AcDbEntity
  8
NoLayerName_001
  6
Continuous
 62
     7
370
    50
100
AcDbCircle
 10
256.9532759784126
 20
269.9527493522891
 30
0.0
 40
0.3999999999999986
100
AcDbArc
 50
225.0
 51
0.0
  0
LINE
  5
A7
330
1F
100
AcDbEntity
  8
NoLayerName_001
  6
Continuous
 62
     7
370
    50
100
AcDbLine
 10
257.3532759784126
 20
269.9527493522891
 30
0.0
 11
257.3532759784126
 21
270.8870639189105
 31
0.0
  0
ARC
  5
A8
330
1F
100
AcDbEntity
  8
NoLayerName_001
  6
Continuous
 62
     7
370
    50
100
AcDbCircle
 10
256.9532759784126
 20
270.8870639189104
 30
0.0
 40
0.4000000000000042
100
AcDbArc
 50
0.0
 51
45.00000000000216
  0
LINE
  5
A9
330
1F
100
AcDbEntity
  8
NoLayerName_001
  6
Continuous
 62
     7
370
    50
100
AcDbLine
 10
257.2361186951019
 20
271.1699066355998
 30
0.0
 11
256.8532759784126
 21
271.5527493522891
 31
0.0
  0
LINE
  5
AA
330
1F
100
AcDbEntity
  8
NoLayerName_001
  6
Continuous
 62
     7
370
    50
100
AcDbLine
 10
256.6704332617234
 20
269.6699066355998
 30
0.0
 11
256.287590545034
 21
270.0527493522891
 31
0.0
  0
LINE
  5
AB
330
1F
100
AcDbEntity
  8
NoLayerName_001
  6
Continuous
 62
     7
370
    50
100
AcDbLine
 10
257.3532759784126
 20
273.0527493522891
 30
0.0
 11
271.8532759784126
 21
273.0527493522891
 31
0.0
  0
LINE
  5
AC
330
1F
100
AcDbEntity
  8
NoLayerName_001
  6
Continuous
 62
     7
370
    50
100
AcDbLine
 10
271.8532759784126
 20
284.5527493522891
 30
0.0
 11
280.3532759784126
 21
284.5527493522891
 31
0.0
  0
LINE
  5
AD
330
1F
100
AcDbEntity
  8
NoLayerName_001
  6
Continuous
 62
     7
370
    50
100
AcDbLine
 10
271.8532759784126
 20
284.5527493522891
 30
0.0
 11
271.8532759784126
 21
270.5527493522891
 31
0.0
  0
LINE
  5
AE
330
1F
100
AcDbEntity
  8
NoLayerName_001
  6
Continuous
 62
     7
370
    50
100
AcDbLine
 10
256.8532759784126
 20
282.5527493522891
 30
0.0
 11
257.3532759784126
 21
282.0527493522891
 31
0.0
  0
LINE
  5
AF
330
1F
100
AcDbEntity
  8
NoLayerName_001
  6
Continuous
 62
     7
370
    50
100
AcDbLine
 10
257.3532759784126
 20
282.0527493522891
 30
0.0
 11
257.3532759784126
 21
273.0527493522891
 31
0.0
  0
LINE
  5
B0
330
1F
100
AcDbEntity
  8
NoLayerName_001
  6
Continuous
 62
     7
370
    50
100
AcDbLine
 10
280.8532759784126
 20
285.0527493522891
 30
0.0
 11
280.3532759784126
 21
284.5527493522891
 31
0.0
  0
LINE
  5
B1
330
1F
100
AcDbEntity
  8
NoLayerName_001
  6
Continuous
 62
     7
370
    50
100
AcDbLine
 10
280.8532759784126
 20
270.0527493522891
 30
0.0
 11
280.3532759784126
 21
270.5527493522891
 31
0.0
  0
LINE
  5
B2
330
1F
100
AcDbEntity
  8
NoLayerName_001
  6
Continuous
 62
     7
370
    50
100
AcDbLine
 10
280.3532759784126
 20
284.5527493522891
 30
0.0
 11
280.3532759784126
 21
270.5527493522891
 31
0.0
  0
LINE
  5
B3
330
1F
100
AcDbEntity
  8
NoLayerName_001
  6
Continuous
 62
     7
370
    50
100
AcDbLine
 10
256.3532759784126
 20
251.0527493522891
 30
0.0
 11
255.8532759784126
 21
251.341424486884
 31
0.0
  0
LINE
  5
B4
330
1F
100
AcDbEntity
  8
NoLayerName_001
  6
Continuous
 62
     7
370
    50
100
AcDbLine
 10
256.3532759784126
 20
251.0527493522891
 30
0.0
 11
278.8532759784126
 21
251.0527493522891
 31
0.0
  0
LINE
  5
B5
330
1F
100
AcDbEntity
  8
NoLayerName_001
  6
Continuous
 62
     7
370
    50
100
AcDbLine
 10
329.8532759784126
 20
248.5262097381198
 30
0.0
 11
327.5513884678357
 21
246.2243222275429
 31
0.0
  0
LINE
  5
B6
330
1F
100
AcDbEntity
  8
NoLayerName_001
  6
Continuous
 62
     7
370
    50
100
AcDbLine
 10
265.8532759784126
 20
246.0527493522891
 30
0.0
 11
263.8532759784126
 21
244.8980488139099
 31
0.0
  0
LINE
  5
B7
330
1F
100
AcDbEntity
  8
NoLayerName_001
  6
Continuous
 62
     7
370
    50
100
AcDbLine
 10
263.8532759784126
 20
244.8980488139098
 30
0.0
 11
263.8532759784126
 21
242.8027493522891
 31
0.0
  0
LINE
  5
B8
330
1F
100
AcDbEntity
  8
NoLayerName_001
  6
Continuous
 62
     7
370
    50
100
AcDbLine
 10
324.7229613430895
 20
245.0527493522891
 30
0.0
 11
302.510130227905
 21
245.0527493522891
 31
0.0
  0
LINE
  5
B9
330
1F
100
AcDbEntity
  8
NoLayerName_001
  6
Continuous
 62
     7
370
    50
100
AcDbLine
 10
322.5920808228967
 20
243.0527493522891
 30
0.0
 11
264.8532759784126
 21
243.0527493522891
 31
0.0
  0
LINE
  5
BA
330
1F
100
AcDbEntity
  8
NoLayerName_001
  6
Continuous
 62
     7
370
    50
100
AcDbLine
 10
265.8532759784126
 20
246.0527493522891
 30
0.0
 11
277.6032759664917
 21
246.0527493522891
 31
0.0
  0
LINE
  5
BB
330
1F
100
AcDbEntity
  8
NoLayerName_001
  6
Continuous
 62
     3
370
    25
100
AcDbLine
 10
278.4032759784127
 20
245.2527493403682
 30
0.0
 11
264.46763531171
 21
245.2527493403682
 31
0.0
  0
LINE
  5
BC
330
1F
100
AcDbEntity
  8
NoLayerName_001
  6
Continuous
 62
     7
370
    50
100
AcDbLine
 10
278.8532759784126
 20
244.8027493403682
 30
0.0
 11
281.0532759784126
 21
244.8027493403682
 31
0.0
  0
ARC
  5
BD
330
1F
100
AcDbEntity
  8
NoLayerName_001
  6
Continuous
 62
     7
370
    50
100
AcDbCircle
 10
281.0532759784127
 20
245.6027493403681
 30
0.0
 40
0.8000000000000007
100
AcDbArc
 50
270.0
 51
0.0
  0
LINE
  5
BE
330
1F
100
AcDbEntity
  8
NoLayerName_001
  6
Continuous
 62
     7
370
    50
100
AcDbLine
 10
281.8532759784126
 20
247.5527493522891
 30
0.0
 11
282.3532759784126
 21
248.0527493522891
 31
0.0
  0
LINE
  5
BF
330
1F
100
AcDbEntity
  8
NoLayerName_001
  6
Continuous
 62
     7
370
    50
100
AcDbLine
 10
278.8532759784126
 20
244.8027493403682
 30
0.0
 11
277.6032759664917
 21
246.0527493522891
 31
0.0
  0
LINE
  5
C0
330
1F
100
AcDbEntity
  8
NoLayerName_001
  6
Continuous
 62
     7
370
    50
100
AcDbLine
 10
264.8532759784126
 20
243.0527493522891
 30
0.0
 11
263.8532759784126
 21
243.6300996214788
 31
0.0
  0
LINE
  5
C1
330
1F
100
AcDbEntity
  8
NoLayerName_001
  6
Continuous
 62
     7
370
    50
100
AcDbLine
 10
297.8532759784126
 20
248.0527493522891
 30
0.0
 11
299.6817031031588
 21
246.224322227543
 31
0.0
  0
ARC
  5
C2
330
1F
100
AcDbEntity
  8
NoLayerName_001
  6
Continuous
 62
     7
370
    50
100
AcDbCircle
 10
302.5101302279051
 20
249.0527493522891
 30
0.0
 40
4.0
100
AcDbArc
 50
224.9999999999999
 51
270.0
  0
ARC
  5
C3
330
1F
100
AcDbEntity
  8
NoLayerName_001
  6
Continuous
 62
     7
370
    50
100
AcDbCircle
 10
324.7229613430895
 20
249.0527493522891
 30
0.0
 40
3.999999999999996
100
AcDbArc
 50
270.0
 51
315.0000000000001
  0
LINE
  5
C4
330
1F
100
AcDbEntity
  8
NoLayerName_001
  6
Continuous
 62
     7
370
    50
100
AcDbLine
 10
304.8532759784126
 20
248.0527493522891
 30
0.0
 11
304.8532759784126
 21
245.0527493522891
 31
0.0
  0
LINE
  5
C5
330
1F
100
AcDbEntity
  8
NoLayerName_001
  6
Continuous
 62
     7
370
    50
100
AcDbLine
 10
246.8532759784127
 20
264.0527493522891
 30
0.0
 11
246.8532759784127
 21
248.0527493522891
 31
0.0
  0
LINE
  5
C6
330
1F
100
AcDbEntity
  8
NoLayerName_001
  6
Continuous
 62
     7
370
    50
100
AcDbLine
 10
254.8532759784127
 20
265.0527493522891
 30
0.0
 11
255.8532759784127
 21
264.0527493522891
 31
0.0
  0
LINE
  5
C7
330
1F
100
AcDbEntity
  8
NoLayerName_001
  6
Continuous
 62
     7
370
    50
100
AcDbLine
 10
247.8532759784127
 20
265.0527493522891
 30
0.0
 11
246.8532759784127
 21
264.0527493522891
 31
0.0
  0
LINE
  5
C8
330
1F
100
AcDbEntity
  8
NoLayerName_001
  6
Continuous
 62
     7
370
    50
100
AcDbLine
 10
256.8532759784126
 20
250.5527493522891
 30
0.0
 11
256.8532759784126
 21
247.8027493522891
 31
0.0
  0
LINE
  5
C9
330
1F
100
AcDbEntity
  8
NoLayerName_001
  6
Continuous
 62
     7
370
    50
100
AcDbLine
 10
279.3532759784126
 20
250.5527493522891
 30
0.0
 11
279.3532759784126
 21
248.3527493522892
 31
0.0
  0
LINE
  5
CA
330
1F
100
AcDbEntity
  8
NoLayerName_001
  6
Continuous
 62
     7
370
    50
100
AcDbLine
 10
281.5532759784127
 20
248.0527493522891
 30
0.0
 11
279.6532759784126
 21
248.0527493522891
 31
0.0
  0
LINE
  5
CB
330
1F
100
AcDbEntity
  8
NoLayerName_001
  6
Continuous
 62
     7
370
    50
100
AcDbLine
 10
281.3532759784126
 20
246.3027493522891
 30
0.0
 11
279.8532759784126
 21
246.3027493522891
 31
0.0
  0
LINE
  5
CC
330
1F
100
AcDbEntity
  8
NoLayerName_001
  6
Continuous
 62
     7
370
    50
100
AcDbLine
 10
279.8532759784126
 20
246.3027493522891
 30
0.0
 11
279.8532759784126
 21
245.0027493403682
 31
0.0
  0
LINE
  5
CD
330
1F
100
AcDbEntity
  8
NoLayerName_001
  6
Continuous
 62
     7
370
    50
100
AcDbLine
 10
279.8532759784126
 20
246.3027493522891
 30
0.0
 11
278.8032759664917
 21
245.2527493403682
 31
0.0
  0
LINE
  5
CE
330
1F
100
AcDbEntity
  8
NoLayerName_001
  6
Continuous
 62
     3
370
    25
100
AcDbLine
 10
277.6032759664918
 20
246.0527493522891
 30
0.0
 11
279.6032759784127
 21
246.0527493522891
 31
0.0
  0
LINE
  5
CF
330
1F
100
AcDbEntity
  8
NoLayerName_001
  6
Continuous
 62
     7
370
    50
100
AcDbLine
 10
278.4032759784127
 20
245.2527493403682
 30
0.0
 11
278.8032759664918
 21
245.2527493403682
 31
0.0
  0
LINE
  5
D0
330
1F
100
AcDbEntity
  8
NoLayerName_001
  6
Continuous
 62
     7
370
    50
100
AcDbLine
 10
278.8032759664917
 20
245.2527493403682
 30
0.0
 11
278.8032759664917
 21
245.0527493522891
 31
0.0
  0
LINE
  5
D1
330
1F
100
AcDbEntity
  8
NoLayerName_001
  6
Continuous
 62
     7
370
    50
100
AcDbLine
 10
281.8532759784126
 20
247.7527493522891
 30
0.0
 11
281.5532759784126
 21
248.0527493522891
 31
0.0
  0
LINE
  5
D2
330
1F
100
AcDbEntity
  8
NoLayerName_001
  6
Continuous
 62
     7
370
    50
100
AcDbLine
 10
278.8532759784126
 20
251.0527493522891
 30
0.0
 11
279.3532759784126
 21
250.5527493522891
 31
0.0
  0
LINE
  5
D3
330
1F
100
AcDbEntity
  8
NoLayerName_001
  6
Continuous
 62
     7
370
    50
100
AcDbLine
 10
281.3532759784126
 20
246.3027493522891
 30
0.0
 11
281.8532759784126
 21
246.591424486884
 31
0.0
  0
LINE
  5
D4
330
1F
100
AcDbEntity
  8
NoLayerName_001
  6
Continuous
 62
     7
370
    50
100
AcDbLine
 10
281.3532759784126
 20
246.3027493522891
 30
0.0
 11
281.3532759784126
 21
245.4244197368466
 31
0.0
  0
LINE
  5
D5
330
1F
100
AcDbEntity
  8
NoLayerName_001
  6
Continuous
 62
     7
370
    50
100
AcDbLine
 10
257.3532759784126
 20
251.0527493522891
 30
0.0
 11
256.8532759784126
 21
250.5527493522891
 31
0.0
  0
LINE
  5
D6
330
1F
100
AcDbEntity
  8
NoLayerName_001
  6
Continuous
 62
     7
370
    50
100
AcDbLine
 10
264.8532759784126
 20
246.3027493522891
 30
0.0
 11
264.8532759784126
 21
245.4753990830995
 31
0.0
  0
LINE
  5
D7
330
1F
100
AcDbEntity
  8
NoLayerName_001
  6
Continuous
 62
     7
370
    50
100
AcDbLine
 10
264.8532759784126
 20
246.3027493522891
 30
0.0
 11
262.6532759784126
 21
246.3027493522891
 31
0.0
  0
LINE
  5
D8
330
1F
100
AcDbEntity
  8
NoLayerName_001
  6
Continuous
 62
     7
370
    50
100
AcDbLine
 10
264.8532759784126
 20
246.3027493522891
 30
0.0
 11
265.9032759903336
 21
245.2527493403682
 31
0.0
  0
LINE
  5
D9
330
1F
100
AcDbEntity
  8
NoLayerName_001
  6
Continuous
 62
     3
370
    25
100
AcDbLine
 10
265.8532759784126
 20
246.0527493522891
 30
0.0
 11
265.1032759784126
 21
246.0527493522891
 31
0.0
  0
ARC
  5
DA
330
1F
100
AcDbEntity
  8
NoLayerName_001
  6
Continuous
 62
     7
370
    50
100
AcDbCircle
 10
262.6532759784126
 20
245.5027493522891
 30
0.0
 40
0.7999999999999972
100
AcDbArc
 50
90.0
 51
180.0
  0
LINE
  5
DB
330
1F
100
AcDbEntity
  8
NoLayerName_001
  6
Continuous
 62
     7
370
    50
100
AcDbLine
 10
246.0893439559125
 20
241.0527493522891
 30
0.0
 11
255.3532759784127
 21
241.0527493522891
 31
0.0
  0
LINE
  5
DC
330
1F
100
AcDbEntity
  8
NoLayerName_001
  6
Continuous
 62
     7
370
    50
100
AcDbLine
 10
246.8532759784127
 20
248.5527493522891
 30
0.0
 11
255.8532759784127
 21
248.5527493522891
 31
0.0
  0
LINE
  5
DD
330
1F
100
AcDbEntity
  8
NoLayerName_001
  6
Continuous
 62
     7
370
    50
100
AcDbLine
 10
255.7532759784126
 20
238.5527493522891
 30
0.0
 11
258.4532759784126
 21
238.5527493522891
 31
0.0
  0
LINE
  5
DE
330
1F
100
AcDbEntity
  8
NoLayerName_001
  6
CENTER
 62
     3
370
    25
100
AcDbLine
 10
287.3532759784126
 20
268.8890529113199
 30
0.0
 11
287.3532759784126
 21
244.5161790971364
 31
0.0
  0
LINE
  5
DF
330
1F
100
AcDbEntity
  8
NoLayerName_001
  6
Continuous
 62
     7
370
    50
100
AcDbLine
 10
292.8532759784126
 20
264.5527493522891
 30
0.0
 11
292.8532759784126
 21
258.0527493522891
 31
0.0
  0
LINE
  5
E0
330
1F
100
AcDbEntity
  8
NoLayerName_001
  6
Continuous
 62
     7
370
    50
100
AcDbLine
 10
281.8532759784126
 20
265.3166813747893
 30
0.0
 11
281.8532759784126
 21
258.0527493522891
 31
0.0
  0
LINE
  5
E1
330
1F
100
AcDbEntity
  8
NoLayerName_001
  6
Continuous
 62
     7
370
    50
100
AcDbLine
 10
282.3532759784126
 20
263.5527493522891
 30
0.0
 11
282.3532759784126
 21
258.0527493522891
 31
0.0
  0
LINE
  5
E2
330
1F
100
AcDbEntity
  8
NoLayerName_001
  6
Continuous
 62
     7
370
    50
100
AcDbLine
 10
292.3532759784126
 20
263.5527493522891
 30
0.0
 11
292.3532759784126
 21
258.0527493522891
 31
0.0
  0
LINE
  5
E3
330
1F
100
AcDbEntity
  8
NoLayerName_001
  6
Continuous
 62
     7
370
    50
100
AcDbLine
 10
292.8532759784126
 20
258.0527493522891
 30
0.0
 11
281.8532759784126
 21
258.0527493522891
 31
0.0
  0
LINE
  5
E4
330
1F
100
AcDbEntity
  8
NoLayerName_001
  6
Continuous
 62
     7
370
    50
100
AcDbLine
 10
291.8532759784126
 20
264.0527493522891
 30
0.0
 11
282.8532759784126
 21
264.0527493522891
 31
0.0
  0
LINE
  5
E5
330
1F
100
AcDbEntity
  8
NoLayerName_001
  6
Continuous
 62
     7
370
    50
100
AcDbLine
 10
293.3532759784126
 20
265.0527493522891
 30
0.0
 11
292.8532759784126
 21
264.5527493522891
 31
0.0
  0
LINE
  5
E6
330
1F
100
AcDbEntity
  8
NoLayerName_001
  6
Continuous
 62
     7
370
    50
100
AcDbLine
 10
292.3532759784126
 20
263.5527493522891
 30
0.0
 11
291.8532759784126
 21
264.0527493522891
 31
0.0
  0
LINE
  5
E7
330
1F
100
AcDbEntity
  8
NoLayerName_001
  6
Continuous
 62
     7
370
    50
100
AcDbLine
 10
282.3532759784126
 20
263.5527493522891
 30
0.0
 11
282.8532759784126
 21
264.0527493522891
 31
0.0
  0
LINE
  5
E8
330
1F
100
AcDbEntity
  8
NoLayerName_001
  6
Continuous
 62
     7
370
    50
100
AcDbLine
 10
292.8532759784126
 20
264.5527493522891
 30
0.0
 11
288.8350550309304
 21
264.5527493522891
 31
0.0
  0
LINE
  5
E9
330
1F
100
AcDbEntity
  8
NoLayerName_001
  6
Continuous
 62
     7
370
    50
100
AcDbLine
 10
292.3532759784126
 20
263.5527493522891
 30
0.0
 11
282.3532759784126
 21
263.5527493522891
 31
0.0
  0
LINE
  5
EA
330
1F
100
AcDbEntity
  8
NoLayerName_001
  6
Continuous
 62
     7
370
    50
100
AcDbLine
 10
290.3532759784126
 20
255.8027493522891
 30
0.0
 11
290.3532759784126
 21
250.8027493522891
 31
0.0
  0
LINE
  5
EB
330
1F
100
AcDbEntity
  8
NoLayerName_001
  6
Continuous
 62
     7
370
    50
100
AcDbLine
 10
284.3532759784126
 20
250.8027493522891
 30
0.0
 11
284.3532759784126
 21
255.8027493522891
 31
0.0
  0
LINE
  5
EC
330
1F
100
AcDbEntity
  8
NoLayerName_001
  6
Continuous
 62
     3
370
    25
100
AcDbLine
 10
284.8532759664918
 20
256.3027493403682
 30
0.0
 11
284.8532759664918
 21
250.30274936421
 31
0.0
  0
LINE
  5
ED
330
1F
100
AcDbEntity
  8
NoLayerName_001
  6
Continuous
 62
     3
370
    25
100
AcDbLine
 10
289.8532758711243
 20
250.3027492450007
 30
0.0
 11
289.8532758711243
 21
256.3027494595774
 31
0.0
  0
LINE
  5
EE
330
1F
100
AcDbEntity
  8
NoLayerName_001
  6
Continuous
 62
     7
370
    50
100
AcDbLine
 10
289.1032759784126
 20
249.5527493522891
 30
0.0
 11
285.6032759784126
 21
249.5527493522891
 31
0.0
  0
LINE
  5
EF
330
1F
100
AcDbEntity
  8
NoLayerName_001
  6
Continuous
 62
     7
370
    50
100
AcDbLine
 10
290.3532759784126
 20
250.8027493522891
 30
0.0
 11
289.1032759784126
 21
249.5527493522891
 31
0.0
  0
LINE
  5
F0
330
1F
100
AcDbEntity
  8
NoLayerName_001
  6
Continuous
 62
     7
370
    50
100
AcDbLine
 10
290.3532759784126
 20
250.8027493522891
 30
0.0
 11
284.3532759784126
 21
250.8027493522891
 31
0.0
  0
LINE
  5
F1
330
1F
100
AcDbEntity
  8
NoLayerName_001
  6
Continuous
 62
     7
370
    50
100
AcDbLine
 10
289.6032759784126
 20
256.5527493522891
 30
0.0
 11
285.1032759784126
 21
256.5527493522891
 31
0.0
  0
LINE
  5
F2
330
1F
100
AcDbEntity
  8
NoLayerName_001
  6
Continuous
 62
     7
370
    50
100
AcDbLine
 10
289.6032759784126
 20
258.0527493522891
 30
0.0
 11
289.6032759784126
 21
256.5527493522891
 31
0.0
  0
LINE
  5
F3
330
1F
100
AcDbEntity
  8
NoLayerName_001
  6
Continuous
 62
     7
370
    50
100
AcDbLine
 10
285.1032759784126
 20
258.0527493522891
 30
0.0
 11
285.1032759784126
 21
256.5527493522891
 31
0.0
  0
LINE
  5
F4
330
1F
100
AcDbEntity
  8
NoLayerName_001
  6
Continuous
 62
     7
370
    50
100
AcDbLine
 10
290.8532758711243
 20
258.0527493522891
 30
0.0
 11
289.8532758711243
 21
257.0527493522891
 31
0.0
  0
LINE
  5
F5
330
1F
100
AcDbEntity
  8
NoLayerName_001
  6
Continuous
 62
     7
370
    50
100
AcDbLine
 10
283.8532760857011
 20
258.0527493522891
 30
0.0
 11
284.8532760857011
 21
257.0527493522891
 31
0.0
  0
LINE
  5
F6
330
1F
100
AcDbEntity
  8
NoLayerName_001
  6
Continuous
 62
     7
370
    50
100
AcDbLine
 10
289.8532758711243
 20
257.0527493522891
 30
0.0
 11
289.6032759784127
 21
257.0527493522891
 31
0.0
  0
LINE
  5
F7
330
1F
100
AcDbEntity
  8
NoLayerName_001
  6
Continuous
 62
     7
370
    50
100
AcDbLine
 10
284.8532760857011
 20
257.0527493522891
 30
0.0
 11
285.1032759784127
 21
257.0527493522891
 31
0.0
  0
LINE
  5
F8
330
1F
100
AcDbEntity
  8
NoLayerName_001
  6
Continuous
 62
     7
370
    50
100
AcDbLine
 10
289.6032759784126
 20
256.5527493522891
 30
0.0
 11
290.3532759784126
 21
255.8027493522891
 31
0.0
  0
LINE
  5
F9
330
1F
100
AcDbEntity
  8
NoLayerName_001
  6
Continuous
 62
     7
370
    50
100
AcDbLine
 10
289.8532758711243
 20
257.0527493522891
 30
0.0
 11
289.8532758711243
 21
256.3027494595775
 31
0.0
  0
LINE
  5
FA
330
1F
100
AcDbEntity
  8
NoLayerName_001
  6
Continuous
 62
     3
370
    25
100
AcDbLine
 10
290.3532759784126
 20
255.8027493522891
 30
0.0
 11
290.3532759784126
 21
257.5527494595775
 31
0.0
  0
LINE
  5
FB
330
1F
100
AcDbEntity
  8
NoLayerName_001
  6
Continuous
 62
     7
370
    50
100
AcDbLine
 10
285.1032759784126
 20
256.5527493522891
 30
0.0
 11
284.3532759784126
 21
255.8027493522891
 31
0.0
  0
LINE
  5
FC
330
1F
100
AcDbEntity
  8
NoLayerName_001
  6
Continuous
 62
     3
370
    25
100
AcDbLine
 10
284.3532759784126
 20
255.8027493522891
 30
0.0
 11
284.3532759784126
 21
257.5527494595775
 31
0.0
  0
LINE
  5
FD
330
1F
100
AcDbEntity
  8
NoLayerName_001
  6
Continuous
 62
     7
370
    50
100
AcDbLine
 10
284.8532760857011
 20
257.0527493522891
 30
0.0
 11
284.8532760857011
 21
256.3027494595775
 31
0.0
  0
LINE
  5
FE
330
1F
100
AcDbEntity
  8
NoLayerName_001
  6
Continuous
 62
     7
370
    50
100
AcDbLine
 10
290.3532759784126
 20
255.8027493522891
 30
0.0
 11
284.3532759784126
 21
255.8027493522891
 31
0.0
  0
LINE
  5
FF
330
1F
100
AcDbEntity
  8
NoLayerName_001
  6
Continuous
 62
     7
370
    50
100
AcDbLine
 10
285.9032759784127
 20
246.5527493522891
 30
0.0
 11
288.8032759784127
 21
246.5527493522891
 31
0.0
  0
LINE
  5
100
330
1F
100
AcDbEntity
  8
NoLayerName_001
  6
Continuous
 62
     7
370
    50
100
AcDbLine
 10
285.6032759784126
 20
249.5527493522891
 30
0.0
 11
289.1032759784126
 21
249.5527493522891
 31
0.0
  0
LINE
  5
101
330
1F
100
AcDbEntity
  8
NoLayerName_001
  6
Continuous
 62
     7
370
    50
100
AcDbLine
 10
289.1032759784126
 20
249.5527493522891
 30
0.0
 11
289.1032759784126
 21
246.8527493522892
 31
0.0
  0
LINE
  5
102
330
1F
100
AcDbEntity
  8
NoLayerName_001
  6
Continuous
 62
     7
370
    50
100
AcDbLine
 10
285.6032759784126
 20
249.5527493522891
 30
0.0
 11
285.6032759784126
 21
246.8527493522892
 31
0.0
  0
LINE
  5
103
330
1F
100
AcDbEntity
  8
NoLayerName_001
  6
Continuous
 62
     7
370
    50
100
AcDbLine
 10
289.1032759784126
 20
248.0527493522891
 30
0.0
 11
304.8532759784126
 21
248.0527493522891
 31
0.0
  0
LINE
  5
104
330
1F
100
AcDbEntity
  8
NoLayerName_001
  6
Continuous
 62
     3
370
    25
100
AcDbLine
 10
290.3532759784126
 20
250.8027493522891
 30
0.0
 11
290.3532759784126
 21
248.0527493522891
 31
0.0
  0
LINE
  5
105
330
1F
100
AcDbEntity
  8
NoLayerName_001
  6
Continuous
 62
     7
370
    50
100
AcDbLine
 10
289.8532758711243
 20
250.3027492450007
 30
0.0
 11
289.8532758711243
 21
248.0527493522891
 31
0.0
  0
LINE
  5
106
330
1F
100
AcDbEntity
  8
NoLayerName_001
  6
Continuous
 62
     7
370
    50
100
AcDbLine
 10
288.8032759784127
 20
246.5527493522891
 30
0.0
 11
289.1032759784127
 21
246.8527493522892
 31
0.0
  0
LINE
  5
107
330
1F
100
AcDbEntity
  8
NoLayerName_001
  6
Continuous
 62
     7
370
    50
100
AcDbLine
 10
285.9032759784127
 20
246.5527493522891
 30
0.0
 11
285.6032759784127
 21
246.8527493522892
 31
0.0
  0
LINE
  5
108
330
1F
100
AcDbEntity
  8
NoLayerName_001
  6
Continuous
 62
     7
370
    50
100
AcDbLine
 10
289.1032759784126
 20
246.8527493522891
 30
0.0
 11
285.6032759784126
 21
246.8527493522891
 31
0.0
  0
LINE
  5
109
330
1F
100
AcDbEntity
  8
NoLayerName_001
  6
Continuous
 62
     7
370
    50
100
AcDbLine
 10
284.8532760857011
 20
250.3027492450007
 30
0.0
 11
284.8532760857011
 21
248.0527493522891
 31
0.0
  0
LINE
  5
10A
330
1F
100
AcDbEntity
  8
NoLayerName_001
  6
Continuous
 62
     3
370
    25
100
AcDbLine
 10
284.3532759784126
 20
250.8027493522891
 30
0.0
 11
284.3532759784126
 21
248.0527493522891
 31
0.0
  0
LINE
  5
10B
330
1F
100
AcDbEntity
  8
NoLayerName_001
  6
Continuous
 62
     7
370
    50
100
AcDbLine
 10
284.3532759784126
 20
250.8027493522891
 30
0.0
 11
285.6032759784126
 21
249.5527493522891
 31
0.0
  0
LINE
  5
10C
330
1F
100
AcDbEntity
  8
NoLayerName_001
  6
Continuous
 62
     7
370
    50
100
AcDbLine
 10
281.8532759784126
 20
246.0527493522891
 30
0.0
 11
290.3532759784126
 21
246.0527493522891
 31
0.0
  0
ARC
  5
10D
330
1F
100
AcDbEntity
  8
NoLayerName_001
  6
Continuous
 62
     7
370
    50
100
AcDbCircle
 10
290.3532759784126
 20
253.5527493522891
 30
0.0
 40
7.499999999999996
100
AcDbArc
 50
269.9999999999999
 51
312.8334280660672
  0
LINE
  5
10E
330
1F
100
AcDbEntity
  8
NoLayerName_001
  6
Continuous
 62
     7
370
    50
100
AcDbLine
 10
251.8532759784127
 20
195.0527493522891
 30
0.0
 11
251.8532759784127
 21
190.5527493522891
 31
0.0
  0
LINE
  5
10F
330
1F
100
AcDbEntity
  8
NoLayerName_001
  6
Continuous
 62
     7
370
    50
100
AcDbLine
 10
256.8532759784126
 20
189.7987849809032
 30
0.0
 11
256.8532759784126
 21
172.5527493522891
 31
0.0
  0
LINE
  5
110
330
1F
100
AcDbEntity
  8
NoLayerName_001
  6
Continuous
 62
     7
370
    50
100
AcDbLine
 10
257.8532759784126
 20
171.5527493522891
 30
0.0
 11
279.8532759784126
 21
171.5527493522891
 31
0.0
  0
LINE
  5
111
330
1F
100
AcDbEntity
  8
NoLayerName_001
  6
Continuous
 62
     7
370
    50
100
AcDbLine
 10
280.8532759784126
 20
172.5527493522891
 30
0.0
 11
280.8532759784126
 21
192.5527493522891
 31
0.0
  0
LINE
  5
112
330
1F
100
AcDbEntity
  8
NoLayerName_001
  6
Continuous
 62
     7
370
    50
100
AcDbLine
 10
285.5115883735904
 20
195.0527493522891
 30
0.0
 11
334.5532759784127
 21
195.0527493522891
 31
0.0
  0
LINE
  5
113
330
1F
100
AcDbEntity
  8
NoLayerName_001
  6
Continuous
 62
     7
370
    50
100
AcDbLine
 10
255.2875905450341
 20
195.0527493522891
 30
0.0
 11
247.8532759784127
 21
195.0527493522891
 31
0.0
  0
LINE
  5
114
330
1F
100
AcDbEntity
  8
NoLayerName_001
  6
Continuous
 62
     7
370
    50
100
AcDbLine
 10
255.2875905450341
 20
195.0527493522891
 30
0.0
 11
255.2875905450341
 21
195.4870639189105
 31
0.0
  0
LINE
  5
115
330
1F
100
AcDbEntity
  8
NoLayerName_001
  6
Continuous
 62
     7
370
    50
100
AcDbLine
 10
281.8532759784126
 20
210.1841202021876
 30
0.0
 11
281.8532759784126
 21
214.5027493642101
 31
0.0
  0
LINE
  5
116
330
1F
100
AcDbEntity
  8
NoLayerName_001
  6
Continuous
 62
     7
370
    50
100
AcDbLine
 10
255.2875905450341
 20
265.0527493522891
 30
0.0
 11
255.2875905450341
 21
264.6184347856678
 31
0.0
  0
LINE
  5
117
330
1F
100
AcDbEntity
  8
NoLayerName_001
  6
Continuous
 62
     7
370
    50
100
AcDbLine
 10
305.9835414339584
 20
211.7027493522891
 30
0.0
 11
329.153097336808
 21
211.7027493522891
 31
0.0
  0
LINE
  5
118
330
1F
100
AcDbEntity
  8
NoLayerName_001
  6
Continuous
 62
     7
370
    50
100
AcDbLine
 10
334.8532759784126
 20
195.3527493522891
 30
0.0
 11
334.8532759784126
 21
196.1527493522891
 31
0.0
  0
LINE
  5
119
330
1F
100
AcDbEntity
  8
NoLayerName_001
  6
Continuous
 62
     7
370
    50
100
AcDbLine
 10
335.2532759784125
 20
196.5527493522891
 30
0.0
 11
336.4532759784125
 21
196.5527493522891
 31
0.0
  0
LINE
  5
11A
330
1F
100
AcDbEntity
  8
NoLayerName_001
  6
Continuous
 62
     7
370
    50
100
AcDbLine
 10
349.8532759784126
 20
208.0527493522891
 30
0.0
 11
349.8532759784126
 21
196.0527493522891
 31
0.0
  0
LINE
  5
11B
330
1F
100
AcDbEntity
  8
NoLayerName_001
  6
Continuous
 62
     7
370
    50
100
AcDbLine
 10
349.8532759784126
 20
208.0527493522891
 30
0.0
 11
329.1530973368079
 21
211.7027493522891
 31
0.0
  0
ARC
  5
11C
330
1F
100
AcDbEntity
  8
NoLayerName_001
  6
Continuous
 62
     7
370
    50
100
AcDbCircle
 10
349.3532759784126
 20
207.6331995367005
 30
0.0
 40
0.499999999999999
100
AcDbArc
 50
0.0
 51
79.9999999999998
  0
LINE
  5
11D
330
1F
100
AcDbEntity
  8
NoLayerName_001
  6
Continuous
 62
     7
370
    50
100
AcDbLine
 10
334.5532759784127
 20
195.0527493522891
 30
0.0
 11
334.8532759784127
 21
195.3527493522892
 31
0.0
  0
ARC
  5
11E
330
1F
100
AcDbEntity
  8
NoLayerName_001
  6
Continuous
 62
     7
370
    50
100
AcDbCircle
 10
335.2532759784125
 20
196.1527493522891
 30
0.0
 40
0.3999999999999986
100
AcDbArc
 50
90.0
 51
180.0
  0
ARC
  5
11F
330
1F
100
AcDbEntity
  8
NoLayerName_001
  6
Continuous
 62
     7
370
    50
100
AcDbCircle
 10
305.9835414339584
 20
213.7027493522891
 30
0.0
 40
2.0
100
AcDbArc
 50
235.5884913302301
 51
270.0000000000001
  0
LINE
  5
120
330
1F
100
AcDbEntity
  8
NoLayerName_001
  6
Continuous
 62
     7
370
    50
100
AcDbLine
 10
279.5948958271222
 20
208.5527493522891
 30
0.0
 11
281.5532759784126
 21
208.5527493522891
 31
0.0
  0
ARC
  5
121
330
1F
100
AcDbEntity
  8
NoLayerName_001
  6
Continuous
 62
     7
370
    50
100
AcDbCircle
 10
281.5532759784127
 20
209.3527493522892
 30
0.0
 40
0.8000000000000009
100
AcDbArc
 50
270.0
 51
45.00000000000056
  0
LINE
  5
122
330
1F
100
AcDbEntity
  8
NoLayerName_001
  6
Continuous
 62
     7
370
    50
100
AcDbLine
 10
281.8532759784126
 20
211.5527493522891
 30
0.0
 11
282.3532759784126
 21
212.0527493522891
 31
0.0
  0
LINE
  5
123
330
1F
100
AcDbEntity
  8
NoLayerName_001
  6
Continuous
 62
     7
370
    50
100
AcDbLine
 10
282.1189614033618
 20
209.9184347772384
 30
0.0
 11
281.8532759784126
 21
210.1841202021876
 31
0.0
  0
ARC
  5
124
330
1F
100
AcDbEntity
  8
NoLayerName_001
  6
Continuous
 62
     7
370
    50
100
AcDbCircle
 10
279.5948958271222
 20
209.3527493522892
 30
0.0
 40
0.8000000000000007
100
AcDbArc
 50
202.0243128370421
 51
270.0
  0
ARC
  5
125
330
1F
100
AcDbEntity
  8
NoLayerName_001
  6
Continuous
 62
     7
370
    50
100
AcDbCircle
 10
283.8532759784126
 20
192.5527493522891
 30
0.0
 40
3.0
100
AcDbArc
 50
56.44269023807932
 51
180.0
  0
ARC
  5
126
330
1F
100
AcDbEntity
  8
NoLayerName_001
  6
Continuous
 62
     7
370
    50
100
AcDbCircle
 10
279.8532759784126
 20
172.5527493522891
 30
0.0
 40
1.0
100
AcDbArc
 50
270.0
 51
0.0
  0
LINE
  5
127
330
1F
100
AcDbEntity
  8
NoLayerName_001
  6
Continuous
 62
     7
370
    50
100
AcDbLine
 10
256.8532759784126
 20
172.5527493522891
 30
0.0
 11
257.8532759784126
 21
171.5527493522891
 31
0.0
  0
LINE
  5
128
330
1F
100
AcDbEntity
  8
NoLayerName_001
  6
Continuous
 62
     7
370
    50
100
AcDbLine
 10
251.8532759784127
 20
190.5527493522891
 30
0.0
 11
252.3532759784127
 21
190.0527493522891
 31
0.0
  0
LINE
  5
129
330
1F
100
AcDbEntity
  8
NoLayerName_001
  6
Continuous
 62
     7
370
    50
100
AcDbLine
 10
251.8532759784127
 20
194.5527493522891
 30
0.0
 11
252.3532759784127
 21
195.0527493522891
 31
0.0
  0
ARC
  5
12A
330
1F
100
AcDbEntity
  8
NoLayerName_001
  6
Continuous
 62
     7
370
    50
100
AcDbCircle
 10
255.9532759784127
 20
194.9527493522891
 30
0.0
 40
0.3999999999999986
100
AcDbArc
 50
225.0
 51
0.0
  0
LINE
  5
12B
330
1F
100
AcDbEntity
  8
NoLayerName_001
  6
Continuous
 62
     7
370
    50
100
AcDbLine
 10
256.3532759784126
 20
194.9527493522891
 30
0.0
 11
256.3532759784126
 21
196.1527493522891
 31
0.0
  0
ARC
  5
12C
330
1F
100
AcDbEntity
  8
NoLayerName_001
  6
Continuous
 62
     7
370
    50
100
AcDbCircle
 10
255.9532759784127
 20
196.1527493522891
 30
0.0
 40
0.3999999999999992
100
AcDbArc
 50
0.0
 51
45.00000000000144
  0
LINE
  5
12D
330
1F
100
AcDbEntity
  8
NoLayerName_001
  6
Continuous
 62
     7
370
    50
100
AcDbLine
 10
256.2361186951019
 20
196.4355920689785
 30
0.0
 11
255.8532759784126
 21
196.8184347856678
 31
0.0
  0
LINE
  5
12E
330
1F
100
AcDbEntity
  8
NoLayerName_001
  6
Continuous
 62
     7
370
    50
100
AcDbLine
 10
255.6704332617234
 20
194.6699066355998
 30
0.0
 11
255.2875905450341
 21
195.0527493522891
 31
0.0
  0
ARC
  5
12F
330
1F
100
AcDbEntity
  8
NoLayerName_001
  6
Continuous
 62
     7
370
    50
100
AcDbCircle
 10
256.9532759784126
 20
190.1527493522892
 30
0.0
 40
0.3999999999999992
100
AcDbArc
 50
0.0
 51
135.0
  0
LINE
  5
130
330
1F
100
AcDbEntity
  8
NoLayerName_001
  6
Continuous
 62
     7
370
    50
100
AcDbLine
 10
257.3532759784126
 20
190.1527493522892
 30
0.0
 11
257.3532759784126
 21
189.2184347856678
 31
0.0
  0
ARC
  5
131
330
1F
100
AcDbEntity
  8
NoLayerName_001
  6
Continuous
 62
     7
370
    50
100
AcDbCircle
 10
256.9532759784126
 20
189.2184347856677
 30
0.0
 40
0.3999999999999986
100
AcDbArc
 50
314.9999999999984
 51
0.0
  0
LINE
  5
132
330
1F
100
AcDbEntity
  8
NoLayerName_001
  6
Continuous
 62
     7
370
    50
100
AcDbLine
 10
257.2361186951019
 20
188.9355920689785
 30
0.0
 11
256.8532759784126
 21
188.5527493522891
 31
0.0
  0
LINE
  5
133
330
1F
100
AcDbEntity
  8
NoLayerName_001
  6
Continuous
 62
     7
370
    50
100
AcDbLine
 10
256.6704332617234
 20
190.4355920689785
 30
0.0
 11
256.287590545034
 21
190.0527493522891
 31
0.0
  0
LINE
  5
134
330
1F
100
AcDbEntity
  8
NoLayerName_001
  6
Continuous
 62
     7
370
    50
100
AcDbLine
 10
256.3532759784126
 20
209.0527493522891
 30
0.0
 11
255.8532759784126
 21
208.7640742176943
 31
0.0
  0
LINE
  5
135
330
1F
100
AcDbEntity
  8
NoLayerName_001
  6
Continuous
 62
     7
370
    50
100
AcDbLine
 10
256.3532759784126
 20
209.0527493522891
 30
0.0
 11
278.8532759784126
 21
209.0527493522891
 31
0.0
  0
LINE
  5
136
330
1F
100
AcDbEntity
  8
NoLayerName_001
  6
Continuous
 62
     7
370
    50
100
AcDbLine
 10
329.8532759784126
 20
211.5792889664584
 30
0.0
 11
327.5513884678357
 21
213.8811764770353
 31
0.0
  0
LINE
  5
137
330
1F
100
AcDbEntity
  8
NoLayerName_001
  6
Continuous
 62
     7
370
    50
100
AcDbLine
 10
265.8532759784126
 20
214.0527493522891
 30
0.0
 11
263.8532759784126
 21
215.2074498906684
 31
0.0
  0
LINE
  5
138
330
1F
100
AcDbEntity
  8
NoLayerName_001
  6
Continuous
 62
     7
370
    50
100
AcDbLine
 10
264.8532759784126
 20
243.0527493522891
 30
0.0
 11
264.8532759784126
 21
242.8027493522891
 31
0.0
  0
LINE
  5
139
330
1F
100
AcDbEntity
  8
NoLayerName_001
  6
Continuous
 62
     7
370
    50
100
AcDbLine
 10
324.7229613430895
 20
215.0527493522891
 30
0.0
 11
302.510130227905
 21
215.0527493522891
 31
0.0
  0
LINE
  5
13A
330
1F
100
AcDbEntity
  8
NoLayerName_001
  6
Continuous
 62
     7
370
    50
100
AcDbLine
 10
322.5920808228967
 20
217.0527493522891
 30
0.0
 11
264.8532759784126
 21
217.0527493522891
 31
0.0
  0
LINE
  5
13B
330
1F
100
AcDbEntity
  8
NoLayerName_001
  6
Continuous
 62
     7
370
    50
100
AcDbLine
 10
265.8532759784126
 20
214.0527493522891
 30
0.0
 11
277.6032759664917
 21
214.0527493522891
 31
0.0
  0
LINE
  5
13C
330
1F
100
AcDbEntity
  8
NoLayerName_001
  6
Continuous
 62
     3
370
    25
100
AcDbLine
 10
278.4032759784126
 20
214.8527493642101
 30
0.0
 11
264.4676353117098
 21
214.8527493642101
 31
0.0
  0
LINE
  5
13D
330
1F
100
AcDbEntity
  8
NoLayerName_001
  6
Continuous
 62
     7
370
    50
100
AcDbLine
 10
278.8532759784126
 20
215.3027493642101
 30
0.0
 11
281.0532759784126
 21
215.3027493642101
 31
0.0
  0
ARC
  5
13E
330
1F
100
AcDbEntity
  8
NoLayerName_001
  6
Continuous
 62
     7
370
    50
100
AcDbCircle
 10
281.0532759784127
 20
214.50274936421
 30
0.0
 40
0.7999999999999972
100
AcDbArc
 50
0.0
 51
90.0
  0
LINE
  5
13F
330
1F
100
AcDbEntity
  8
NoLayerName_001
  6
Continuous
 62
     7
370
    50
100
AcDbLine
 10
281.8532759784126
 20
212.5527493522891
 30
0.0
 11
282.3532759784126
 21
212.0527493522891
 31
0.0
  0
LINE
  5
140
330
1F
100
AcDbEntity
  8
NoLayerName_001
  6
Continuous
 62
     7
370
    50
100
AcDbLine
 10
278.8532759784126
 20
215.3027493642101
 30
0.0
 11
277.6032759664917
 21
214.0527493522891
 31
0.0
  0
LINE
  5
141
330
1F
100
AcDbEntity
  8
NoLayerName_001
  6
Continuous
 62
     7
370
    50
100
AcDbLine
 10
264.8532759784126
 20
217.0527493522891
 30
0.0
 11
263.8532759784126
 21
216.4753990830995
 31
0.0
  0
LINE
  5
142
330
1F
100
AcDbEntity
  8
NoLayerName_001
  6
Continuous
 62
     7
370
    50
100
AcDbLine
 10
297.8532759784126
 20
212.0527493522891
 30
0.0
 11
299.6817031031588
 21
213.8811764770353
 31
0.0
  0
ARC
  5
143
330
1F
100
AcDbEntity
  8
NoLayerName_001
  6
Continuous
 62
     7
370
    50
100
AcDbCircle
 10
302.5101302279051
 20
211.0527493522891
 30
0.0
 40
3.999999999999997
100
AcDbArc
 50
90.00000000000001
 51
135.0000000000001
  0
ARC
  5
144
330
1F
100
AcDbEntity
  8
NoLayerName_001
  6
Continuous
 62
     7
370
    50
100
AcDbCircle
 10
324.7229613430895
 20
211.0527493522891
 30
0.0
 40
4.0
100
AcDbArc
 50
45.00000000000002
 51
90.00000000000001
  0
LINE
  5
145
330
1F
100
AcDbEntity
  8
NoLayerName_001
  6
Continuous
 62
     7
370
    50
100
AcDbLine
 10
304.8532759784126
 20
212.0527493522891
 30
0.0
 11
304.8532759784126
 21
215.0527493522891
 31
0.0
  0
LINE
  5
146
330
1F
100
AcDbEntity
  8
NoLayerName_001
  6
Continuous
 62
     7
370
    50
100
AcDbLine
 10
254.8532759784127
 20
195.0527493522891
 30
0.0
 11
255.8532759784127
 21
196.0527493522891
 31
0.0
  0
LINE
  5
147
330
1F
100
AcDbEntity
  8
NoLayerName_001
  6
Continuous
 62
     7
370
    50
100
AcDbLine
 10
247.8532759784127
 20
195.0527493522891
 30
0.0
 11
246.8532759784127
 21
196.0527493522891
 31
0.0
  0
LINE
  5
148
330
1F
100
AcDbEntity
  8
NoLayerName_001
  6
Continuous
 62
     7
370
    50
100
AcDbLine
 10
256.8532759784126
 20
209.5527493522891
 30
0.0
 11
256.8532759784126
 21
219.5559094646485
 31
0.0
  0
LINE
  5
149
330
1F
100
AcDbEntity
  8
NoLayerName_001
  6
Continuous
 62
     7
370
    50
100
AcDbLine
 10
279.3532759784126
 20
209.5527493522891
 30
0.0
 11
279.3532759784126
 21
211.7527493522891
 31
0.0
  0
LINE
  5
14A
330
1F
100
AcDbEntity
  8
NoLayerName_001
  6
Continuous
 62
     7
370
    50
100
AcDbLine
 10
281.5532759784127
 20
212.0527493522891
 30
0.0
 11
279.6532759784127
 21
212.0527493522891
 31
0.0
  0
LINE
  5
14B
330
1F
100
AcDbEntity
  8
NoLayerName_001
  6
Continuous
 62
     7
370
    50
100
AcDbLine
 10
281.3532759784126
 20
213.8027493522891
 30
0.0
 11
279.8532759784126
 21
213.8027493522891
 31
0.0
  0
LINE
  5
14C
330
1F
100
AcDbEntity
  8
NoLayerName_001
  6
Continuous
 62
     7
370
    50
100
AcDbLine
 10
279.8532759784126
 20
213.8027493522891
 30
0.0
 11
279.8532759784126
 21
215.1027493642101
 31
0.0
  0
LINE
  5
14D
330
1F
100
AcDbEntity
  8
NoLayerName_001
  6
Continuous
 62
     7
370
    50
100
AcDbLine
 10
279.8532759784126
 20
213.8027493522891
 30
0.0
 11
278.8032759664917
 21
214.8527493642101
 31
0.0
  0
LINE
  5
14E
330
1F
100
AcDbEntity
  8
NoLayerName_001
  6
Continuous
 62
     3
370
    25
100
AcDbLine
 10
277.6032759664917
 20
214.0527493522891
 30
0.0
 11
279.6032759784126
 21
214.0527493522891
 31
0.0
  0
LINE
  5
14F
330
1F
100
AcDbEntity
  8
NoLayerName_001
  6
Continuous
 62
     7
370
    50
100
AcDbLine
 10
278.4032759784126
 20
214.8527493642101
 30
0.0
 11
278.8032759664917
 21
214.8527493642101
 31
0.0
  0
LINE
  5
150
330
1F
100
AcDbEntity
  8
NoLayerName_001
  6
Continuous
 62
     7
370
    50
100
AcDbLine
 10
278.8032759664917
 20
214.8527493642101
 30
0.0
 11
278.8032759664917
 21
215.0527493522891
 31
0.0
  0
LINE
  5
151
330
1F
100
AcDbEntity
  8
NoLayerName_001
  6
Continuous
 62
     7
370
    50
100
AcDbLine
 10
281.8532759784126
 20
212.3527493522891
 30
0.0
 11
281.5532759784126
 21
212.0527493522891
 31
0.0
  0
LINE
  5
152
330
1F
100
AcDbEntity
  8
NoLayerName_001
  6
Continuous
 62
     7
370
    50
100
AcDbLine
 10
278.8532759784126
 20
209.0527493522891
 30
0.0
 11
279.3532759784126
 21
209.5527493522891
 31
0.0
  0
LINE
  5
153
330
1F
100
AcDbEntity
  8
NoLayerName_001
  6
Continuous
 62
     7
370
    50
100
AcDbLine
 10
281.3532759784126
 20
213.8027493522891
 30
0.0
 11
281.8532759784126
 21
213.5140742176943
 31
0.0
  0
LINE
  5
154
330
1F
100
AcDbEntity
  8
NoLayerName_001
  6
Continuous
 62
     7
370
    50
100
AcDbLine
 10
281.3532759784126
 20
213.8027493522891
 30
0.0
 11
281.3532759784126
 21
214.6810789677317
 31
0.0
  0
LINE
  5
155
330
1F
100
AcDbEntity
  8
NoLayerName_001
  6
Continuous
 62
     7
370
    50
100
AcDbLine
 10
257.3532759784126
 20
209.0527493522891
 30
0.0
 11
256.8532759784126
 21
209.5527493522891
 31
0.0
  0
LINE
  5
156
330
1F
100
AcDbEntity
  8
NoLayerName_001
  6
Continuous
 62
     7
370
    50
100
AcDbLine
 10
264.8532759784126
 20
213.8027493522891
 30
0.0
 11
264.8532759784126
 21
214.6300996214788
 31
0.0
  0
LINE
  5
157
330
1F
100
AcDbEntity
  8
NoLayerName_001
  6
Continuous
 62
     7
370
    50
100
AcDbLine
 10
264.8532759784126
 20
213.8027493522891
 30
0.0
 11
262.6532759784126
 21
213.8027493522891
 31
0.0
  0
LINE
  5
158
330
1F
100
AcDbEntity
  8
NoLayerName_001
  6
Continuous
 62
     7
370
    50
100
AcDbLine
 10
264.8532759784126
 20
213.8027493522891
 30
0.0
 11
265.9032759903336
 21
214.8527493642101
 31
0.0
  0
LINE
  5
159
330
1F
100
AcDbEntity
  8
NoLayerName_001
  6
Continuous
 62
     3
370
    25
100
AcDbLine
 10
265.8532759784126
 20
214.0527493522891
 30
0.0
 11
265.1032759784126
 21
214.0527493522891
 31
0.0
  0
ARC
  5
15A
330
1F
100
AcDbEntity
  8
NoLayerName_001
  6
Continuous
 62
     7
370
    50
100
AcDbCircle
 10
262.6532759784126
 20
214.6027493522891
 30
0.0
 40
0.7999999999999972
100
AcDbArc
 50
180.0
 51
270.0
  0
LINE
  5
15B
330
1F
100
AcDbEntity
  8
NoLayerName_001
  6
Continuous
 62
     7
370
    50
100
AcDbLine
 10
282.3532759784126
 20
212.0527493522891
 30
0.0
 11
304.8532759784126
 21
212.0527493522891
 31
0.0
  0
ARC
  5
15C
330
1F
100
AcDbEntity
  8
NoLayerName_001
  6
Continuous
 62
     7
370
    50
100
AcDbCircle
 10
279.6532759784126
 20
248.3527493522891
 30
0.0
 40
0.2999999999999972
100
AcDbArc
 50
180.0
 51
270.0
  0
ARC
  5
15D
330
1F
100
AcDbEntity
  8
NoLayerName_001
  6
Continuous
 62
     7
370
    50
100
AcDbCircle
 10
279.6532759784126
 20
211.7527493522891
 30
0.0
 40
0.2999999999999972
100
AcDbArc
 50
90.0
 51
180.0
  0
LINE
  5
15E
330
1F
100
AcDbEntity
  8
NoLayerName_001
  6
Continuous
 62
     7
370
    50
100
AcDbLine
 10
350.8532759784126
 20
263.652749352289
 30
0.0
 11
350.8532759784126
 21
252.047131374761
 31
0.0
  0
LINE
  5
15F
330
1F
100
AcDbEntity
  8
NoLayerName_001
  6
Continuous
 62
     7
370
    50
100
AcDbLine
 10
350.8532759784126
 20
265.0527493522891
 30
0.0
 11
335.8532759784126
 21
265.0527493522891
 31
0.0
  0
ARC
  5
160
330
1F
100
AcDbEntity
  8
NoLayerName_001
  6
Continuous
 62
     7
370
    50
100
AcDbCircle
 10
350.4532759784128
 20
263.652749352289
 30
0.0
 40
0.4000000000000057
100
AcDbArc
 50
0.0
 51
90.0
  0
ARC
  5
161
330
1F
100
AcDbEntity
  8
NoLayerName_001
  6
Continuous
 62
     7
370
    50
100
AcDbCircle
 10
350.8532759784126
 20
264.0527493522891
 30
0.0
 40
1.0
100
AcDbArc
 50
0.0
 51
90.0
  0
LINE
  5
162
330
1F
100
AcDbEntity
  8
NoLayerName_001
  6
Continuous
 62
     7
370
    50
100
AcDbLine
 10
335.8532759784126
 20
265.0527493522891
 30
0.0
 11
335.8532759784126
 21
263.5527493522891
 31
0.0
  0
LINE
  5
163
330
1F
100
AcDbEntity
  8
NoLayerName_001
  6
Continuous
 62
     7
370
    50
100
AcDbLine
 10
336.8532759784126
 20
263.9527493522891
 30
0.0
 11
336.8532759784126
 21
264.0527493522891
 31
0.0
  0
LINE
  5
164
330
1F
100
AcDbEntity
  8
NoLayerName_001
  6
Continuous
 62
     7
370
    50
100
AcDbLine
 10
335.2532759784125
 20
196.5527493522891
 30
0.0
 11
336.4532759784125
 21
196.5527493522891
 31
0.0
  0
LINE
  5
165
330
1F
100
AcDbEntity
  8
NoLayerName_001
  6
Continuous
 62
     7
370
    50
100
AcDbLine
 10
348.3532759784126
 20
196.0527493522891
 30
0.0
 11
349.8532759784126
 21
197.5527493522891
 31
0.0
  0
ARC
  5
166
330
1F
100
AcDbEntity
  8
NoLayerName_001
  6
Continuous
 62
     7
370
    50
100
AcDbCircle
 10
336.4532759784128
 20
196.1527493522892
 30
0.0
 40
0.3999999999999986
100
AcDbArc
 50
0.0
 51
90.0
  0
LINE
  5
167
330
1F
100
AcDbEntity
  8
NoLayerName_001
  6
Continuous
 62
     7
370
    50
100
AcDbLine
 10
350.8532759784126
 20
195.0527493522891
 30
0.0
 11
335.8532759784126
 21
195.0527493522891
 31
0.0
  0
ARC
  5
168
330
1F
100
AcDbEntity
  8
NoLayerName_001
  6
Continuous
 62
     7
370
    50
100
AcDbCircle
 10
350.4532759784128
 20
196.4527493522891
 30
0.0
 40
0.3999999999999986
100
AcDbArc
 50
270.0
 51
0.0
  0
ARC
  5
169
330
1F
100
AcDbEntity
  8
NoLayerName_001
  6
Continuous
 62
     7
370
    50
100
AcDbCircle
 10
350.8532759784126
 20
196.0527493522891
 30
0.0
 40
1.0
100
AcDbArc
 50
270.0
 51
0.0
  0
LINE
  5
16A
330
1F
100
AcDbEntity
  8
NoLayerName_001
  6
Continuous
 62
     7
370
    50
100
AcDbLine
 10
335.8532759784126
 20
195.0527493522891
 30
0.0
 11
335.8532759784126
 21
196.5527493522891
 31
0.0
  0
LINE
  5
16B
330
1F
100
AcDbEntity
  8
NoLayerName_001
  6
Continuous
 62
     7
370
    50
100
AcDbLine
 10
336.8532759784126
 20
196.1527493522892
 30
0.0
 11
336.8532759784126
 21
196.0527493522892
 31
0.0
  0
LINE
  5
16C
330
1F
100
AcDbEntity
  8
NoLayerName_001
  6
Continuous
 62
     7
370
    50
100
AcDbLine
 10
350.8532759784126
 20
196.4527493522891
 30
0.0
 11
350.8532759784126
 21
208.0527493522891
 31
0.0
  0
LINE
  5
16D
330
1F
100
AcDbEntity
  8
NoLayerName_001
  6
Continuous
 62
     7
370
    50
100
AcDbLine
 10
252.8532759784127
 20
237.1527493522892
 30
0.0
 11
252.8532759784127
 21
222.9527493522891
 31
0.0
  0
LINE
  5
16E
330
1F
100
AcDbEntity
  8
NoLayerName_001
  6
Continuous
 62
     7
370
    50
100
AcDbLine
 10
249.8532759784127
 20
237.152749352289
 30
0.0
 11
249.8532759784127
 21
222.9527493522891
 31
0.0
  0
ARC
  5
16F
330
1F
100
AcDbEntity
  8
NoLayerName_001
  6
Continuous
 62
     7
370
    50
100
AcDbCircle
 10
255.7532759784126
 20
238.9527493522891
 30
0.0
 40
0.3999999999999986
100
AcDbArc
 50
180.0
 51
270.0
  0
ARC
  5
170
330
1F
100
AcDbEntity
  8
NoLayerName_001
  6
Continuous
 62
     7
370
    50
100
AcDbCircle
 10
258.4532759784126
 20
238.9527493522891
 30
0.0
 40
0.3999999999999986
100
AcDbArc
 50
270.0
 51
0.0
  0
LINE
  5
171
330
1F
100
AcDbEntity
  8
NoLayerName_001
  6
Continuous
 62
     7
370
    50
100
AcDbLine
 10
294.8532759784126
 20
239.0527493522891
 30
0.0
 11
257.8532759784126
 21
239.0527493522891
 31
0.0
  0
LINE
  5
172
330
1F
100
AcDbEntity
  8
NoLayerName_001
  6
Continuous
 62
     7
370
    50
100
AcDbLine
 10
257.8532759784126
 20
239.0527493522891
 30
0.0
 11
257.3532759784126
 21
239.5527493522891
 31
0.0
  0
ARC
  5
173
330
1F
100
AcDbEntity
  8
NoLayerName_001
  6
Continuous
 62
     7
370
    50
100
AcDbCircle
 10
225.5853267859816
 20
240.8027493522891
 30
0.0
 40
2.000000000000004
100
AcDbArc
 50
90.0
 51
150.0000000000001
  0
LINE
  5
174
330
1F
100
AcDbEntity
  8
NoLayerName_001
  6
Continuous
 62
     3
370
    25
100
AcDbLine
 10
222.6532759784127
 20
242.5527493522891
 30
0.0
 11
224.6170809494297
 21
242.5527493522891
 31
0.0
  0
LINE
  5
175
330
1F
100
AcDbEntity
  8
NoLayerName_001
  6
Continuous
 62
     7
370
    50
100
AcDbLine
 10
222.6532759784127
 20
242.5527493522891
 30
0.0
 11
197.8532759784127
 21
242.5527493522891
 31
0.0
  0
LINE
  5
176
330
1F
100
AcDbEntity
  8
NoLayerName_001
  6
Continuous
 62
     7
370
    50
100
AcDbLine
 10
212.0532759784126
 20
248.0527493522891
 30
0.0
 11
255.4390624160395
 21
248.0527493522891
 31
0.0
  0
LINE
  5
177
330
1F
100
AcDbEntity
  8
NoLayerName_001
  6
Continuous
 62
     7
370
    50
100
AcDbLine
 10
258.8532759784126
 20
238.9527493522891
 30
0.0
 11
258.8532759784126
 21
239.0527493522891
 31
0.0
  0
LINE
  5
178
330
1F
100
AcDbEntity
  8
NoLayerName_001
  6
Continuous
 62
     7
370
    50
100
AcDbLine
 10
288.8532759784126
 20
242.8027493522891
 30
0.0
 11
291.8532759784126
 21
241.7108386494905
 31
0.0
  0
LINE
  5
179
330
1F
100
AcDbEntity
  8
NoLayerName_001
  6
Continuous
 62
     7
370
    50
100
AcDbLine
 10
255.8532759784127
 20
219.5559094646485
 30
0.0
 11
255.8532759784127
 21
196.0527493522891
 31
0.0
  0
LINE
  5
17A
330
1F
100
AcDbEntity
  8
NoLayerName_001
  6
Continuous
 62
     7
370
    50
100
AcDbLine
 10
246.8532759784127
 20
196.0527493522891
 30
0.0
 11
246.8532759784127
 21
217.3027493522891
 31
0.0
  0
LINE
  5
17B
330
1F
100
AcDbEntity
  8
NoLayerName_001
  6
Continuous
 62
     7
370
    50
100
AcDbLine
 10
264.8532759784126
 20
217.0527493522891
 30
0.0
 11
264.8532759784126
 21
217.3027493522891
 31
0.0
  0
LINE
  5
17C
330
1F
100
AcDbEntity
  8
NoLayerName_001
  6
Continuous
 62
     7
370
    50
100
AcDbLine
 10
238.8532759784127
 20
237.0527493522891
 30
0.0
 11
249.8532759784127
 21
237.0527493522891
 31
0.0
  0
LINE
  5
17D
330
1F
100
AcDbEntity
  8
NoLayerName_001
  6
Continuous
 62
     7
370
    50
100
AcDbLine
 10
263.8532759784126
 20
215.2074498906684
 30
0.0
 11
263.8532759784126
 21
217.3027493522891
 31
0.0
  0
LINE
  5
17E
330
1F
100
AcDbEntity
  8
NoLayerName_001
  6
Continuous
 62
     7
370
    50
100
AcDbLine
 10
222.6532759784127
 20
242.5527493522891
 30
0.0
 11
223.8532759784127
 21
241.3527493522892
 31
0.0
  0
LINE
  5
17F
330
1F
100
AcDbEntity
  8
NoLayerName_001
  6
Continuous
 62
     7
370
    50
100
AcDbLine
 10
255.3532759784127
 20
242.8027493522891
 30
0.0
 11
255.3532759784127
 21
238.9527493522891
 31
0.0
  0
LINE
  5
180
330
1F
100
AcDbEntity
  8
NoLayerName_001
  6
Continuous
 62
     3
370
    25
100
AcDbLine
 10
197.1032759784127
 20
241.8027493522891
 30
0.0
 11
223.4032759784126
 21
241.8027493522891
 31
0.0
  0
LINE
  5
181
330
1F
100
AcDbEntity
  8
NoLayerName_001
  6
Continuous
 62
     7
370
    50
100
AcDbLine
 10
242.3532759784127
 20
240.0527493522891
 30
0.0
 11
243.8532759784127
 21
240.0527493522891
 31
0.0
  0
LINE
  5
182
330
1F
100
AcDbEntity
  8
NoLayerName_001
  6
Continuous
 62
     7
370
    50
100
AcDbLine
 10
241.8532759784127
 20
239.5527493522891
 30
0.0
 11
242.3532759784127
 21
240.0527493522891
 31
0.0
  0
ARC
  5
183
330
1F
100
AcDbEntity
  8
NoLayerName_001
  6
Continuous
 62
     7
370
    50
100
AcDbCircle
 10
243.8532759784127
 20
243.0527493522891
 30
0.0
 40
3.0
100
AcDbArc
 50
270.0
 51
355.2198081528004
  0
LINE
  5
184
330
1F
100
AcDbEntity
  8
NoLayerName_001
  6
Continuous
 62
     7
370
    50
100
AcDbLine
 10
194.1532759784127
 20
246.3027493522891
 30
0.0
 11
211.8532759784127
 21
246.3027493522891
 31
0.0
  0
LINE
  5
185
330
1F
100
AcDbEntity
  8
NoLayerName_001
  6
Continuous
 62
     7
370
    50
100
AcDbLine
 10
211.8532759784127
 20
247.9527493522891
 30
0.0
 11
211.8532759784127
 21
246.3027493522891
 31
0.0
  0
LINE
  5
186
330
1F
100
AcDbEntity
  8
NoLayerName_001
  6
Continuous
 62
     7
370
    50
100
AcDbLine
 10
212.0532759784126
 20
248.0527493522891
 30
0.0
 11
211.8532759784126
 21
247.8527493522892
 31
0.0
  0
ARC
  5
187
330
1F
100
AcDbEntity
  8
NoLayerName_001
  6
Continuous
 62
     7
370
    50
100
AcDbCircle
 10
256.3532759784126
 20
248.5527493522891
 30
0.0
 40
0.999999999999993
100
AcDbArc
 50
225.0000000000003
 51
44.99999999999974
  0
LINE
  5
188
330
1F
100
AcDbEntity
  8
NoLayerName_001
  6
Continuous
 62
     7
370
    50
100
AcDbLine
 10
256.8532759784126
 20
249.4669629146622
 30
0.0
 11
257.0603827595992
 21
249.2598561334757
 31
0.0
  0
LINE
  5
189
330
1F
100
AcDbEntity
  8
NoLayerName_001
  6
Continuous
 62
     7
370
    50
100
AcDbLine
 10
255.4390624160395
 20
248.0527493522891
 30
0.0
 11
255.6461691972261
 21
247.8456425711026
 31
0.0
  0
LINE
  5
18A
330
1F
100
AcDbEntity
  8
NoLayerName_001
  6
Continuous
 62
     7
370
    50
100
AcDbLine
 10
211.7532759784126
 20
248.0527493522891
 30
0.0
 11
194.1532759784126
 21
248.0527493522891
 31
0.0
  0
LINE
  5
18B
330
1F
100
AcDbEntity
  8
NoLayerName_001
  6
Continuous
 62
     7
370
    50
100
AcDbLine
 10
223.8532759784127
 20
241.8027493522891
 30
0.0
 11
223.8532759784127
 21
237.4527493522892
 31
0.0
  0
LINE
  5
18C
330
1F
100
AcDbEntity
  8
NoLayerName_001
  6
Continuous
 62
     3
370
    25
100
AcDbLine
 10
192.8532759784127
 20
236.0527493522891
 30
0.0
 11
138.0532759784126
 21
236.0527493522891
 31
0.0
  0
LINE
  5
18D
330
1F
100
AcDbEntity
  8
NoLayerName_001
  6
Continuous
 62
     7
370
    50
100
AcDbLine
 10
211.1532759784127
 20
246.3027493522891
 30
0.0
 11
211.8532759784127
 21
247.0027493522891
 31
0.0
  0
LINE
  5
18E
330
1F
100
AcDbEntity
  8
NoLayerName_001
  6
Continuous
 62
     7
370
    50
100
AcDbLine
 10
211.8532759784127
 20
247.9527493522891
 30
0.0
 11
211.7532759784127
 21
248.0527493522891
 31
0.0
  0
LINE
  5
18F
330
1F
100
AcDbEntity
  8
NoLayerName_001
  6
Continuous
 62
     7
370
    50
100
AcDbLine
 10
193.8532759784127
 20
212.3527493522891
 30
0.0
 11
193.8532759784127
 21
217.7527493522891
 31
0.0
  0
LINE
  5
190
330
1F
100
AcDbEntity
  8
NoLayerName_001
  6
Continuous
 62
     7
370
    50
100
AcDbLine
 10
223.8532759784127
 20
218.7527493522891
 30
0.0
 11
222.6532759784127
 21
217.5527493522891
 31
0.0
  0
LINE
  5
191
330
1F
100
AcDbEntity
  8
NoLayerName_001
  6
Continuous
 62
     7
370
    50
100
AcDbLine
 10
211.1532759784127
 20
213.8027493522891
 30
0.0
 11
211.1532759784127
 21
216.5760072043799
 31
0.0
  0
LINE
  5
192
330
1F
100
AcDbEntity
  8
NoLayerName_001
  6
Continuous
 62
     7
370
    50
100
AcDbLine
 10
222.6532759784127
 20
217.5527493522891
 30
0.0
 11
197.8532759784127
 21
217.5527493522891
 31
0.0
  0
LINE
  5
193
330
1F
100
AcDbEntity
  8
NoLayerName_001
  6
Continuous
 62
     3
370
    25
100
AcDbLine
 10
197.1032759784127
 20
218.3027493522891
 30
0.0
 11
223.4032759784126
 21
218.3027493522891
 31
0.0
  0
LINE
  5
194
330
1F
100
AcDbEntity
  8
NoLayerName_001
  6
Continuous
 62
     7
370
    50
100
AcDbLine
 10
194.1532759784127
 20
213.8027493522891
 30
0.0
 11
211.1532759784127
 21
213.8027493522891
 31
0.0
  0
LINE
  5
195
330
1F
100
AcDbEntity
  8
NoLayerName_001
  6
Continuous
 62
     7
370
    50
100
AcDbLine
 10
211.8532759784127
 20
212.1527493522891
 30
0.0
 11
211.8532759784127
 21
216.5760072043799
 31
0.0
  0
LINE
  5
196
330
1F
100
AcDbEntity
  8
NoLayerName_001
  6
Continuous
 62
     7
370
    50
100
AcDbLine
 10
211.7532759784126
 20
212.0527493522891
 30
0.0
 11
194.1532759784126
 21
212.0527493522891
 31
0.0
  0
LINE
  5
197
330
1F
100
AcDbEntity
  8
NoLayerName_001
  6
Continuous
 62
     7
370
    50
100
AcDbLine
 10
194.6532759784127
 20
218.5527493522891
 30
0.0
 11
196.8532759784127
 21
218.5527493522891
 31
0.0
  0
LINE
  5
198
330
1F
100
AcDbEntity
  8
NoLayerName_001
  6
Continuous
 62
     7
370
    50
100
AcDbLine
 10
196.8532759784127
 20
218.5527493522891
 30
0.0
 11
197.8532759784127
 21
217.5527493522891
 31
0.0
  0
ARC
  5
199
330
1F
100
AcDbEntity
  8
NoLayerName_001
  6
Continuous
 62
     7
370
    50
100
AcDbCircle
 10
194.6532759784127
 20
217.7527493522891
 30
0.0
 40
0.7999999999999972
100
AcDbArc
 50
90.0
 51
180.0
  0
LINE
  5
19A
330
1F
100
AcDbEntity
  8
NoLayerName_001
  6
Continuous
 62
     7
370
    50
100
AcDbLine
 10
193.8532759784127
 20
212.3527493522891
 30
0.0
 11
194.1532759784127
 21
212.0527493522891
 31
0.0
  0
LINE
  5
19B
330
1F
100
AcDbEntity
  8
NoLayerName_001
  6
Continuous
 62
     7
370
    50
100
AcDbLine
 10
193.8532759784127
 20
213.5027493522891
 30
0.0
 11
194.1532759784127
 21
213.8027493522891
 31
0.0
  0
LINE
  5
19C
330
1F
100
AcDbEntity
  8
NoLayerName_001
  6
Continuous
 62
     7
370
    50
100
AcDbLine
 10
211.1532759784127
 20
213.8027493522891
 30
0.0
 11
211.8532759784127
 21
213.1027493522892
 31
0.0
  0
LINE
  5
19D
330
1F
100
AcDbEntity
  8
NoLayerName_001
  6
Continuous
 62
     7
370
    50
100
AcDbLine
 10
211.8532759784127
 20
212.1527493522891
 30
0.0
 11
211.7532759784127
 21
212.0527493522891
 31
0.0
  0
LINE
  5
19E
330
1F
100
AcDbEntity
  8
NoLayerName_001
  6
Continuous
 62
     7
370
    50
100
AcDbLine
 10
194.1532759784127
 20
213.8027493522891
 30
0.0
 11
194.1532759784127
 21
216.5760072043799
 31
0.0
  0
LINE
  5
19F
330
1F
100
AcDbEntity
  8
NoLayerName_001
  6
Continuous
 62
     7
370
    50
100
AcDbLine
 10
185.8532759784127
 20
213.0527493522891
 30
0.0
 11
186.8532759784127
 21
212.0527493522891
 31
0.0
  0
LINE
  5
1A0
330
1F
100
AcDbEntity
  8
NoLayerName_001
  6
Continuous
 62
     7
370
    50
100
AcDbLine
 10
193.8532759784127
 20
212.5527493522891
 30
0.0
 11
193.3532759784127
 21
212.0527493522891
 31
0.0
  0
LINE
  5
1A1
330
1F
100
AcDbEntity
  8
NoLayerName_001
  6
Continuous
 62
     7
370
    50
100
AcDbLine
 10
193.3532759784127
 20
212.0527493522891
 30
0.0
 11
186.8532759784127
 21
212.0527493522891
 31
0.0
  0
LINE
  5
1A2
330
1F
100
AcDbEntity
  8
NoLayerName_001
  6
Continuous
 62
     7
370
    50
100
AcDbLine
 10
242.3532759784127
 20
220.0527493522891
 30
0.0
 11
243.8532759784127
 21
220.0527493522891
 31
0.0
  0
LINE
  5
1A3
330
1F
100
AcDbEntity
  8
NoLayerName_001
  6
Continuous
 62
     7
370
    50
100
AcDbLine
 10
241.8532759784127
 20
220.5527493522891
 30
0.0
 11
242.3532759784127
 21
220.0527493522891
 31
0.0
  0
ARC
  5
1A4
330
1F
100
AcDbEntity
  8
NoLayerName_001
  6
Continuous
 62
     7
370
    50
100
AcDbCircle
 10
243.8532759784127
 20
217.0527493522891
 30
0.0
 40
3.0
100
AcDbArc
 50
4.780191847199576
 51
90.0
  0
LINE
  5
1A5
330
1F
100
AcDbEntity
  8
NoLayerName_001
  6
Continuous
 62
     7
370
    50
100
AcDbLine
 10
294.8532759784126
 20
221.0527493522891
 30
0.0
 11
257.8532759784126
 21
221.0527493522891
 31
0.0
  0
LINE
  5
1A6
330
1F
100
AcDbEntity
  8
NoLayerName_001
  6
Continuous
 62
     7
370
    50
100
AcDbLine
 10
255.7532759784126
 20
221.5527493522891
 30
0.0
 11
258.4532759784126
 21
221.5527493522891
 31
0.0
  0
ARC
  5
1A7
330
1F
100
AcDbEntity
  8
NoLayerName_001
  6
Continuous
 62
     7
370
    50
100
AcDbCircle
 10
255.7532759784126
 20
221.1527493522891
 30
0.0
 40
0.3999999999999986
100
AcDbArc
 50
90.0
 51
180.0
  0
ARC
  5
1A8
330
1F
100
AcDbEntity
  8
NoLayerName_001
  6
Continuous
 62
     7
370
    50
100
AcDbCircle
 10
258.4532759784126
 20
221.1527493522891
 30
0.0
 40
0.3999999999999986
100
AcDbArc
 50
0.0
 51
90.0
  0
LINE
  5
1A9
330
1F
100
AcDbEntity
  8
NoLayerName_001
  6
Continuous
 62
     7
370
    50
100
AcDbLine
 10
258.8532759784126
 20
221.1527493522891
 30
0.0
 11
258.8532759784126
 21
221.0527493522891
 31
0.0
  0
LINE
  5
1AA
330
1F
100
AcDbEntity
  8
NoLayerName_001
  6
Continuous
 62
     7
370
    50
100
AcDbLine
 10
255.3532759784127
 20
221.1527493522891
 30
0.0
 11
255.3532759784127
 21
215.7184347856677
 31
0.0
  0
ARC
  5
1AB
330
1F
100
AcDbEntity
  8
NoLayerName_001
  6
Continuous
 62
     7
370
    50
100
AcDbCircle
 10
255.7532759784126
 20
215.7184347856677
 30
0.0
 40
0.3999999999999992
100
AcDbArc
 50
180.0
 51
225.0
  0
LINE
  5
1AC
330
1F
100
AcDbEntity
  8
NoLayerName_001
  6
Continuous
 62
     7
370
    50
100
AcDbLine
 10
255.4704332617233
 20
215.4355920689785
 30
0.0
 11
255.8532759784126
 21
215.0527493522891
 31
0.0
  0
LINE
  5
1AD
330
1F
100
AcDbEntity
  8
NoLayerName_001
  6
Continuous
 62
     7
370
    50
100
AcDbLine
 10
238.8532759784127
 20
223.0527493522891
 30
0.0
 11
249.8532759784127
 21
223.0527493522891
 31
0.0
  0
LINE
  5
1AE
330
1F
100
AcDbEntity
  8
NoLayerName_001
  6
Continuous
 62
     7
370
    50
100
AcDbLine
 10
250.2532759784126
 20
222.5527493522891
 30
0.0
 11
252.4532759784126
 21
222.5527493522891
 31
0.0
  0
LINE
  5
1AF
330
1F
100
AcDbEntity
  8
NoLayerName_001
  6
Continuous
 62
     7
370
    50
100
AcDbLine
 10
241.8532759784127
 20
223.0527493522891
 30
0.0
 11
241.8532759784127
 21
220.5527493522891
 31
0.0
  0
LINE
  5
1B0
330
1F
100
AcDbEntity
  8
NoLayerName_001
  6
Continuous
 62
     7
370
    50
100
AcDbLine
 10
242.3532759784127
 20
237.0527493522891
 30
0.0
 11
241.8532759784127
 21
237.341424486884
 31
0.0
  0
LINE
  5
1B1
330
1F
100
AcDbEntity
  8
NoLayerName_001
  6
Continuous
 62
     7
370
    50
100
AcDbLine
 10
291.8532759784126
 20
241.7108386494905
 30
0.0
 11
291.8532759784126
 21
239.0527493522891
 31
0.0
  0
LINE
  5
1B2
330
1F
100
AcDbEntity
  8
NoLayerName_001
  6
Continuous
 62
     7
370
    50
100
AcDbLine
 10
257.8532759784126
 20
239.0527493522891
 30
0.0
 11
257.8532759784126
 21
238.5527493522891
 31
0.0
  0
LINE
  5
1B3
330
1F
100
AcDbEntity
  8
NoLayerName_001
  6
Continuous
 62
     7
370
    50
100
AcDbLine
 10
288.8532759784126
 20
217.3027493522891
 30
0.0
 11
291.8532759784126
 21
218.3946600550877
 31
0.0
  0
LINE
  5
1B4
330
1F
100
AcDbEntity
  8
NoLayerName_001
  6
Continuous
 62
     7
370
    50
100
AcDbLine
 10
291.8532759784126
 20
218.3946600550877
 30
0.0
 11
291.8532759784126
 21
221.0527493522891
 31
0.0
  0
LINE
  5
1B5
330
1F
100
AcDbEntity
  8
NoLayerName_001
  6
Continuous
 62
     7
370
    50
100
AcDbLine
 10
257.8532759784126
 20
221.0527493522891
 30
0.0
 11
257.3532759784126
 21
220.5527493522891
 31
0.0
  0
LINE
  5
1B6
330
1F
100
AcDbEntity
  8
NoLayerName_001
  6
Continuous
 62
     7
370
    50
100
AcDbLine
 10
257.8532759784126
 20
221.0527493522891
 30
0.0
 11
257.8532759784126
 21
221.5527493522891
 31
0.0
  0
LINE
  5
1B7
330
1F
100
AcDbEntity
  8
NoLayerName_001
  6
Continuous
 62
     7
370
    50
100
AcDbLine
 10
241.8532759784127
 20
239.5527493522891
 30
0.0
 11
241.8532759784127
 21
237.0527493522891
 31
0.0
  0
LINE
  5
1B8
330
1F
100
AcDbEntity
  8
NoLayerName_001
  6
Continuous
 62
     7
370
    50
100
AcDbLine
 10
120.8532759784127
 20
231.5527493522891
 30
0.0
 11
239.958383088699
 21
231.5527493522891
 31
0.0
  0
LINE
  5
1B9
330
1F
100
AcDbEntity
  8
NoLayerName_001
  6
Continuous
 62
     7
370
    50
100
AcDbLine
 10
120.8532759784127
 20
228.5527493522891
 30
0.0
 11
239.958383088699
 21
228.5527493522891
 31
0.0
  0
LINE
  5
1BA
330
1F
100
AcDbEntity
  8
NoLayerName_001
  6
Continuous
 62
     7
370
    50
100
AcDbLine
 10
121.3532759784127
 20
235.0527493522891
 30
0.0
 11
119.8532759784127
 21
234.6508255636425
 31
0.0
  0
LINE
  5
1BB
330
1F
100
AcDbEntity
  8
NoLayerName_001
  6
Continuous
 62
     7
370
    50
100
AcDbLine
 10
119.8532759784127
 20
234.6508255636424
 30
0.0
 11
119.8532759784127
 21
225.4546731409358
 31
0.0
  0
LINE
  5
1BC
330
1F
100
AcDbEntity
  8
NoLayerName_001
  6
Continuous
 62
     7
370
    50
100
AcDbLine
 10
121.3532759784127
 20
235.0527493522891
 30
0.0
 11
123.3532759784127
 21
235.0527493522891
 31
0.0
  0
LINE
  5
1BD
330
1F
100
AcDbEntity
  8
NoLayerName_001
  6
Continuous
 62
     7
370
    50
100
AcDbLine
 10
121.3532759784127
 20
225.0527493522891
 30
0.0
 11
123.3532759784127
 21
225.0527493522891
 31
0.0
  0
LINE
  5
1BE
330
1F
100
AcDbEntity
  8
NoLayerName_001
  6
Continuous
 62
     7
370
    50
100
AcDbLine
 10
223.4532759784127
 20
237.0527493522891
 30
0.0
 11
139.0532759784127
 21
237.0527493522891
 31
0.0
  0
LINE
  5
1BF
330
1F
100
AcDbEntity
  8
NoLayerName_001
  6
Continuous
 62
     7
370
    50
100
AcDbLine
 10
223.8532759784127
 20
237.6300996214787
 30
0.0
 11
222.8532759784127
 21
237.0527493522891
 31
0.0
  0
LINE
  5
1C0
330
1F
100
AcDbEntity
  8
NoLayerName_001
  6
Continuous
 62
     7
370
    50
100
AcDbLine
 10
223.8532759784127
 20
222.4753990830995
 30
0.0
 11
222.8532759784127
 21
223.0527493522891
 31
0.0
  0
LINE
  5
1C1
330
1F
100
AcDbEntity
  8
NoLayerName_001
  6
Continuous
 62
     7
370
    50
100
AcDbLine
 10
185.8532759784127
 20
222.5527493522891
 30
0.0
 11
188.451352189766
 21
224.0527493522891
 31
0.0
  0
LINE
  5
1C2
330
1F
100
AcDbEntity
  8
NoLayerName_001
  6
Continuous
 62
     7
370
    50
100
AcDbLine
 10
185.8532759784127
 20
223.0527493522891
 30
0.0
 11
185.8532759784127
 21
213.0527493522891
 31
0.0
  0
LINE
  5
1C3
330
1F
100
AcDbEntity
  8
NoLayerName_001
  6
Continuous
 62
     7
370
    50
100
AcDbLine
 10
257.3532759784126
 20
282.0527493522891
 30
0.0
 11
271.8532759784126
 21
282.0527493522891
 31
0.0
  0
LINE
  5
1C4
330
1F
100
AcDbEntity
  8
NoLayerName_001
  6
Continuous
 62
     7
370
    50
100
AcDbLine
 10
256.8532759784126
 20
272.5527493522891
 30
0.0
 11
257.3532759784126
 21
273.0527493522891
 31
0.0
  0
LINE
  5
1C5
330
1F
100
AcDbEntity
  8
NoLayerName_001
  6
Continuous
 62
     7
370
    50
100
AcDbLine
 10
257.3532759784126
 20
273.0527493522891
 30
0.0
 11
271.8532759784126
 21
273.0527493522891
 31
0.0
  0
LINE
  5
1C6
330
1F
100
AcDbEntity
  8
NoLayerName_001
  6
Continuous
 62
     7
370
    50
100
AcDbLine
 10
257.8532759784126
 20
288.5527493522891
 30
0.0
 11
279.8532759784126
 21
288.5527493522891
 31
0.0
  0
LINE
  5
1C7
330
1F
100
AcDbEntity
  8
NoLayerName_001
  6
Continuous
 62
     7
370
    50
100
AcDbLine
 10
256.287590545034
 20
190.0527493522891
 30
0.0
 11
252.3532759784127
 21
190.0527493522891
 31
0.0
  0
LINE
  5
1C8
330
1F
100
AcDbEntity
  8
NoLayerName_001
  6
Continuous
 62
     7
370
    50
100
AcDbLine
 10
137.8532759784127
 20
235.8527493522891
 30
0.0
 11
137.8532759784127
 21
234.9527493522891
 31
0.0
  0
LINE
  5
1C9
330
1F
100
AcDbEntity
  8
NoLayerName_001
  6
Continuous
 62
     7
370
    50
100
AcDbLine
 10
296.8532759784126
 20
221.5527493522891
 30
0.0
 11
296.8532759784126
 21
238.5527493522891
 31
0.0
  0
LINE
  5
1CA
330
1F
100
AcDbEntity
  8
NoLayerName_001
  6
Continuous
 62
     7
370
    50
100
AcDbLine
 10
242.3532759784127
 20
223.0527493522891
 30
0.0
 11
241.8532759784127
 21
222.7640742176943
 31
0.0
  0
ARC
  5
1CB
330
1F
100
AcDbEntity
  8
NoLayerName_001
  6
Continuous
 62
     7
370
    50
100
AcDbCircle
 10
252.4532759784127
 20
222.9527493522891
 30
0.0
 40
0.3999999999999986
100
AcDbArc
 50
270.0
 51
0.0
  0
ARC
  5
1CC
330
1F
100
AcDbEntity
  8
NoLayerName_001
  6
Continuous
 62
     7
370
    50
100
AcDbCircle
 10
250.2532759784126
 20
222.9527493522891
 30
0.0
 40
0.3999999999999986
100
AcDbArc
 50
180.0
 51
270.0
  0
LINE
  5
1CD
330
1F
100
AcDbEntity
  8
NoLayerName_001
  6
Continuous
 62
     7
370
    50
100
AcDbLine
 10
250.2532759784126
 20
237.5527493522891
 30
0.0
 11
252.4532759784126
 21
237.5527493522891
 31
0.0
  0
ARC
  5
1CE
330
1F
100
AcDbEntity
  8
NoLayerName_001
  6
Continuous
 62
     7
370
    50
100
AcDbCircle
 10
252.4532759784127
 20
237.1527493522892
 30
0.0
 40
0.3999999999999986
100
AcDbArc
 50
0.0
 51
90.0
  0
ARC
  5
1CF
330
1F
100
AcDbEntity
  8
NoLayerName_001
  6
Continuous
 62
     7
370
    50
100
AcDbCircle
 10
250.2532759784126
 20
237.1527493522892
 30
0.0
 40
0.3999999999999986
100
AcDbArc
 50
90.0
 51
180.0
  0
LINE
  5
1D0
330
1F
100
AcDbEntity
  8
NoLayerName_001
  6
Continuous
 62
     3
370
    25
100
AcDbLine
 10
267.1032759784126
 20
235.0527493522891
 30
0.0
 11
278.6532759784126
 21
235.0527493522891
 31
0.0
  0
LINE
  5
1D1
330
1F
100
AcDbEntity
  8
NoLayerName_001
  6
Continuous
 62
     7
370
    50
100
AcDbLine
 10
279.2532759784126
 20
236.0527493522891
 30
0.0
 11
281.4532759784126
 21
236.0527493522891
 31
0.0
  0
LINE
  5
1D2
330
1F
100
AcDbEntity
  8
NoLayerName_001
  6
Continuous
 62
     7
370
    50
100
AcDbLine
 10
281.8532759784126
 20
235.5527493522891
 30
0.0
 11
293.3532759784126
 21
235.5527493522891
 31
0.0
  0
ARC
  5
1D3
330
1F
100
AcDbEntity
  8
NoLayerName_001
  6
Continuous
 62
     7
370
    50
100
AcDbCircle
 10
281.4532759784126
 20
235.652749352289
 30
0.0
 40
0.3999999999999986
100
AcDbArc
 50
0.0
 51
90.0
  0
LINE
  5
1D4
330
1F
100
AcDbEntity
  8
NoLayerName_001
  6
Continuous
 62
     7
370
    50
100
AcDbLine
 10
252.8532759784127
 20
234.5527493522891
 30
0.0
 11
263.8532759784126
 21
234.5527493522891
 31
0.0
  0
ARC
  5
1D5
330
1F
100
AcDbEntity
  8
NoLayerName_001
  6
Continuous
 62
     7
370
    50
100
AcDbCircle
 10
279.2532759784126
 20
235.652749352289
 30
0.0
 40
0.3999999999999986
100
AcDbArc
 50
90.0
 51
180.0
  0
LINE
  5
1D6
330
1F
100
AcDbEntity
  8
NoLayerName_001
  6
Continuous
 62
     7
370
    50
100
AcDbLine
 10
278.1532759784126
 20
234.5527493522891
 30
0.0
 11
278.8532759784126
 21
235.2527493522891
 31
0.0
  0
LINE
  5
1D7
330
1F
100
AcDbEntity
  8
NoLayerName_001
  6
Continuous
 62
     7
370
    50
100
AcDbLine
 10
293.3532759784126
 20
236.852749543024
 30
0.0
 11
295.4532758830452
 21
236.852749543024
 31
0.0
  0
LINE
  5
1D8
330
1F
100
AcDbEntity
  8
NoLayerName_001
  6
Continuous
 62
     7
370
    50
100
AcDbLine
 10
294.8532759784126
 20
239.0527493522891
 30
0.0
 11
296.8532759784126
 21
238.5168509674269
 31
0.0
  0
LINE
  5
1D9
330
1F
100
AcDbEntity
  8
NoLayerName_001
  6
Continuous
 62
     7
370
    50
100
AcDbLine
 10
296.3532759784126
 20
235.5527493522891
 30
0.0
 11
296.8532759784126
 21
235.841424486884
 31
0.0
  0
LINE
  5
1DA
330
1F
100
AcDbEntity
  8
NoLayerName_001
  6
Continuous
 62
     3
370
    25
100
AcDbLine
 10
267.1032759784126
 20
225.0527493522891
 30
0.0
 11
278.6532759784126
 21
225.0527493522891
 31
0.0
  0
LINE
  5
1DB
330
1F
100
AcDbEntity
  8
NoLayerName_001
  6
Continuous
 62
     7
370
    50
100
AcDbLine
 10
279.2532759784126
 20
224.0527493522891
 30
0.0
 11
281.4532759784126
 21
224.0527493522891
 31
0.0
  0
LINE
  5
1DC
330
1F
100
AcDbEntity
  8
NoLayerName_001
  6
Continuous
 62
     7
370
    50
100
AcDbLine
 10
281.8532759784126
 20
224.5527493522891
 30
0.0
 11
293.3532759784126
 21
224.5527493522891
 31
0.0
  0
ARC
  5
1DD
330
1F
100
AcDbEntity
  8
NoLayerName_001
  6
Continuous
 62
     7
370
    50
100
AcDbCircle
 10
281.4532759784126
 20
224.4527493522891
 30
0.0
 40
0.3999999999999986
100
AcDbArc
 50
270.0
 51
0.0
  0
LINE
  5
1DE
330
1F
100
AcDbEntity
  8
NoLayerName_001
  6
Continuous
 62
     7
370
    50
100
AcDbLine
 10
252.8532759784127
 20
225.5527493522891
 30
0.0
 11
263.8532759784126
 21
225.5527493522891
 31
0.0
  0
ARC
  5
1DF
330
1F
100
AcDbEntity
  8
NoLayerName_001
  6
Continuous
 62
     7
370
    50
100
AcDbCircle
 10
279.2532759784126
 20
224.4527493522891
 30
0.0
 40
0.3999999999999986
100
AcDbArc
 50
180.0
 51
270.0
  0
LINE
  5
1E0
330
1F
100
AcDbEntity
  8
NoLayerName_001
  6
Continuous
 62
     7
370
    50
100
AcDbLine
 10
278.1532759784126
 20
225.5527493522891
 30
0.0
 11
278.8532759784126
 21
224.8527493522892
 31
0.0
  0
LINE
  5
1E1
330
1F
100
AcDbEntity
  8
NoLayerName_001
  6
Continuous
 62
     7
370
    50
100
AcDbLine
 10
296.3532759784126
 20
224.5527493522891
 30
0.0
 11
296.8532759784126
 21
224.2640742176943
 31
0.0
  0
LINE
  5
1E2
330
1F
100
AcDbEntity
  8
NoLayerName_001
  6
Continuous
 62
     7
370
    50
100
AcDbLine
 10
295.4532758830452
 20
223.2527491615543
 30
0.0
 11
295.4532758830452
 21
236.852749543024
 31
0.0
  0
LINE
  5
1E3
330
1F
100
AcDbEntity
  8
NoLayerName_001
  6
Continuous
 62
     7
370
    50
100
AcDbLine
 10
293.3532759784126
 20
236.852749543024
 30
0.0
 11
293.3532759784126
 21
223.2527491615543
 31
0.0
  0
LINE
  5
1E4
330
1F
100
AcDbEntity
  8
NoLayerName_001
  6
Continuous
 62
     7
370
    50
100
AcDbLine
 10
263.8532759784126
 20
234.902749352289
 30
0.0
 11
263.8532759784126
 21
225.2027493522891
 31
0.0
  0
LINE
  5
1E5
330
1F
100
AcDbEntity
  8
NoLayerName_001
  6
Continuous
 62
     7
370
    50
100
AcDbLine
 10
278.8532759784126
 20
235.652749352289
 30
0.0
 11
278.8532759784126
 21
224.4527493522891
 31
0.0
  0
LINE
  5
1E6
330
1F
100
AcDbEntity
  8
NoLayerName_001
  6
Continuous
 62
     7
370
    50
100
AcDbLine
 10
278.1532759784126
 20
225.5527493522891
 30
0.0
 11
278.1532759784126
 21
234.5527493522891
 31
0.0
  0
LINE
  5
1E7
330
1F
100
AcDbEntity
  8
NoLayerName_001
  6
Continuous
 62
     7
370
    50
100
AcDbLine
 10
281.8532759784126
 20
235.652749352289
 30
0.0
 11
281.8532759784126
 21
224.4527493522891
 31
0.0
  0
LINE
  5
1E8
330
1F
100
AcDbEntity
  8
NoLayerName_001
  6
Continuous
 62
     7
370
    50
100
AcDbLine
 10
294.8532759784126
 20
221.0527493522891
 30
0.0
 11
296.8532759784126
 21
221.5886477371514
 31
0.0
  0
LINE
  5
1E9
330
1F
100
AcDbEntity
  8
NoLayerName_001
  6
Continuous
 62
     7
370
    50
100
AcDbLine
 10
296.3532759784126
 20
235.5527493522891
 30
0.0
 11
296.3532759784126
 21
224.5527493522891
 31
0.0
  0
LINE
  5
1EA
330
1F
100
AcDbEntity
  8
NoLayerName_001
  6
Continuous
 62
     7
370
    50
100
AcDbLine
 10
295.4532758830452
 20
235.5527493522891
 30
0.0
 11
296.3532759784126
 21
235.5527493522891
 31
0.0
  0
LINE
  5
1EB
330
1F
100
AcDbEntity
  8
NoLayerName_001
  6
Continuous
 62
     7
370
    50
100
AcDbLine
 10
278.1532759784126
 20
225.5527493522891
 30
0.0
 11
278.8532759784126
 21
224.8527493522892
 31
0.0
  0
ARC
  5
1EC
330
1F
100
AcDbEntity
  8
NoLayerName_001
  6
Continuous
 62
     3
370
    25
100
AcDbCircle
 10
294.4032759784126
 20
235.2883554289729
 30
0.0
 40
1.560838472408105
100
AcDbArc
 50
58.38099346253545
 51
121.6190065374646
  0
ARC
  5
1ED
330
1F
100
AcDbEntity
  8
NoLayerName_001
  6
Continuous
 62
     3
370
    25
100
AcDbCircle
 10
294.4032759784126
 20
237.1171432756053
 30
0.0
 40
1.560838472408105
100
AcDbArc
 50
238.3809934625355
 51
301.6190065374645
  0
ARC
  5
1EE
330
1F
100
AcDbEntity
  8
NoLayerName_001
  6
Continuous
 62
     3
370
    25
100
AcDbCircle
 10
294.9662330902703
 20
236.2027493522891
 30
0.0
 40
0.4870428881423546
100
AcDbArc
 50
301.6190065374645
 51
58.38099346253551
  0
ARC
  5
1EF
330
1F
100
AcDbEntity
  8
NoLayerName_001
  6
Continuous
 62
     3
370
    25
100
AcDbCircle
 10
293.840318866555
 20
236.2027493522891
 30
0.0
 40
0.4870428881423546
100
AcDbArc
 50
121.6190065374645
 51
238.3809934625355
  0
LINE
  5
1F0
330
1F
100
AcDbEntity
  8
NoLayerName_001
  6
Continuous
 62
     7
370
    50
100
AcDbLine
 10
293.3532759784126
 20
223.2527491615543
 30
0.0
 11
295.4532758830452
 21
223.2527491615543
 31
0.0
  0
LINE
  5
1F1
330
1F
100
AcDbEntity
  8
NoLayerName_001
  6
Continuous
 62
     7
370
    50
100
AcDbLine
 10
295.4532758830452
 20
224.5527493522891
 30
0.0
 11
296.3532759784126
 21
224.5527493522891
 31
0.0
  0
ARC
  5
1F2
330
1F
100
AcDbEntity
  8
NoLayerName_001
  6
Continuous
 62
     3
370
    25
100
AcDbCircle
 10
294.4032759784126
 20
224.8171432756053
 30
0.0
 40
1.560838472408107
100
AcDbArc
 50
238.3809934625355
 51
301.6190065374647
  0
ARC
  5
1F3
330
1F
100
AcDbEntity
  8
NoLayerName_001
  6
Continuous
 62
     3
370
    25
100
AcDbCircle
 10
294.4032759784126
 20
222.988355428973
 30
0.0
 40
1.560838472408107
100
AcDbArc
 50
58.38099346253545
 51
121.6190065374647
  0
ARC
  5
1F4
330
1F
100
AcDbEntity
  8
NoLayerName_001
  6
Continuous
 62
     3
370
    25
100
AcDbCircle
 10
294.9662330902703
 20
223.9027493522891
 30
0.0
 40
0.4870428881423546
100
AcDbArc
 50
301.6190065374645
 51
58.38099346253551
  0
ARC
  5
1F5
330
1F
100
AcDbEntity
  8
NoLayerName_001
  6
Continuous
 62
     3
370
    25
100
AcDbCircle
 10
293.840318866555
 20
223.9027493522891
 30
0.0
 40
0.4870428881423546
100
AcDbArc
 50
121.6190065374645
 51
238.3809934625355
  0
LINE
  5
1F6
330
1F
100
AcDbEntity
  8
NoLayerName_001
  6
Continuous
 62
     7
370
    50
100
AcDbLine
 10
296.3532759784126
 20
224.5527493522891
 30
0.0
 11
296.8532759784126
 21
224.2640742176943
 31
0.0
  0
LINE
  5
1F7
330
1F
100
AcDbEntity
  8
NoLayerName_001
  6
Continuous
 62
     7
370
    50
100
AcDbLine
 10
121.3532759784127
 20
225.0527493522891
 30
0.0
 11
119.8532759784127
 21
225.4546731409358
 31
0.0
  0
LINE
  5
1F8
330
1F
100
AcDbEntity
  8
NoLayerName_001
  6
Continuous
 62
     7
370
    50
100
AcDbLine
 10
120.8532759784127
 20
228.5527493522891
 30
0.0
 11
120.8532759784127
 21
231.5527493522891
 31
0.0
  0
LINE
  5
1F9
330
1F
100
AcDbEntity
  8
NoLayerName_001
  6
Continuous
 62
     7
370
    50
100
AcDbLine
 10
120.8532759784127
 20
231.5527493522891
 30
0.0
 11
119.8532759784127
 21
232.1300996214788
 31
0.0
  0
LINE
  5
1FA
330
1F
100
AcDbEntity
  8
NoLayerName_001
  6
Continuous
 62
     7
370
    50
100
AcDbLine
 10
120.8532759784127
 20
228.5527493522891
 30
0.0
 11
119.8532759784127
 21
227.9753990830995
 31
0.0
  0
LINE
  5
1FB
330
1F
100
AcDbEntity
  8
NoLayerName_001
  6
Continuous
 62
     7
370
    50
100
AcDbLine
 10
136.3532759784127
 20
235.0527493522891
 30
0.0
 11
136.3532759784127
 21
234.9527493522891
 31
0.0
  0
LINE
  5
1FC
330
1F
100
AcDbEntity
  8
NoLayerName_001
  6
Continuous
 62
     7
370
    50
100
AcDbLine
 10
136.7532759784126
 20
234.5527493522891
 30
0.0
 11
137.4532759784126
 21
234.5527493522891
 31
0.0
  0
LINE
  5
1FD
330
1F
100
AcDbEntity
  8
NoLayerName_001
  6
Continuous
 62
     7
370
    50
100
AcDbLine
 10
139.0532759784126
 20
237.0527493522891
 30
0.0
 11
137.8532759784126
 21
235.8527493522892
 31
0.0
  0
ARC
  5
1FE
330
1F
100
AcDbEntity
  8
NoLayerName_001
  6
Continuous
 62
     7
370
    50
100
AcDbCircle
 10
137.4532759784127
 20
234.9527493522891
 30
0.0
 40
0.4000000000000057
100
AcDbArc
 50
270.0
 51
0.0
  0
ARC
  5
1FF
330
1F
100
AcDbEntity
  8
NoLayerName_001
  6
Continuous
 62
     7
370
    50
100
AcDbCircle
 10
136.7532759784126
 20
234.9527493522891
 30
0.0
 40
0.3999999999999986
100
AcDbArc
 50
180.0
 51
270.0
  0
LINE
  5
200
330
1F
100
AcDbEntity
  8
NoLayerName_001
  6
Continuous
 62
     7
370
    50
100
AcDbLine
 10
137.8532759784127
 20
224.2527493522891
 30
0.0
 11
137.8532759784127
 21
225.1527493522891
 31
0.0
  0
LINE
  5
201
330
1F
100
AcDbEntity
  8
NoLayerName_001
  6
Continuous
 62
     7
370
    50
100
AcDbLine
 10
136.3532759784127
 20
225.0527493522891
 30
0.0
 11
136.3532759784127
 21
225.1527493522891
 31
0.0
  0
LINE
  5
202
330
1F
100
AcDbEntity
  8
NoLayerName_001
  6
Continuous
 62
     7
370
    50
100
AcDbLine
 10
136.7532759784126
 20
225.5527493522891
 30
0.0
 11
137.4532759784126
 21
225.5527493522891
 31
0.0
  0
LINE
  5
203
330
1F
100
AcDbEntity
  8
NoLayerName_001
  6
Continuous
 62
     7
370
    50
100
AcDbLine
 10
139.0532759784126
 20
223.0527493522891
 30
0.0
 11
137.8532759784126
 21
224.2527493522891
 31
0.0
  0
ARC
  5
204
330
1F
100
AcDbEntity
  8
NoLayerName_001
  6
Continuous
 62
     7
370
    50
100
AcDbCircle
 10
137.4532759784127
 20
225.1527493522891
 30
0.0
 40
0.3999999999999986
100
AcDbArc
 50
0.0
 51
90.0
  0
ARC
  5
205
330
1F
100
AcDbEntity
  8
NoLayerName_001
  6
Continuous
 62
     7
370
    50
100
AcDbCircle
 10
136.7532759784126
 20
225.1527493522891
 30
0.0
 40
0.4000000000000057
100
AcDbArc
 50
90.0
 51
180.0
  0
LINE
  5
206
330
1F
100
AcDbEntity
  8
NoLayerName_001
  6
Continuous
 62
     7
370
    50
100
AcDbLine
 10
123.3532759784127
 20
235.0527493522891
 30
0.0
 11
123.3532759784127
 21
233.7027494476566
 31
0.0
  0
LINE
  5
207
330
1F
100
AcDbEntity
  8
NoLayerName_001
  6
Continuous
 62
     7
370
    50
100
AcDbLine
 10
125.4532758830452
 20
235.0527493522891
 30
0.0
 11
125.4532758830452
 21
233.7027494476566
 31
0.0
  0
LINE
  5
208
330
1F
100
AcDbEntity
  8
NoLayerName_001
  6
Continuous
 62
     7
370
    50
100
AcDbLine
 10
123.3532759784127
 20
233.7027494476566
 30
0.0
 11
125.4532758830452
 21
233.7027494476566
 31
0.0
  0
LINE
  5
209
330
1F
100
AcDbEntity
  8
NoLayerName_001
  6
Continuous
 62
     7
370
    50
100
AcDbLine
 10
125.4532758830452
 20
235.0527493522891
 30
0.0
 11
136.3532759784127
 21
235.0527493522891
 31
0.0
  0
ARC
  5
20A
330
1F
100
AcDbEntity
  8
NoLayerName_001
  6
Continuous
 62
     3
370
    25
100
AcDbCircle
 10
124.4032759784127
 20
233.5085369656861
 30
0.0
 40
1.529998892572705
100
AcDbArc
 50
57.81695591865792
 51
122.1830440813421
  0
ARC
  5
20B
330
1F
100
AcDbEntity
  8
NoLayerName_001
  6
Continuous
 62
     3
370
    25
100
AcDbCircle
 10
124.4032759784127
 20
235.2469619296269
 30
0.0
 40
1.529998892572705
100
AcDbArc
 50
237.8169559186578
 51
302.1830440813421
  0
ARC
  5
20C
330
1F
100
AcDbEntity
  8
NoLayerName_001
  6
Continuous
 62
     3
370
    25
100
AcDbCircle
 10
124.9502891174716
 20
234.3777494476565
 30
0.0
 40
0.5029868609410105
100
AcDbArc
 50
302.1830440813434
 51
57.81695591865657
  0
ARC
  5
20D
330
1F
100
AcDbEntity
  8
NoLayerName_001
  6
Continuous
 62
     3
370
    25
100
AcDbCircle
 10
123.8562628393536
 20
234.3777494476565
 30
0.0
 40
0.5029868609410045
100
AcDbArc
 50
122.1830440813434
 51
237.8169559186562
  0
LINE
  5
20E
330
1F
100
AcDbEntity
  8
NoLayerName_001
  6
Continuous
 62
     7
370
    50
100
AcDbLine
 10
123.3532759784127
 20
225.0527493522891
 30
0.0
 11
123.3532759784127
 21
226.4027492569217
 31
0.0
  0
LINE
  5
20F
330
1F
100
AcDbEntity
  8
NoLayerName_001
  6
Continuous
 62
     7
370
    50
100
AcDbLine
 10
125.4532758830452
 20
225.0527493522891
 30
0.0
 11
125.4532758830452
 21
226.4027492569217
 31
0.0
  0
LINE
  5
210
330
1F
100
AcDbEntity
  8
NoLayerName_001
  6
Continuous
 62
     7
370
    50
100
AcDbLine
 10
123.3532759784127
 20
226.4027492569217
 30
0.0
 11
125.4532758830452
 21
226.4027492569217
 31
0.0
  0
ARC
  5
211
330
1F
100
AcDbEntity
  8
NoLayerName_001
  6
Continuous
 62
     3
370
    25
100
AcDbCircle
 10
124.4032759784127
 20
226.596961738892
 30
0.0
 40
1.529998892572705
100
AcDbArc
 50
237.8169559186578
 51
302.1830440813421
  0
ARC
  5
212
330
1F
100
AcDbEntity
  8
NoLayerName_001
  6
Continuous
 62
     3
370
    25
100
AcDbCircle
 10
124.4032759784127
 20
224.8585367749513
 30
0.0
 40
1.529998892572699
100
AcDbArc
 50
57.81695591865792
 51
122.1830440813422
  0
ARC
  5
213
330
1F
100
AcDbEntity
  8
NoLayerName_001
  6
Continuous
 62
     3
370
    25
100
AcDbCircle
 10
124.9502891174716
 20
225.7277492569217
 30
0.0
 40
0.5029868609410105
100
AcDbArc
 50
302.1830440813434
 51
57.81695591865657
  0
ARC
  5
214
330
1F
100
AcDbEntity
  8
NoLayerName_001
  6
Continuous
 62
     3
370
    25
100
AcDbCircle
 10
123.8562628393536
 20
225.7277492569217
 30
0.0
 40
0.5029868609410045
100
AcDbArc
 50
122.1830440813438
 51
237.8169559186562
  0
LINE
  5
215
330
1F
100
AcDbEntity
  8
NoLayerName_001
  6
Continuous
 62
     7
370
    50
100
AcDbLine
 10
125.4532758830452
 20
225.0527493522891
 30
0.0
 11
136.3532759784127
 21
225.0527493522891
 31
0.0
  0
LINE
  5
216
330
1F
100
AcDbEntity
  8
NoLayerName_001
  6
Continuous
 62
     7
370
    50
100
AcDbLine
 10
168.8532759784127
 20
213.5527493522891
 30
0.0
 11
184.8532759784127
 21
213.5527493522891
 31
0.0
  0
LINE
  5
217
330
1F
100
AcDbEntity
  8
NoLayerName_001
  6
Continuous
 62
     7
370
    50
100
AcDbLine
 10
167.8532759784127
 20
214.5527493522891
 30
0.0
 11
168.8532759784127
 21
213.5527493522891
 31
0.0
  0
LINE
  5
218
330
1F
100
AcDbEntity
  8
NoLayerName_001
  6
Continuous
 62
     7
370
    50
100
AcDbLine
 10
167.8532759784127
 20
223.0527493522891
 30
0.0
 11
167.8532759784127
 21
214.5527493522891
 31
0.0
  0
LINE
  5
219
330
1F
100
AcDbEntity
  8
NoLayerName_001
  6
Continuous
 62
     7
370
    50
100
AcDbLine
 10
167.8532759784127
 20
222.5527493522891
 30
0.0
 11
169.3532759784127
 21
224.0527493522891
 31
0.0
  0
LINE
  5
21A
330
1F
100
AcDbEntity
  8
NoLayerName_001
  6
Continuous
 62
     7
370
    50
100
AcDbLine
 10
184.8532759784127
 20
213.5527493522891
 30
0.0
 11
185.8532759784127
 21
214.5527493522891
 31
0.0
  0
LINE
  5
21B
330
1F
100
AcDbEntity
  8
NoLayerName_001
  6
Continuous
 62
     7
370
    50
100
AcDbLine
 10
185.8532759784127
 20
222.5527493522891
 30
0.0
 11
184.3532759784127
 21
224.0527493522891
 31
0.0
  0
LINE
  5
21C
330
1F
100
AcDbEntity
  8
NoLayerName_001
  6
Continuous
 62
     7
370
    50
100
AcDbLine
 10
248.8532759784127
 20
236.0527493522891
 30
0.0
 11
248.8532759784127
 21
224.0527493522891
 31
0.0
  0
ARC
  5
21D
330
1F
100
AcDbEntity
  8
NoLayerName_001
  6
Continuous
 62
     7
370
    50
100
AcDbCircle
 10
247.8532759784127
 20
236.0527493522891
 30
0.0
 40
1.0
100
AcDbArc
 50
0.0
 51
90.0
  0
ARC
  5
21E
330
1F
100
AcDbEntity
  8
NoLayerName_001
  6
Continuous
 62
     7
370
    50
100
AcDbCircle
 10
247.8532759784127
 20
224.0527493522891
 30
0.0
 40
1.0
100
AcDbArc
 50
270.0
 51
0.0
  0
LINE
  5
21F
330
1F
100
AcDbEntity
  8
NoLayerName_001
  6
Continuous
 62
     7
370
    50
100
AcDbLine
 10
240.8532759784127
 20
233.1027493046054
 30
0.0
 11
240.8532759784127
 21
227.0027491138705
 31
0.0
  0
LINE
  5
220
330
1F
100
AcDbEntity
  8
NoLayerName_001
  6
Continuous
 62
     7
370
    50
100
AcDbLine
 10
240.8532759784127
 20
233.1027493046054
 30
0.0
 11
243.8532759784127
 21
233.1027493046054
 31
0.0
  0
LINE
  5
221
330
1F
100
AcDbEntity
  8
NoLayerName_001
  6
Continuous
 62
     7
370
    50
100
AcDbLine
 10
240.8532759784127
 20
233.1027493046054
 30
0.0
 11
239.958383088699
 21
231.5527493522891
 31
0.0
  0
LINE
  5
222
330
1F
100
AcDbEntity
  8
NoLayerName_001
  6
Continuous
 62
     7
370
    50
100
AcDbLine
 10
240.8532759784127
 20
227.0027491138705
 30
0.0
 11
239.9583829235177
 21
228.5527493522891
 31
0.0
  0
LINE
  5
223
330
1F
100
AcDbEntity
  8
NoLayerName_001
  6
Continuous
 62
     7
370
    50
100
AcDbLine
 10
237.8532759784127
 20
239.5527493522891
 30
0.0
 11
237.8532759784127
 21
236.9527493522891
 31
0.0
  0
LINE
  5
224
330
1F
100
AcDbEntity
  8
NoLayerName_001
  6
Continuous
 62
     7
370
    50
100
AcDbLine
 10
243.8532759784127
 20
233.5168509674268
 30
0.0
 11
248.8532759784127
 21
233.5168509674268
 31
0.0
  0
LINE
  5
225
330
1F
100
AcDbEntity
  8
NoLayerName_001
  6
Continuous
 62
     7
370
    50
100
AcDbLine
 10
243.8532759784127
 20
231.784800159858
 30
0.0
 11
248.8532759784127
 21
231.784800159858
 31
0.0
  0
LINE
  5
226
330
1F
100
AcDbEntity
  8
NoLayerName_001
  6
Continuous
 62
     7
370
    50
100
AcDbLine
 10
243.8532759784127
 20
228.3206985447202
 30
0.0
 11
248.8532759784127
 21
228.3206985447202
 31
0.0
  0
LINE
  5
227
330
1F
100
AcDbEntity
  8
NoLayerName_001
  6
Continuous
 62
     7
370
    50
100
AcDbLine
 10
243.8532759784127
 20
226.5886477371513
 30
0.0
 11
248.8532759784127
 21
226.5886477371513
 31
0.0
  0
LINE
  5
228
330
1F
100
AcDbEntity
  8
NoLayerName_001
  6
Continuous
 62
     7
370
    50
100
AcDbLine
 10
224.3532759784127
 20
240.5527493522891
 30
0.0
 11
236.8532759784127
 21
240.5527493522891
 31
0.0
  0
LINE
  5
229
330
1F
100
AcDbEntity
  8
NoLayerName_001
  6
Continuous
 62
     7
370
    50
100
AcDbLine
 10
224.3532759784127
 20
219.5527493522891
 30
0.0
 11
236.8532759784127
 21
219.5527493522891
 31
0.0
  0
LINE
  5
22A
330
1F
100
AcDbEntity
  8
NoLayerName_001
  6
Continuous
 62
     7
370
    50
100
AcDbLine
 10
238.8532759784127
 20
237.0527493522891
 30
0.0
 11
238.8532759784127
 21
236.9527493522891
 31
0.0
  0
LINE
  5
22B
330
1F
100
AcDbEntity
  8
NoLayerName_001
  6
Continuous
 62
     7
370
    50
100
AcDbLine
 10
238.2532759784126
 20
236.5527493522891
 30
0.0
 11
238.4532759784126
 21
236.5527493522891
 31
0.0
  0
ARC
  5
22C
330
1F
100
AcDbEntity
  8
NoLayerName_001
  6
Continuous
 62
     7
370
    50
100
AcDbCircle
 10
238.2532759784126
 20
236.9527493522891
 30
0.0
 40
0.3999999999999986
100
AcDbArc
 50
180.0
 51
270.0
  0
ARC
  5
22D
330
1F
100
AcDbEntity
  8
NoLayerName_001
  6
Continuous
 62
     7
370
    50
100
AcDbCircle
 10
238.4532759784127
 20
236.9527493522891
 30
0.0
 40
0.4000000000000057
100
AcDbArc
 50
270.0
 51
0.0
  0
LINE
  5
22E
330
1F
100
AcDbEntity
  8
NoLayerName_001
  6
Continuous
 62
     7
370
    50
100
AcDbLine
 10
237.8532759784127
 20
239.5527493522891
 30
0.0
 11
236.8532759784127
 21
240.5527493522891
 31
0.0
  0
LINE
  5
22F
330
1F
100
AcDbEntity
  8
NoLayerName_001
  6
Continuous
 62
     7
370
    50
100
AcDbLine
 10
237.8532759784127
 20
220.5527493522891
 30
0.0
 11
237.8532759784127
 21
223.1527493522891
 31
0.0
  0
LINE
  5
230
330
1F
100
AcDbEntity
  8
NoLayerName_001
  6
Continuous
 62
     7
370
    50
100
AcDbLine
 10
238.8532759784127
 20
223.0527493522891
 30
0.0
 11
238.8532759784127
 21
223.1527493522891
 31
0.0
  0
LINE
  5
231
330
1F
100
AcDbEntity
  8
NoLayerName_001
  6
Continuous
 62
     7
370
    50
100
AcDbLine
 10
238.2532759784126
 20
223.5527493522891
 30
0.0
 11
238.4532759784126
 21
223.5527493522891
 31
0.0
  0
ARC
  5
232
330
1F
100
AcDbEntity
  8
NoLayerName_001
  6
Continuous
 62
     7
370
    50
100
AcDbCircle
 10
238.2532759784126
 20
223.1527493522891
 30
0.0
 40
0.4000000000000057
100
AcDbArc
 50
90.0
 51
180.0
  0
ARC
  5
233
330
1F
100
AcDbEntity
  8
NoLayerName_001
  6
Continuous
 62
     7
370
    50
100
AcDbCircle
 10
238.4532759784127
 20
223.1527493522891
 30
0.0
 40
0.3999999999999986
100
AcDbArc
 50
0.0
 51
90.0
  0
LINE
  5
234
330
1F
100
AcDbEntity
  8
NoLayerName_001
  6
Continuous
 62
     7
370
    50
100
AcDbLine
 10
237.8532759784127
 20
220.5527493522891
 30
0.0
 11
236.8532759784127
 21
219.5527493522891
 31
0.0
  0
LINE
  5
235
330
1F
100
AcDbEntity
  8
NoLayerName_001
  6
Continuous
 62
     7
370
    50
100
AcDbLine
 10
192.8532759784127
 20
224.0527493522891
 30
0.0
 11
192.8532759784127
 21
223.0527493522891
 31
0.0
  0
LINE
  5
236
330
1F
100
AcDbEntity
  8
NoLayerName_001
  6
Continuous
 62
     3
370
    25
100
AcDbLine
 10
192.8532759784127
 20
224.0527493522891
 30
0.0
 11
194.5853267859816
 21
223.0527493522891
 31
0.0
  0
ARC
  5
237
330
1F
100
AcDbEntity
  8
NoLayerName_001
  6
Continuous
 62
     7
370
    50
100
AcDbCircle
 10
223.4532759784127
 20
237.4527493522891
 30
0.0
 40
0.4000000000000057
100
AcDbArc
 50
270.0
 51
0.0
  0
ARC
  5
238
330
1F
100
AcDbEntity
  8
NoLayerName_001
  6
Continuous
 62
     7
370
    50
100
AcDbCircle
 10
223.4532759784127
 20
222.6527493522891
 30
0.0
 40
0.3999999999999986
100
AcDbArc
 50
0.0
 51
90.0
  0
LINE
  5
239
330
1F
100
AcDbEntity
  8
NoLayerName_001
  6
Continuous
 62
     7
370
    50
100
AcDbLine
 10
223.8532759784127
 20
222.6527493522891
 30
0.0
 11
223.8532759784127
 21
218.7527493522891
 31
0.0
  0
LINE
  5
23A
330
1F
100
AcDbEntity
  8
NoLayerName_001
  6
Continuous
 62
     7
370
    50
100
AcDbLine
 10
223.8532759784127
 20
241.8027493522891
 30
0.0
 11
223.4032759784126
 21
241.8027493522891
 31
0.0
  0
LINE
  5
23B
330
1F
100
AcDbEntity
  8
NoLayerName_001
  6
Continuous
 62
     7
370
    50
100
AcDbLine
 10
323.8532759784126
 20
240.877701158225
 30
0.0
 11
323.8532759784126
 21
219.1557017675612
 31
0.0
  0
LINE
  5
23C
330
1F
100
AcDbEntity
  8
NoLayerName_001
  6
Continuous
 62
     7
370
    50
100
AcDbLine
 10
240.8532759784127
 20
227.0027491138705
 30
0.0
 11
243.8532759784127
 21
227.0027491138705
 31
0.0
  0
LINE
  5
23D
330
1F
100
AcDbEntity
  8
NoLayerName_001
  6
Continuous
 62
     7
370
    50
100
AcDbLine
 10
243.8532759784127
 20
233.5168509674268
 30
0.0
 11
243.8532759784127
 21
226.5886477371513
 31
0.0
  0
LINE
  5
23E
330
1F
100
AcDbEntity
  8
NoLayerName_001
  6
Continuous
 62
     7
370
    50
100
AcDbLine
 10
239.958383088699
 20
231.5527493522891
 30
0.0
 11
239.958383088699
 21
228.5527493522891
 31
0.0
  0
LINE
  5
23F
330
1F
100
AcDbEntity
  8
NoLayerName_001
  6
Continuous
 62
     7
370
    50
100
AcDbLine
 10
223.8532759784127
 20
240.0527493522891
 30
0.0
 11
224.3532759784127
 21
240.5527493522891
 31
0.0
  0
LINE
  5
240
330
1F
100
AcDbEntity
  8
NoLayerName_001
  6
Continuous
 62
     7
370
    50
100
AcDbLine
 10
223.8532759784127
 20
220.0527493522891
 30
0.0
 11
224.3532759784127
 21
219.5527493522891
 31
0.0
  0
ARC
  5
241
330
1F
100
AcDbEntity
  8
NoLayerName_001
  6
Continuous
 62
     7
370
    50
100
AcDbCircle
 10
322.5920808228967
 20
239.0527493522891
 30
0.0
 40
4.0
100
AcDbArc
 50
54.99999999999996
 51
90.0
  0
ARC
  5
242
330
1F
100
AcDbEntity
  8
NoLayerName_001
  6
Continuous
 62
     7
370
    50
100
AcDbCircle
 10
322.5920808228967
 20
221.0527493522891
 30
0.0
 40
4.000000000000001
100
AcDbArc
 50
270.0
 51
304.9999999999999
  0
LINE
  5
243
330
1F
100
AcDbEntity
  8
NoLayerName_001
  6
Continuous
 62
     7
370
    50
100
AcDbLine
 10
196.8532759784127
 20
243.0527493522891
 30
0.0
 11
196.8532759784127
 21
241.5788745258785
 31
0.0
  0
LINE
  5
244
330
1F
100
AcDbEntity
  8
NoLayerName_001
  6
Continuous
 62
     7
370
    50
100
AcDbLine
 10
196.8532759784127
 20
243.0527493522891
 30
0.0
 11
194.3532759784127
 21
243.0527493522891
 31
0.0
  0
LINE
  5
245
330
1F
100
AcDbEntity
  8
NoLayerName_001
  6
Continuous
 62
     7
370
    50
100
AcDbLine
 10
196.8532759784127
 20
243.0527493522891
 30
0.0
 11
198.1032759784127
 21
241.8027493522891
 31
0.0
  0
LINE
  5
246
330
1F
100
AcDbEntity
  8
NoLayerName_001
  6
Continuous
 62
     7
370
    50
100
AcDbLine
 10
193.8532759784127
 20
245.8027493522891
 30
0.0
 11
194.3532759784127
 21
246.3027493522891
 31
0.0
  0
LINE
  5
247
330
1F
100
AcDbEntity
  8
NoLayerName_001
  6
Continuous
 62
     7
370
    50
100
AcDbLine
 10
194.3532759784127
 20
243.0527493522891
 30
0.0
 11
193.8532759784127
 21
243.3414244868839
 31
0.0
  0
LINE
  5
248
330
1F
100
AcDbEntity
  8
NoLayerName_001
  6
Continuous
 62
     7
370
    50
100
AcDbLine
 10
194.3532759784127
 20
243.0527493522891
 30
0.0
 11
194.3532759784127
 21
241.778372469861
 31
0.0
  0
LINE
  5
249
330
1F
100
AcDbEntity
  8
NoLayerName_001
  6
Continuous
 62
     7
370
    50
100
AcDbLine
 10
194.6532759784127
 20
241.5527493522891
 30
0.0
 11
196.8532759784127
 21
241.5527493522891
 31
0.0
  0
LINE
  5
24A
330
1F
100
AcDbEntity
  8
NoLayerName_001
  6
Continuous
 62
     7
370
    50
100
AcDbLine
 10
196.8532759784127
 20
241.5527493522891
 30
0.0
 11
197.8532759784127
 21
242.5527493522891
 31
0.0
  0
LINE
  5
24B
330
1F
100
AcDbEntity
  8
NoLayerName_001
  6
Continuous
 62
     3
370
    25
100
AcDbLine
 10
197.8532759784127
 20
242.5527493522891
 30
0.0
 11
197.3532759784127
 21
242.5527493522891
 31
0.0
  0
ARC
  5
24C
330
1F
100
AcDbEntity
  8
NoLayerName_001
  6
Continuous
 62
     7
370
    50
100
AcDbCircle
 10
194.6532759784127
 20
242.3527493522891
 30
0.0
 40
0.7999999999999972
100
AcDbArc
 50
180.0
 51
270.0
  0
LINE
  5
24D
330
1F
100
AcDbEntity
  8
NoLayerName_001
  6
Continuous
 62
     7
370
    50
100
AcDbLine
 10
193.8532759784127
 20
247.7527493522891
 30
0.0
 11
194.1532759784127
 21
248.0527493522891
 31
0.0
  0
LINE
  5
24E
330
1F
100
AcDbEntity
  8
NoLayerName_001
  6
Continuous
 62
     7
370
    50
100
AcDbLine
 10
193.8532759784127
 20
246.6027493522891
 30
0.0
 11
194.1532759784127
 21
246.3027493522891
 31
0.0
  0
LINE
  5
24F
330
1F
100
AcDbEntity
  8
NoLayerName_001
  6
Continuous
 62
     7
370
    50
100
AcDbLine
 10
194.1532759784127
 20
246.3027493522891
 30
0.0
 11
194.1532759784127
 21
246.1027493522892
 31
0.0
  0
LINE
  5
250
330
1F
100
AcDbEntity
  8
NoLayerName_001
  6
Continuous
 62
     7
370
    50
100
AcDbLine
 10
185.8532759784127
 20
247.0527493522891
 30
0.0
 11
186.8532759784127
 21
248.0527493522891
 31
0.0
  0
LINE
  5
251
330
1F
100
AcDbEntity
  8
NoLayerName_001
  6
Continuous
 62
     7
370
    50
100
AcDbLine
 10
193.8532759784127
 20
247.5527493522891
 30
0.0
 11
193.3532759784127
 21
248.0527493522891
 31
0.0
  0
LINE
  5
252
330
1F
100
AcDbEntity
  8
NoLayerName_001
  6
Continuous
 62
     7
370
    50
100
AcDbLine
 10
193.3532759784127
 20
248.0527493522891
 30
0.0
 11
186.8532759784127
 21
248.0527493522891
 31
0.0
  0
LINE
  5
253
330
1F
100
AcDbEntity
  8
NoLayerName_001
  6
Continuous
 62
     7
370
    50
100
AcDbLine
 10
185.8532759784127
 20
237.5527493522891
 30
0.0
 11
188.451352189766
 21
236.0527493522891
 31
0.0
  0
LINE
  5
254
330
1F
100
AcDbEntity
  8
NoLayerName_001
  6
Continuous
 62
     7
370
    50
100
AcDbLine
 10
167.8532759784127
 20
245.5527493522891
 30
0.0
 11
167.8532759784127
 21
237.0527493522891
 31
0.0
  0
LINE
  5
255
330
1F
100
AcDbEntity
  8
NoLayerName_001
  6
Continuous
 62
     7
370
    50
100
AcDbLine
 10
168.8532759784127
 20
246.5527493522891
 30
0.0
 11
184.8532759784127
 21
246.5527493522891
 31
0.0
  0
LINE
  5
256
330
1F
100
AcDbEntity
  8
NoLayerName_001
  6
Continuous
 62
     7
370
    50
100
AcDbLine
 10
167.8532759784127
 20
245.5527493522891
 30
0.0
 11
168.8532759784127
 21
246.5527493522891
 31
0.0
  0
LINE
  5
257
330
1F
100
AcDbEntity
  8
NoLayerName_001
  6
Continuous
 62
     7
370
    50
100
AcDbLine
 10
184.8532759784127
 20
246.5527493522891
 30
0.0
 11
185.8532759784127
 21
245.5527493522891
 31
0.0
  0
LINE
  5
258
330
1F
100
AcDbEntity
  8
NoLayerName_001
  6
Continuous
 62
     7
370
    50
100
AcDbLine
 10
167.8532759784127
 20
237.5527493522891
 30
0.0
 11
169.3532759784126
 21
236.0527493522891
 31
0.0
  0
LINE
  5
259
330
1F
100
AcDbEntity
  8
NoLayerName_001
  6
Continuous
 62
     7
370
    50
100
AcDbLine
 10
185.8532759784127
 20
237.5527493522891
 30
0.0
 11
184.3532759784127
 21
236.0527493522891
 31
0.0
  0
LINE
  5
25A
330
1F
100
AcDbEntity
  8
NoLayerName_001
  6
Continuous
 62
     7
370
    50
100
AcDbLine
 10
192.8532759784127
 20
237.0527493522891
 30
0.0
 11
192.8532759784127
 21
236.0527493522891
 31
0.0
  0
LINE
  5
25B
330
1F
100
AcDbEntity
  8
NoLayerName_001
  6
Continuous
 62
     3
370
    25
100
AcDbLine
 10
192.8532759784127
 20
236.0527493522891
 30
0.0
 11
194.5853267859815
 21
237.0527493522891
 31
0.0
  0
LINE
  5
25C
330
1F
100
AcDbEntity
  8
NoLayerName_001
  6
Continuous
 62
     7
370
    50
100
AcDbLine
 10
271.8532759784126
 20
270.5527493522891
 30
0.0
 11
280.3532759784126
 21
270.5527493522891
 31
0.0
  0
LINE
  5
25D
330
1F
100
AcDbEntity
  8
NoLayerName_001
  6
Continuous
 62
     7
370
    50
100
AcDbLine
 10
266.8532759784126
 20
235.3027493522891
 30
0.0
 11
266.8532759784126
 21
224.8027493522891
 31
0.0
  0
LINE
  5
25E
330
1F
100
AcDbEntity
  8
NoLayerName_001
  6
Continuous
 62
     7
370
    50
100
AcDbLine
 10
266.8532759784126
 20
235.3027493522891
 30
0.0
 11
264.2532759784126
 21
235.3027493522891
 31
0.0
  0
LINE
  5
25F
330
1F
100
AcDbEntity
  8
NoLayerName_001
  6
Continuous
 62
     7
370
    50
100
AcDbLine
 10
264.2532759784126
 20
224.8027493522891
 30
0.0
 11
266.8532759784126
 21
224.8027493522891
 31
0.0
  0
LINE
  5
260
330
1F
100
AcDbEntity
  8
NoLayerName_001
  6
Continuous
 62
     7
370
    50
100
AcDbLine
 10
267.6032759784126
 20
234.5527493522891
 30
0.0
 11
278.1532759784126
 21
234.5527493522891
 31
0.0
  0
LINE
  5
261
330
1F
100
AcDbEntity
  8
NoLayerName_001
  6
Continuous
 62
     7
370
    50
100
AcDbLine
 10
267.6032759784126
 20
225.5527493522891
 30
0.0
 11
278.1532759784126
 21
225.5527493522891
 31
0.0
  0
LINE
  5
262
330
1F
100
AcDbEntity
  8
NoLayerName_001
  6
Continuous
 62
     7
370
    50
100
AcDbLine
 10
266.8532759784126
 20
235.3027493522891
 30
0.0
 11
267.6032759784126
 21
234.5527493522891
 31
0.0
  0
LINE
  5
263
330
1F
100
AcDbEntity
  8
NoLayerName_001
  6
Continuous
 62
     7
370
    50
100
AcDbLine
 10
267.6032759784126
 20
234.5527493522891
 30
0.0
 11
267.6032759784126
 21
225.5527493522891
 31
0.0
  0
ARC
  5
264
330
1F
100
AcDbEntity
  8
NoLayerName_001
  6
Continuous
 62
     7
370
    50
100
AcDbCircle
 10
264.2532759784126
 20
225.2027493522891
 30
0.0
 40
0.3999999999999986
100
AcDbArc
 50
180.0
 51
270.0
  0
ARC
  5
265
330
1F
100
AcDbEntity
  8
NoLayerName_001
  6
Continuous
 62
     7
370
    50
100
AcDbCircle
 10
264.2532759784126
 20
234.902749352289
 30
0.0
 40
0.3999999999999986
100
AcDbArc
 50
90.0
 51
180.0
  0
LINE
  5
266
330
1F
100
AcDbEntity
  8
NoLayerName_001
  6
Continuous
 62
     7
370
    50
100
AcDbLine
 10
266.8532759784126
 20
224.8027493522891
 30
0.0
 11
267.6032759784126
 21
225.5527493522891
 31
0.0
  0
LINE
  5
267
330
1F
100
AcDbEntity
  8
NoLayerName_001
  6
Continuous
 62
     7
370
    50
100
AcDbLine
 10
351.3532759784126
 20
252.0527493522891
 30
0.0
 11
349.8532759784126
 21
252.0527493522891
 31
0.0
  0
LINE
  5
268
330
1F
100
AcDbEntity
  8
NoLayerName_001
  6
Continuous
 62
     7
370
    50
100
AcDbLine
 10
351.3532759784126
 20
252.0527493522891
 30
0.0
 11
351.8532759784126
 21
251.5527493522891
 31
0.0
  0
LINE
  5
269
330
1F
100
AcDbEntity
  8
NoLayerName_001
  6
Continuous
 62
     7
370
    50
100
AcDbLine
 10
350.8532759784126
 20
253.5527493522891
 30
0.0
 11
351.8532759784126
 21
253.5527493522891
 31
0.0
  0
LINE
  5
26A
330
1F
100
AcDbEntity
  8
NoLayerName_001
  6
Continuous
 62
     7
370
    50
100
AcDbLine
 10
350.8532759784126
 20
206.5527493522891
 30
0.0
 11
351.8532759784126
 21
206.5527493522891
 31
0.0
  0
LINE
  5
26B
330
1F
100
AcDbEntity
  8
NoLayerName_001
  6
Continuous
 62
     7
370
    50
100
AcDbLine
 10
351.8532759784126
 20
251.5527493522891
 30
0.0
 11
351.8532759784126
 21
230.0527493522891
 31
0.0
  0
LINE
  5
26C
330
1F
100
AcDbEntity
  8
NoLayerName_001
  6
Continuous
 62
     7
370
    50
100
AcDbLine
 10
351.3532759784126
 20
208.0527493522891
 30
0.0
 11
349.8532759784126
 21
208.0527493522891
 31
0.0
  0
LINE
  5
26D
330
1F
100
AcDbEntity
  8
NoLayerName_001
  6
Continuous
 62
     7
370
    50
100
AcDbLine
 10
351.3532759784126
 20
208.0527493522891
 30
0.0
 11
351.8532759784126
 21
208.5527493522891
 31
0.0
  0
LINE
  5
26E
330
1F
100
AcDbEntity
  8
NoLayerName_001
  6
Continuous
 62
     7
370
    50
100
AcDbLine
 10
351.8532759784126
 20
208.5527493522891
 30
0.0
 11
351.8532759784126
 21
230.0527493522891
 31
0.0
  0
LINE
  5
26F
330
1F
100
AcDbEntity
  8
NoLayerName_001
  6
Continuous
 62
     7
370
    50
100
AcDbLine
 10
351.8532759784126
 20
264.0527493522891
 30
0.0
 11
351.8532759784126
 21
252.0527493522891
 31
0.0
  0
LINE
  5
270
330
1F
100
AcDbEntity
  8
NoLayerName_001
  6
Continuous
 62
     7
370
    50
100
AcDbLine
 10
351.8532759784126
 20
208.0527493522891
 30
0.0
 11
351.8532759784126
 21
196.0527493522892
 31
0.0
  0
LINE
  5
271
330
1F
100
AcDbEntity
  8
NoLayerName_001
  6
CENTER
 62
     3
370
    25
100
AcDbLine
 10
355.7771040807087
 20
230.0527493522891
 30
0.0
 11
116.0057901056278
 21
230.0527493522891
 31
0.0
  0
DIMENSION
  5
272
102
{ACAD_XDICTIONARY
360
273
102
}
330
1F
100
AcDbEntity
  8
NoLayerName_001
  6
Continuous
 62
     3
370
    25
100
AcDbDimension
  2
*D3
 10
351.8532759784126
 20
320.1978428955039
 30
0.0
 11
324.3532759784126
 21
320.1978428955039
 31
0.0
 70
   160
  1
\W0.8000;<>
 71
     5
 42
55.0
  3
Standard
100
AcDbAlignedDimension
 13
296.8532759784126
 23
238.5527493522891
 33
0.0
 14
351.8532759784126
 24
251.5527493522891
 34
0.0
100
AcDbRotatedDimension
1001
ACAD
1000
DSTYLE
1002
{
1070
   347
1005
16
1070
   372
1070
    25
1070
   346
1005
16
1070
   371
1070
    25
1070
   345
1005
16
1070
   178
1070
     0
1070
   177
1070
     0
1070
   176
1070
     0
1070
    47
1040
0.0
1070
    48
1040
0.0
1070
    78
1070
     8
1070
   271
1070
     3
1070
    41
1040
2.0
1070
   342
1005
274
1070
    44
1040
1.199999999999989
1070
   147
1040
1.0
1070
   140
1040
3.5
1002
}
1001
ACAD_DSTYLE_DIM_LINETYPE
1070
   380
1005
16
1001
ACAD_DSTYLE_DIM_EXT1_LINETYPE
1070
   381
1005
16
1001
ACAD_DSTYLE_DIM_EXT2_LINETYPE
1070
   382
1005
16
  0
DIMENSION
  5
286
102
{ACAD_XDICTIONARY
360
287
102
}
330
1F
100
AcDbEntity
  8
NoLayerName_001
  6
Continuous
 62
     3
370
    25
100
AcDbDimension
  2
*D4
 10
351.8532759784126
 20
330.1978428955039
 30
0.0
 11
307.8532759784126
 21
330.1978428955039
 31
0.0
 70
   160
  1
\W0.8000;<>
 71
     5
 42
88.0
  3
Standard
100
AcDbAlignedDimension
 13
263.8532759784126
 23
244.8980488139098
 33
0.0
 14
351.8532759784126
 24
251.5527493522891
 34
0.0
100
AcDbRotatedDimension
1001
ACAD
1000
DSTYLE
1002
{
1070
   347
1005
16
1070
   372
1070
    25
1070
   346
1005
16
1070
   371
1070
    25
1070
   345
1005
16
1070
   178
1070
     0
1070
   177
1070
     0
1070
   176
1070
     0
1070
    47
1040
0.0
1070
    48
1040
0.0
1070
    78
1070
     8
1070
   271
1070
     3
1070
    41
1040
2.0
1070
   342
1005
274
1070
    44
1040
1.199999999999989
1070
   147
1040
1.0
1070
   140
1040
3.5
1002
}
1001
ACAD_DSTYLE_DIM_LINETYPE
1070
   380
1005
16
1001
ACAD_DSTYLE_DIM_EXT1_LINETYPE
1070
   381
1005
16
1001
ACAD_DSTYLE_DIM_EXT2_LINETYPE
1070
   382
1005
16
  0
DIMENSION
  5
294
102
{ACAD_XDICTIONARY
360
295
102
}
330
1F
100
AcDbEntity
  8
NoLayerName_001
  6
Continuous
 62
     3
370
    25
100
AcDbDimension
  2
*D5
 10
256.8532759784126
 20
130.1978428955039
 30
0.0
 11
251.8532759784127
 21
130.1978428955039
 31
0.0
 70
   160
  1
\W0.8000;<>
 71
     5
 42
9.999999999999972
  3
Standard
100
AcDbAlignedDimension
 13
246.8532759784127
 23
196.0527493522891
 33
0.0
 14
256.8532759784126
 24
172.5527493522891
 34
0.0
100
AcDbRotatedDimension
1001
ACAD
1000
DSTYLE
1002
{
1070
   347
1005
16
1070
   372
1070
    25
1070
   346
1005
16
1070
   371
1070
    25
1070
   345
1005
16
1070
   178
1070
     0
1070
   177
1070
     0
1070
   176
1070
     0
1070
    47
1040
0.0
1070
    48
1040
0.0
1070
    78
1070
     8
1070
   271
1070
     3
1070
    41
1040
2.0
1070
   342
1005
274
1070
    44
1040
1.199999999999989
1070
   147
1040
1.0
1070
   140
1040
3.5
1002
}
1001
ACAD_DSTYLE_DIM_LINETYPE
1070
   380
1005
16
1001
ACAD_DSTYLE_DIM_EXT1_LINETYPE
1070
   381
1005
16
1001
ACAD_DSTYLE_DIM_EXT2_LINETYPE
1070
   382
1005
16
  0
DIMENSION
  5
2A2
102
{ACAD_XDICTIONARY
360
2A3
102
}
330
1F
100
AcDbEntity
  8
NoLayerName_001
  6
Continuous
 62
     3
370
    25
100
AcDbDimension
  2
*D6
 10
256.8532759784126
 20
130.1978428955039
 30
0.0
 11
268.8532759784126
 21
130.1978428955039
 31
0.0
 70
   160
  1
\W0.8000;<>
 71
     5
 42
24.0
  3
Standard
100
AcDbAlignedDimension
 13
280.8532759784126
 23
172.5527493522891
 33
0.0
 14
256.8532759784126
 24
172.5527493522891
 34
0.0
 50
180.0
100
AcDbRotatedDimension
1001
ACAD
1000
DSTYLE
1002
{
1070
   347
1005
16
1070
   372
1070
    25
1070
   346
1005
16
1070
   371
1070
    25
1070
   345
1005
16
1070
   178
1070
     0
1070
   177
1070
     0
1070
   176
1070
     0
1070
    47
1040
0.0
1070
    48
1040
0.0
1070
    78
1070
     8
1070
   271
1070
     3
1070
    41
1040
2.0
1070
   342
1005
274
1070
    44
1040
1.199999999999989
1070
   147
1040
1.0
1070
   140
1040
3.5
1002
}
1001
ACAD_DSTYLE_DIM_LINETYPE
1070
   380
1005
16
1001
ACAD_DSTYLE_DIM_EXT1_LINETYPE
1070
   381
1005
16
1001
ACAD_DSTYLE_DIM_EXT2_LINETYPE
1070
   382
1005
16
  0
DIMENSION
  5
2B0
102
{ACAD_XDICTIONARY
360
2B1
102
}
330
1F
100
AcDbEntity
  8
NoLayerName_001
  6
Continuous
 62
     3
370
    25
100
AcDbDimension
  2
*D7
 10
119.8532759784126
 20
120.1978428955039
 30
0.0
 11
128.8532759784127
 21
120.1978428955039
 31
0.0
 70
   160
  1
\W0.8000;<>
 71
     5
 42
18.0
  3
Standard
100
AcDbAlignedDimension
 13
137.8532759784127
 23
224.2527493522891
 33
0.0
 14
119.8532759784127
 24
225.4546731409358
 34
0.0
 50
180.0
100
AcDbRotatedDimension
1001
ACAD
1000
DSTYLE
1002
{
1070
   347
1005
16
1070
   372
1070
    25
1070
   346
1005
16
1070
   371
1070
    25
1070
   345
1005
16
1070
   178
1070
     0
1070
   177
1070
     0
1070
   176
1070
     0
1070
    47
1040
0.0
1070
    48
1040
0.0
1070
    78
1070
     8
1070
   271
1070
     3
1070
    41
1040
2.0
1070
   342
1005
274
1070
    44
1040
1.199999999999989
1070
   147
1040
1.0
1070
   140
1040
3.5
1002
}
1001
ACAD_DSTYLE_DIM_LINETYPE
1070
   380
1005
16
1001
ACAD_DSTYLE_DIM_EXT1_LINETYPE
1070
   381
1005
16
1001
ACAD_DSTYLE_DIM_EXT2_LINETYPE
1070
   382
1005
16
  0
DIMENSION
  5
2BE
102
{ACAD_XDICTIONARY
360
2BF
102
}
330
1F
100
AcDbEntity
  8
NoLayerName_001
  6
Continuous
 62
     3
370
    25
100
AcDbDimension
  2
*D8
 10
167.8532759784127
 20
120.1978428955039
 30
0.0
 11
152.8532759784127
 21
120.1978428955039
 31
0.0
 70
   160
  1
\W0.8000;<>
 71
     5
 42
30.0
  3
Standard
100
AcDbAlignedDimension
 13
137.8532759784127
 23
224.2527493522891
 33
0.0
 14
167.8532759784127
 24
214.5527493522891
 34
0.0
100
AcDbRotatedDimension
1001
ACAD
1000
DSTYLE
1002
{
1070
   347
1005
16
1070
   372
1070
    25
1070
   346
1005
16
1070
   371
1070
    25
1070
   345
1005
16
1070
   178
1070
     0
1070
   177
1070
     0
1070
   176
1070
     0
1070
    47
1040
0.0
1070
    48
1040
0.0
1070
    78
1070
     8
1070
   271
1070
     3
1070
    41
1040
2.0
1070
   342
1005
274
1070
    44
1040
1.199999999999989
1070
   147
1040
1.0
1070
   140
1040
3.5
1002
}
1001
ACAD_DSTYLE_DIM_LINETYPE
1070
   380
1005
16
1001
ACAD_DSTYLE_DIM_EXT1_LINETYPE
1070
   381
1005
16
1001
ACAD_DSTYLE_DIM_EXT2_LINETYPE
1070
   382
1005
16
  0
DIMENSION
  5
2CC
102
{ACAD_XDICTIONARY
360
2CD
102
}
330
1F
100
AcDbEntity
  8
NoLayerName_001
  6
Continuous
 62
     3
370
    25
100
AcDbDimension
  2
*D9
 10
167.8532759784127
 20
120.1978428955039
 30
0.0
 11
212.3532759784127
 21
120.1978428955039
 31
0.0
 70
   160
  1
\W0.8000;<>
 71
     5
 42
88.99999999999997
  3
Standard
100
AcDbAlignedDimension
 13
256.8532759784126
 23
172.5527493522891
 33
0.0
 14
167.8532759784127
 24
214.5527493522891
 34
0.0
 50
180.0
100
AcDbRotatedDimension
1001
ACAD
1000
DSTYLE
1002
{
1070
   347
1005
16
1070
   372
1070
    25
1070
   346
1005
16
1070
   371
1070
    25
1070
   345
1005
16
1070
   178
1070
     0
1070
   177
1070
     0
1070
   176
1070
     0
1070
    47
1040
0.0
1070
    48
1040
0.0
1070
    78
1070
     8
1070
   271
1070
     3
1070
    41
1040
2.0
1070
   342
1005
274
1070
    44
1040
1.199999999999989
1070
   147
1040
1.0
1070
   140
1040
3.5
1002
}
1001
ACAD_DSTYLE_DIM_LINETYPE
1070
   380
1005
16
1001
ACAD_DSTYLE_DIM_EXT1_LINETYPE
1070
   381
1005
16
1001
ACAD_DSTYLE_DIM_EXT2_LINETYPE
1070
   382
1005
16
  0
DIMENSION
  5
2DA
102
{ACAD_XDICTIONARY
360
2DB
102
}
330
1F
100
AcDbEntity
  8
NoLayerName_001
  6
Continuous
 62
     3
370
    25
100
AcDbDimension
  2
*D10
 10
256.8532759784126
 20
120.1978428955039
 30
0.0
 11
304.3532759784126
 21
120.1978428955039
 31
0.0
 70
   160
  1
\W0.8000;<>
 71
     5
 42
95.0
  3
Standard
100
AcDbAlignedDimension
 13
351.8532759784126
 23
196.0527493522892
 33
0.0
 14
256.8532759784126
 24
172.5527493522891
 34
0.0
 50
180.0
100
AcDbRotatedDimension
1001
ACAD
1000
DSTYLE
1002
{
1070
   347
1005
16
1070
   372
1070
    25
1070
   346
1005
16
1070
   371
1070
    25
1070
   345
1005
16
1070
   178
1070
     0
1070
   177
1070
     0
1070
   176
1070
     0
1070
    47
1040
0.0
1070
    48
1040
0.0
1070
    78
1070
     8
1070
   271
1070
     3
1070
    41
1040
2.0
1070
   342
1005
274
1070
    44
1040
1.199999999999989
1070
   147
1040
1.0
1070
   140
1040
3.5
1002
}
1001
ACAD_DSTYLE_DIM_LINETYPE
1070
   380
1005
16
1001
ACAD_DSTYLE_DIM_EXT1_LINETYPE
1070
   381
1005
16
1001
ACAD_DSTYLE_DIM_EXT2_LINETYPE
1070
   382
1005
16
  0
DIMENSION
  5
2E8
102
{ACAD_XDICTIONARY
360
2E9
102
}
330
1F
100
AcDbEntity
  8
NoLayerName_001
  6
Continuous
 62
     3
370
    25
100
AcDbDimension
  2
*D11
 10
311.3363549306101
 20
235.5527493522891
 30
0.0
 11
311.3363549306101
 21
256.5349602666481
 31
0.0
 70
   160
  1
\W0.8000;<>
 71
     5
 42
11.0
  3
Standard
100
AcDbAlignedDimension
 13
296.3532759784126
 23
224.5527493522891
 33
0.0
 14
296.3532759784126
 24
235.5527493522891
 34
0.0
 50
90.0
100
AcDbRotatedDimension
1001
ACAD
1000
DSTYLE
1002
{
1070
   347
1005
16
1070
   372
1070
    25
1070
   346
1005
16
1070
   371
1070
    25
1070
   345
1005
16
1070
   178
1070
     0
1070
   177
1070
     0
1070
   176
1070
     0
1070
     3
1000
φ<>Ｈ7
1070
    47
1040
0.0
1070
    48
1040
0.0
1070
    78
1070
     8
1070
   271
1070
     3
1070
    41
1040
2.0
1070
   342
1005
274
1070
    44
1040
1.199999999999989
1070
   147
1040
1.0
1070
   140
1040
3.5
1002
}
1001
ACAD_DSTYLE_DIM_LINETYPE
1070
   380
1005
16
1001
ACAD_DSTYLE_DIM_EXT1_LINETYPE
1070
   381
1005
16
1001
ACAD_DSTYLE_DIM_EXT2_LINETYPE
1070
   382
1005
16
  0
DIMENSION
  5
2F7
102
{ACAD_XDICTIONARY
360
2F8
102
}
330
1F
100
AcDbEntity
  8
NoLayerName_001
  6
Continuous
 62
     3
370
    25
100
AcDbDimension
  2
*D12
 10
96.24636375679111
 20
235.0527493522891
 30
0.0
 11
96.24636375679111
 21
230.0527492757942
 31
0.0
 70
   160
  1
\W0.8000;<>
 71
     5
 42
10.0
  3
Standard
100
AcDbAlignedDimension
 13
121.3532759784127
 23
225.0527493522891
 33
0.0
 14
121.3532759784127
 24
235.0527493522891
 34
0.0
 50
90.0
100
AcDbRotatedDimension
1001
ACAD
1000
DSTYLE
1002
{
1070
   347
1005
16
1070
   372
1070
    25
1070
   346
1005
16
1070
   371
1070
    25
1070
   345
1005
16
1070
   178
1070
     0
1070
   177
1070
     0
1070
   176
1070
     0
1070
     3
1000
φ<>ｆ7
1070
    47
1040
0.0
1070
    48
1040
0.0
1070
    78
1070
     8
1070
   271
1070
     3
1070
    41
1040
2.0
1070
   342
1005
274
1070
    44
1040
1.200000000000003
1070
   147
1040
1.0
1070
   140
1040
3.5
1002
}
1001
ACAD_DSTYLE_DIM_LINETYPE
1070
   380
1005
16
1001
ACAD_DSTYLE_DIM_EXT1_LINETYPE
1070
   381
1005
16
1001
ACAD_DSTYLE_DIM_EXT2_LINETYPE
1070
   382
1005
16
  0
MTEXT
  5
305
102
{ACAD_REACTORS
330
306
102
}
330
1F
100
AcDbEntity
  8
NoLayerName_001
  6
Continuous
 62
     3
370
    25
100
AcDbMText
 10
106.4353820877772
 20
156.6719735923647
 30
0.0
 40
3.5
 41
0.0
 71
     9
 72
     5
  1
\A1;\W0.8333;Ｍ１４×Ｐ２．０
 73
     1
 44
0.7714285714285714
1001
ACAD
1000
ACAD_MTEXT_DEFINED_HEIGHT_BEGIN
1070
    46
1040
3.5
1000
ACAD_MTEXT_DEFINED_HEIGHT_END
  0
LEADER
  5
306
330
1F
100
AcDbEntity
  8
NoLayerName_001
  6
Continuous
 62
     3
370
    25
100
AcDbLeader
  3
Standard
 73
     0
 75
     1
 40
3.5
 41
19.1659
 76
     3
 10
151.1745352788298
 20
223.0527493522891
 30
0.0
 10
109.0603820877772
 20
156.0469735923647
 30
0.0
 10
107.0603820877772
 20
156.0469735923647
 30
0.0
340
305
1001
ACAD
1000
DSTYLE
1002
{
1070
   140
1040
3.5
1070
    41
1040
2.0
1070
   341
1005
274
1002
}
  0
LINE
  5
307
330
1F
100
AcDbEntity
  8
NoLayerName_001
  6
CENTER
 62
     3
370
    25
100
AcDbLine
 10
500.209113323037
 20
242.8034590396931
 30
0.0
 11
483.0207102384388
 21
232.8797298918606
 31
0.0
  0
LINE
  5
308
330
1F
100
AcDbEntity
  8
NoLayerName_001
  6
CENTER
 62
     3
370
    25
100
AcDbLine
 10
455.5807919175037
 20
243.0682130418509
 30
0.0
 11
472.5427554487829
 21
233.2752188310823
 31
0.0
  0
LINE
  5
309
330
1F
100
AcDbEntity
  8
NoLayerName_001
  6
Continuous
 62
     7
370
    50
100
AcDbLine
 10
471.7503727694589
 20
234.8874017226705
 30
0.0
 11
459.5913700012184
 21
241.9074052439915
 31
0.0
  0
LINE
  5
30A
330
1F
100
AcDbEntity
  8
NoLayerName_001
  6
Continuous
 62
     7
370
    50
100
AcDbLine
 10
470.7503727694589
 20
233.1553509151016
 30
0.0
 11
458.5913700012184
 21
240.1753544364226
 31
0.0
  0
LINE
  5
30B
330
1F
100
AcDbEntity
  8
NoLayerName_001
  6
Continuous
 62
     7
370
    50
100
AcDbLine
 10
484.4980998543264
 20
234.8874017226705
 30
0.0
 11
496.6571026225669
 21
241.9074052439915
 31
0.0
  0
LINE
  5
30C
330
1F
100
AcDbEntity
  8
NoLayerName_001
  6
Continuous
 62
     7
370
    50
100
AcDbLine
 10
485.4980998543264
 20
233.1553509151016
 30
0.0
 11
497.6571026225669
 21
240.1753544364226
 31
0.0
  0
ARC
  5
30D
330
1F
100
AcDbEntity
  8
NoLayerName_001
  6
Continuous
 62
     7
370
    50
100
AcDbCircle
 10
478.1242363118927
 20
230.0527493522891
 30
0.0
 40
8.0
100
AcDbArc
 50
37.1807557814583
 51
142.8192442185417
  0
ARC
  5
30E
330
1F
100
AcDbEntity
  8
NoLayerName_001
  6
Continuous
 62
     7
370
    50
100
AcDbCircle
 10
478.1242363118927
 20
230.0527493522891
 30
0.0
 40
8.0
100
AcDbArc
 50
157.1807557814583
 51
262.8192442185417
  0
ARC
  5
30F
330
1F
100
AcDbEntity
  8
NoLayerName_001
  6
Continuous
 62
     7
370
    50
100
AcDbCircle
 10
478.1242363118927
 20
230.0527493522891
 30
0.0
 40
8.0
100
AcDbArc
 50
277.1807557814583
 51
22.81924421854168
  0
LINE
  5
310
330
1F
100
AcDbEntity
  8
NoLayerName_001
  6
Continuous
 62
     7
370
    50
100
AcDbLine
 10
479.1242363118927
 20
222.1154954190953
 30
0.0
 11
479.1242363118927
 21
208.0754883764532
 31
0.0
  0
LINE
  5
311
330
1F
100
AcDbEntity
  8
NoLayerName_001
  6
Continuous
 62
     7
370
    50
100
AcDbLine
 10
477.1242363118927
 20
222.1154954190953
 30
0.0
 11
477.1242363118927
 21
208.0754883764532
 31
0.0
  0
CIRCLE
  5
312
330
1F
100
AcDbEntity
  8
NoLayerName_001
  6
Continuous
 62
     7
370
    50
100
AcDbCircle
 10
478.1242363118927
 20
230.0527493522891
 30
0.0
 40
35.0
  0
CIRCLE
  5
313
330
1F
100
AcDbEntity
  8
NoLayerName_001
  6
Continuous
 62
     7
370
    50
100
AcDbCircle
 10
478.1242363118927
 20
230.0527493522891
 30
0.0
 40
58.5
  0
LINE
  5
314
330
1F
100
AcDbEntity
  8
NoLayerName_001
  6
CENTER
 62
     3
370
    25
100
AcDbLine
 10
478.1242363118927
 20
297.3360559333485
 30
0.0
 11
478.1242363118927
 21
162.7694427712297
 31
0.0
  0
CIRCLE
  5
315
330
1F
100
AcDbEntity
  8
NoLayerName_001
  6
Continuous
 62
     7
370
    50
100
AcDbCircle
 10
478.1242363118927
 20
230.0527493522891
 30
0.0
 40
23.5
  0
ARC
  5
316
330
1F
100
AcDbEntity
  8
NoLayerName_001
  6
CENTER
 62
     3
370
    25
100
AcDbCircle
 10
478.1242363118927
 20
230.0527493522891
 30
0.0
 40
47.50000000000001
100
AcDbArc
 50
138.3134609672953
 51
163.3930731357235
  0
LINE
  5
317
330
1F
100
AcDbEntity
  8
NoLayerName_001
  6
CENTER
 62
     3
370
    25
100
AcDbLine
 10
510.6187253019753
 20
248.8134513178927
 30
0.0
 11
526.8404182187109
 21
258.1790500900814
 31
0.0
  0
LINE
  5
318
330
1F
100
AcDbEntity
  8
NoLayerName_001
  6
CENTER
 62
     3
370
    25
100
AcDbLine
 10
444.8727586567649
 20
249.2504989274299
 30
0.0
 11
428.8647650421245
 21
258.4927183500284
 31
0.0
  0
LINE
  5
319
330
1F
100
AcDbEntity
  8
NoLayerName_001
  6
CENTER
 62
     3
370
    25
100
AcDbLine
 10
465.9843222573705
 20
223.0437667049718
 30
0.0
 11
459.8282077447364
 21
219.4895323339404
 31
0.0
  0
LINE
  5
31A
330
1F
100
AcDbEntity
  8
NoLayerName_001
  6
CENTER
 62
     3
370
    25
100
AcDbLine
 10
510.8072561131925
 20
211.1831990720788
 30
0.0
 11
528.0401849849843
 21
201.2337629490241
 31
0.0
  0
ARC
  5
31B
330
1F
100
AcDbEntity
  8
NoLayerName_001
  6
Continuous
 62
     7
370
    50
100
AcDbCircle
 10
478.1242363118927
 20
230.0527493522891
 30
0.0
 40
13.0
100
AcDbArc
 50
145.5882742142299
 51
154.4117257857701
  0
ARC
  5
31C
330
1F
100
AcDbEntity
  8
NoLayerName_001
  6
Continuous
 62
     7
370
    50
100
AcDbCircle
 10
478.1242363118927
 20
230.0527493522891
 30
0.0
 40
15.0
100
AcDbArc
 50
146.1774462707257
 51
153.8225537292743
  0
ARC
  5
31D
330
1F
100
AcDbEntity
  8
NoLayerName_001
  6
CENTER
 62
     3
370
    25
100
AcDbCircle
 10
478.1242363118927
 20
230.0527493522891
 30
0.0
 40
17.50000000000001
100
AcDbArc
 50
313.6992113844066
 51
344.4109235027919
  0
ARC
  5
31E
330
1F
100
AcDbEntity
  8
NoLayerName_001
  6
Continuous
 62
     7
370
    50
100
AcDbCircle
 10
478.1242363118927
 20
230.0527493522891
 30
0.0
 40
22.0
100
AcDbArc
 50
267.3947487349427
 51
272.6052512650571
  0
ARC
  5
31F
330
1F
100
AcDbEntity
  8
NoLayerName_001
  6
Continuous
 62
     7
370
    50
100
AcDbCircle
 10
478.1242363118927
 20
230.0527493522891
 30
0.0
 40
22.0
100
AcDbArc
 50
27.39474873494257
 51
32.60525126505718
  0
ARC
  5
320
330
1F
100
AcDbEntity
  8
NoLayerName_001
  6
Continuous
 62
     7
370
    50
100
AcDbCircle
 10
478.1242363118927
 20
230.0527493522891
 30
0.0
 40
15.00000000000001
100
AcDbArc
 50
26.17744627072552
 51
33.82255372927425
  0
ARC
  5
321
330
1F
100
AcDbEntity
  8
NoLayerName_001
  6
Continuous
 62
     7
370
    50
100
AcDbCircle
 10
478.1242363118927
 20
230.0527493522891
 30
0.0
 40
12.99999999999999
100
AcDbArc
 50
25.58827421422975
 51
34.41172578577022
  0
ARC
  5
322
330
1F
100
AcDbEntity
  8
NoLayerName_001
  6
Continuous
 62
     7
370
    50
100
AcDbCircle
 10
478.1242363118927
 20
230.0527493522891
 30
0.0
 40
13.0
100
AcDbArc
 50
265.5882742142297
 51
274.41172578577
  0
ARC
  5
323
330
1F
100
AcDbEntity
  8
NoLayerName_001
  6
Continuous
 62
     7
370
    50
100
AcDbCircle
 10
478.1242363118927
 20
230.0527493522891
 30
0.0
 40
15.0
100
AcDbArc
 50
266.1774462707255
 51
273.8225537292742
  0
ARC
  5
324
330
1F
100
AcDbEntity
  8
NoLayerName_001
  6
CENTER
 62
     3
370
    25
100
AcDbCircle
 10
478.1242363118927
 20
230.0527493522891
 30
0.0
 40
17.5
100
AcDbArc
 50
311.3251009246198
 51
348.5529297618338
  0
ARC
  5
325
330
1F
100
AcDbEntity
  8
NoLayerName_001
  6
CENTER
 62
     3
370
    25
100
AcDbCircle
 10
478.1242363118927
 20
230.0527493522891
 30
0.0
 40
17.5
100
AcDbArc
 50
196.2210478472776
 51
223.4520603965284
  0
CIRCLE
  5
326
330
1F
100
AcDbEntity
  8
NoLayerName_001
  6
Continuous
 62
     7
370
    50
100
AcDbCircle
 10
478.1242363118927
 20
230.0527493522891
 30
0.0
 40
22.0
  0
LINE
  5
327
330
1F
100
AcDbEntity
  8
NoLayerName_001
  6
CENTER
 62
     3
370
    25
100
AcDbLine
 10
445.4817644985088
 20
211.2066094638171
 30
0.0
 11
428.4625349288121
 21
201.3805526903528
 31
0.0
  0
ARC
  5
328
330
1F
100
AcDbEntity
  8
NoLayerName_001
  6
Continuous
 62
     7
370
    50
100
AcDbCircle
 10
478.1242363118927
 20
230.0527493522891
 30
0.0
 40
17.49999999999999
100
AcDbArc
 50
26.72417104020153
 51
33.2758289597984
  0
ARC
  5
329
330
1F
100
AcDbEntity
  8
NoLayerName_001
  6
Continuous
 62
     7
370
    50
100
AcDbCircle
 10
478.1242363118927
 20
230.0527493522891
 30
0.0
 40
17.5
100
AcDbArc
 50
266.7241710402014
 51
273.2758289597983
  0
ARC
  5
32A
330
1F
100
AcDbEntity
  8
NoLayerName_001
  6
Continuous
 62
     7
370
    50
100
AcDbCircle
 10
478.1242363118927
 20
230.0527493522891
 30
0.0
 40
17.49999999999999
100
AcDbArc
 50
146.7241710402017
 51
153.2758289597984
  0
ARC
  5
32B
330
1F
100
AcDbEntity
  8
NoLayerName_001
  6
Continuous
 62
     7
370
    50
100
AcDbCircle
 10
478.1242363118927
 20
230.0527493522891
 30
0.0
 40
21.99999999999999
100
AcDbArc
 50
147.3947487349427
 51
152.6052512650572
  0
ARC
  5
32C
330
1F
100
AcDbEntity
  8
NoLayerName_001
  6
CENTER
 62
     3
370
    25
100
AcDbCircle
 10
478.1242363118927
 20
230.0527493522891
 30
0.0
 40
17.5
100
AcDbArc
 50
73.57679704431513
 51
106.2415634717316
  0
CIRCLE
  5
32D
330
1F
100
AcDbEntity
  8
NoLayerName_001
  6
Continuous
 62
     7
370
    50
100
AcDbCircle
 10
478.1242363118927
 20
247.5527493522891
 30
0.0
 40
2.0
  0
CIRCLE
  5
32E
330
1F
100
AcDbEntity
  8
NoLayerName_001
  6
Continuous
 62
     7
370
    50
100
AcDbCircle
 10
462.968791745665
 20
221.3027493522891
 30
0.0
 40
2.0
  0
CIRCLE
  5
32F
330
1F
100
AcDbEntity
  8
NoLayerName_001
  6
Continuous
 62
     7
370
    50
100
AcDbCircle
 10
493.2796808781204
 20
221.3027493522891
 30
0.0
 40
2.0
  0
LINE
  5
330
330
1F
100
AcDbEntity
  8
NoLayerName_001
  6
CENTER
 62
     3
370
    25
100
AcDbLine
 10
489.8420728175994
 20
223.2874532913993
 30
0.0
 11
496.6497646454781
 21
219.3570305820135
 31
0.0
  0
CIRCLE
  5
331
330
1F
100
AcDbEntity
  8
NoLayerName_001
  6
Continuous
 62
     7
370
    50
100
AcDbCircle
 10
478.1242363118927
 20
182.5527493522891
 30
0.0
 40
4.5
  0
CIRCLE
  5
332
330
1F
100
AcDbEntity
  8
NoLayerName_001
  6
Continuous
 62
     7
370
    50
100
AcDbCircle
 10
478.1242363118927
 20
182.5527493522891
 30
0.0
 40
7.0
  0
CIRCLE
  5
333
330
1F
100
AcDbEntity
  8
NoLayerName_001
  6
Continuous
 62
     7
370
    50
100
AcDbCircle
 10
519.2604429916535
 20
206.3027493522891
 30
0.0
 40
4.5
  0
CIRCLE
  5
334
330
1F
100
AcDbEntity
  8
NoLayerName_001
  6
Continuous
 62
     7
370
    50
100
AcDbCircle
 10
519.2604429916535
 20
206.3027493522891
 30
0.0
 40
7.0
  0
CIRCLE
  5
335
330
1F
100
AcDbEntity
  8
NoLayerName_001
  6
Continuous
 62
     7
370
    50
100
AcDbCircle
 10
519.2604429916535
 20
253.8027493522891
 30
0.0
 40
4.5
  0
CIRCLE
  5
336
330
1F
100
AcDbEntity
  8
NoLayerName_001
  6
Continuous
 62
     7
370
    50
100
AcDbCircle
 10
519.2604429916535
 20
253.8027493522891
 30
0.0
 40
7.0
  0
CIRCLE
  5
337
330
1F
100
AcDbEntity
  8
NoLayerName_001
  6
Continuous
 62
     7
370
    50
100
AcDbCircle
 10
478.1242363118927
 20
277.5527493522891
 30
0.0
 40
4.5
  0
CIRCLE
  5
338
330
1F
100
AcDbEntity
  8
NoLayerName_001
  6
Continuous
 62
     7
370
    50
100
AcDbCircle
 10
478.1242363118927
 20
277.5527493522891
 30
0.0
 40
7.0
  0
CIRCLE
  5
339
330
1F
100
AcDbEntity
  8
NoLayerName_001
  6
Continuous
 62
     7
370
    50
100
AcDbCircle
 10
436.9880296321318
 20
253.8027493522891
 30
0.0
 40
4.5
  0
CIRCLE
  5
33A
330
1F
100
AcDbEntity
  8
NoLayerName_001
  6
Continuous
 62
     7
370
    50
100
AcDbCircle
 10
436.9880296321318
 20
253.8027493522891
 30
0.0
 40
7.0
  0
CIRCLE
  5
33B
330
1F
100
AcDbEntity
  8
NoLayerName_001
  6
Continuous
 62
     7
370
    50
100
AcDbCircle
 10
436.9880296321318
 20
206.3027493522891
 30
0.0
 40
4.5
  0
CIRCLE
  5
33C
330
1F
100
AcDbEntity
  8
NoLayerName_001
  6
Continuous
 62
     7
370
    50
100
AcDbCircle
 10
436.9880296321318
 20
206.3027493522891
 30
0.0
 40
7.0
  0
ARC
  5
33D
330
1F
100
AcDbEntity
  8
NoLayerName_001
  6
CENTER
 62
     3
370
    25
100
AcDbCircle
 10
478.1242363118927
 20
230.0527493522891
 30
0.0
 40
47.50000000000001
100
AcDbArc
 50
77.66771640880837
 51
100.0785443059018
  0
ARC
  5
33E
330
1F
100
AcDbEntity
  8
NoLayerName_001
  6
CENTER
 62
     3
370
    25
100
AcDbCircle
 10
478.1242363118927
 20
230.0527493522891
 30
0.0
 40
47.49999999999999
100
AcDbArc
 50
318.5133734257817
 51
342.6174798497414
  0
ARC
  5
33F
330
1F
100
AcDbEntity
  8
NoLayerName_001
  6
CENTER
 62
     3
370
    25
100
AcDbCircle
 10
478.1242363118927
 20
230.0527493522891
 30
0.0
 40
47.5
100
AcDbArc
 50
257.5939071722654
 51
280.9116392648112
  0
ARC
  5
340
330
1F
100
AcDbEntity
  8
NoLayerName_001
  6
CENTER
 62
     3
370
    25
100
AcDbCircle
 10
478.1242363118927
 20
230.0527493522891
 30
0.0
 40
47.49999999999999
100
AcDbArc
 50
12.5788299219601
 51
39.98683475043065
  0
ARC
  5
341
330
1F
100
AcDbEntity
  8
NoLayerName_001
  6
CENTER
 62
     3
370
    25
100
AcDbCircle
 10
478.1242363118927
 20
230.0527493522891
 30
0.0
 40
47.49999999999999
100
AcDbArc
 50
192.7387452979248
 51
222.2479086499954
  0
LINE
  5
342
330
1F
100
AcDbEntity
  8
NoLayerName_001
  6
CENTER
 62
     3
370
    25
100
AcDbLine
 10
413.4904551125406
 20
230.0527493522891
 30
0.0
 11
541.326245852053
 21
230.0527493522891
 31
0.0
  0
DIMENSION
  5
343
102
{ACAD_XDICTIONARY
360
344
102
}
330
1F
100
AcDbEntity
  8
NoLayerName_001
  6
Continuous
 62
     3
370
    25
100
AcDbDimension
  2
*D13
 10
432.2289609399537
 20
217.810457959993
 30
0.0
 11
506.3966379497883
 21
237.5942441228548
 31
0.0
 70
   163
  1
\W0.8000;<>
 71
     5
 42
95.00000000000004
  3
Standard
100
AcDbDiametricDimension
 15
524.0195116838318
 25
242.2950407445852
 35
0.0
 40
0.0
1001
ACAD_DSTYLE_DIMRADIAL_EXTENSION
1070
   387
1070
     1
1070
   388
1040
0.0
1070
   390
1040
0.0
1001
ACAD
1000
DSTYLE
1002
{
1070
   347
1005
14
1070
   372
1070
    -2
1070
   346
1005
16
1070
   371
1070
    25
1070
   345
1005
16
1070
   178
1070
     0
1070
   177
1070
     0
1070
   176
1070
     0
1070
    47
1040
0.0
1070
    48
1040
0.0
1070
    78
1070
     8
1070
   271
1070
     3
1070
    41
1040
2.0
1070
   342
1005
274
1070
    75
1070
     1
1070
    44
1040
1.2
1070
   147
1040
1.0
1070
   140
1040
3.5
1070
   289
1070
     2
1002
}
1001
ACAD_DSTYLE_DIM_LINETYPE
1070
   380
1005
16
1001
ACAD_DSTYLE_DIM_EXT1_LINETYPE
1070
   381
1005
16
1001
ACAD_DSTYLE_DIM_EXT2_LINETYPE
1070
   382
1005
14
  0
INSERT
  5
357
330
1F
100
AcDbEntity
  8
NoLayerName_001
  6
Continuous
 62
     3
370
    25
100
AcDbBlockReference
  2
DIM_0001
 10
479.9770202636719
 20
281.6536254882812
 30
0.0
  0
LINE
  5
358
330
1F
100
AcDbEntity
  8
NoLayerName_001
  6
Continuous
 62
     7
370
    50
100
AcDbLine
 10
335.8532759784126
 20
196.0527493522891
 30
0.0
 11
350.4532759784126
 21
196.0527493522891
 31
0.0
  0
LINE
  5
359
330
1F
100
AcDbEntity
  8
NoLayerName_001
  6
Continuous
 62
     7
370
    50
100
AcDbLine
 10
255.8532759784127
 20
247.8027493522891
 30
0.0
 11
255.8532759784127
 21
264.0527493522891
 31
0.0
  0
LINE
  5
35A
330
1F
100
AcDbEntity
  8
NoLayerName_001
  6
Continuous
 62
     7
370
    50
100
AcDbLine
 10
193.8532759784127
 20
247.7527493522891
 30
0.0
 11
193.8532759784127
 21
242.3527493522891
 31
0.0
  0
LINE
  5
35B
330
1F
100
AcDbEntity
  8
NoLayerName_001
  6
Continuous
 62
     7
370
    50
100
AcDbLine
 10
185.8532759784127
 20
247.0527493522891
 30
0.0
 11
185.8532759784127
 21
237.0527493522891
 31
0.0
  0
LINE
  5
35C
330
1F
100
AcDbEntity
  8
NoLayerName_001
  6
Continuous
 62
     7
370
    50
100
AcDbLine
 10
223.4532759784127
 20
223.0527493522891
 30
0.0
 11
139.0532759784126
 21
223.0527493522891
 31
0.0
  0
LINE
  5
35D
330
1F
100
AcDbEntity
  8
NoLayerName_001
  6
Continuous
 62
     3
370
    25
100
AcDbLine
 10
192.8532759784127
 20
224.0527493522891
 30
0.0
 11
138.0532759784126
 21
224.0527493522891
 31
0.0
  0
MTEXT
  5
35E
102
{ACAD_REACTORS
330
35F
102
}
330
1F
100
AcDbEntity
  8
NoLayerName_001
  6
Continuous
 62
     3
370
    25
100
AcDbMText
 10
238.691466413744
 20
307.2427413856161
 30
0.0
 40
3.5
 41
0.0
 71
     9
 72
     5
  1
\A1;\W0.8333;Ｍ１０×Ｐ１．０
 73
     1
 44
0.7714285714285714
1001
ACAD
1000
ACAD_MTEXT_DEFINED_HEIGHT_BEGIN
1070
    46
1040
3.5
1000
ACAD_MTEXT_DEFINED_HEIGHT_END
  0
LEADER
  5
35F
330
1F
100
AcDbEntity
  8
NoLayerName_001
  6
Continuous
 62
     3
370
    25
100
AcDbLeader
  3
Standard
 73
     0
 75
     1
 40
3.5
 41
19.1659
 76
     3
 10
272.1994718730267
 20
235.0527493522891
 30
0.0
 10
241.316466413744
 20
306.6177413856161
 30
0.0
 10
239.316466413744
 20
306.6177413856161
 30
0.0
340
35E
1001
ACAD
1000
DSTYLE
1002
{
1070
   140
1040
3.5
1070
    41
1040
2.0
1070
   341
1005
274
1002
}
  0
DIMENSION
  5
360
102
{ACAD_XDICTIONARY
360
361
102
}
330
1F
100
AcDbEntity
  8
NoLayerName_001
  6
Continuous
 62
     3
370
    25
100
AcDbDimension
  2
*D15
 10
296.8532759784126
 20
320.1978428955039
 30
0.0
 11
287.8532759784126
 21
320.1978428955039
 31
0.0
 70
   160
  1
\W0.8000;<>
 71
     5
 42
18.0
  3
Standard
100
AcDbAlignedDimension
 13
278.8532759784126
 23
235.652749352289
 33
0.0
 14
296.8532759784126
 24
238.5527493522891
 34
0.0
100
AcDbRotatedDimension
1001
ACAD
1000
DSTYLE
1002
{
1070
   347
1005
16
1070
   372
1070
    25
1070
   346
1005
16
1070
   371
1070
    25
1070
   345
1005
16
1070
   178
1070
     0
1070
   177
1070
     0
1070
   176
1070
     0
1070
    47
1040
0.0
1070
    48
1040
0.0
1070
    78
1070
     8
1070
   271
1070
     3
1070
    41
1040
2.0
1070
   342
1005
274
1070
    44
1040
1.199999999999989
1070
   147
1040
1.0
1070
   140
1040
3.5
1002
}
1001
ACAD_DSTYLE_DIM_LINETYPE
1070
   380
1005
16
1001
ACAD_DSTYLE_DIM_EXT1_LINETYPE
1070
   381
1005
16
1001
ACAD_DSTYLE_DIM_EXT2_LINETYPE
1070
   382
1005
16
  0
DIMENSION
  5
36E
102
{ACAD_XDICTIONARY
360
36F
102
}
330
1F
100
AcDbEntity
  8
NoLayerName_001
  6
Continuous
 62
     3
370
    25
100
AcDbDimension
  2
*D16
 10
278.8532759784126
 20
320.1978428955039
 30
0.0
 11
272.8532759784126
 21
320.1978428955039
 31
0.0
 70
   160
  1
\W0.8000;<>
 71
     5
 42
12.0
  3
Standard
100
AcDbAlignedDimension
 13
266.8532759784126
 23
235.3027493522891
 33
0.0
 14
278.8532759784126
 24
235.652749352289
 34
0.0
100
AcDbRotatedDimension
1001
ACAD
1000
DSTYLE
1002
{
1070
   347
1005
16
1070
   372
1070
    25
1070
   346
1005
16
1070
   371
1070
    25
1070
   345
1005
16
1070
   178
1070
     0
1070
   177
1070
     0
1070
   176
1070
     0
1070
    47
1040
0.0
1070
    48
1040
0.0
1070
    78
1070
     8
1070
   271
1070
     3
1070
    41
1040
2.0
1070
   342
1005
274
1070
    44
1040
1.199999999999989
1070
   147
1040
1.0
1070
   140
1040
3.5
1002
}
1001
ACAD_DSTYLE_DIM_LINETYPE
1070
   380
1005
16
1001
ACAD_DSTYLE_DIM_EXT1_LINETYPE
1070
   381
1005
16
1001
ACAD_DSTYLE_DIM_EXT2_LINETYPE
1070
   382
1005
16
  0
INSERT
  5
384
330
1F
100
AcDbEntity
  8
NoLayerName_001
  6
Continuous
 62
     3
370
    25
100
AcDbBlockReference
  2
DIM_0002
 10
172.3688812255859
 20
99.09513854980469
 30
0.0
  0
DIMENSION
  5
385
102
{ACAD_XDICTIONARY
360
386
102
}
330
1F
100
AcDbEntity
  8
NoLayerName_001
  6
Continuous
 62
     3
370
    25
100
AcDbDimension
  2
*D18
 10
384.8159311143621
 20
265.0527493522892
 30
0.0
 11
384.8159311143621
 21
230.0527492757942
 31
0.0
 70
   160
  1
\W0.8000;<>
 71
     5
 42
70.0
  3
Standard
100
AcDbAlignedDimension
 13
350.8532759784126
 23
195.0527493522891
 33
0.0
 14
350.8532759784126
 24
265.0527493522891
 34
0.0
 50
90.0
100
AcDbRotatedDimension
1001
ACAD
1000
DSTYLE
1002
{
1070
   347
1005
16
1070
   372
1070
    25
1070
   346
1005
16
1070
   371
1070
    25
1070
   345
1005
16
1070
   178
1070
     0
1070
   177
1070
     0
1070
   176
1070
     0
1070
     3
1000
φ<>
1070
    47
1040
0.0
1070
    48
1040
0.0
1070
    78
1070
     8
1070
   271
1070
     3
1070
    41
1040
2.0
1070
   342
1005
274
1070
    44
1040
1.199999999999989
1070
   147
1040
1.0
1070
   140
1040
3.5
1002
}
1001
ACAD_DSTYLE_DIM_LINETYPE
1070
   380
1005
16
1001
ACAD_DSTYLE_DIM_EXT1_LINETYPE
1070
   381
1005
16
1001
ACAD_DSTYLE_DIM_EXT2_LINETYPE
1070
   382
1005
16
  0
LINE
  5
393
330
1F
100
AcDbEntity
  8
NoLayerName_001
  6
Continuous
 62
     7
370
    50
100
AcDbLine
 10
288.8532759784126
 20
242.8027493522891
 30
0.0
 11
261.8532759784126
 21
242.8027493522891
 31
0.0
  0
LINE
  5
394
330
1F
100
AcDbEntity
  8
NoLayerName_001
  6
Continuous
 62
     7
370
    50
100
AcDbLine
 10
261.8532759784126
 20
245.5027493522891
 30
0.0
 11
261.8532759784126
 21
242.8027493522891
 31
0.0
  0
LINE
  5
395
330
1F
100
AcDbEntity
  8
NoLayerName_001
  6
Continuous
 62
     7
370
    50
100
AcDbLine
 10
257.3532759784126
 20
242.8027493522891
 30
0.0
 11
225.5853267859815
 21
242.8027493522891
 31
0.0
  0
LINE
  5
396
330
1F
100
AcDbEntity
  8
NoLayerName_001
  6
Continuous
 62
     7
370
    50
100
AcDbLine
 10
257.3532759784126
 20
242.8027493522891
 30
0.0
 11
257.3532759784126
 21
238.5527493522891
 31
0.0
  0
LINE
  5
397
330
1F
100
AcDbEntity
  8
NoLayerName_001
  6
Continuous
 62
     7
370
    50
100
AcDbLine
 10
257.3532759784126
 20
217.3027493522891
 30
0.0
 11
257.3532759784126
 21
221.5527493522892
 31
0.0
  0
LINE
  5
398
330
1F
100
AcDbEntity
  8
NoLayerName_001
  6
Continuous
 62
     7
370
    50
100
AcDbLine
 10
257.3532759784126
 20
217.3027493522891
 30
0.0
 11
256.8532759784126
 21
217.3027493522891
 31
0.0
  0
LINE
  5
399
330
1F
100
AcDbEntity
  8
NoLayerName_001
  6
Continuous
 62
     7
370
    50
100
AcDbLine
 10
288.8532759784126
 20
217.3027493522891
 30
0.0
 11
261.8532759784126
 21
217.3027493522891
 31
0.0
  0
LINE
  5
39A
330
1F
100
AcDbEntity
  8
NoLayerName_001
  6
Continuous
 62
     7
370
    50
100
AcDbLine
 10
261.8532759784126
 20
217.3027493522891
 30
0.0
 11
261.8532759784126
 21
214.6027493522891
 31
0.0
  0
LINE
  5
39B
330
1F
100
AcDbEntity
  8
NoLayerName_001
  6
Continuous
 62
     7
370
    50
100
AcDbLine
 10
351.3532759784126
 20
238.0527493522891
 30
0.0
 11
351.8532759784126
 21
238.5527493522891
 31
0.0
  0
LINE
  5
39C
330
1F
100
AcDbEntity
  8
NoLayerName_001
  6
Continuous
 62
     7
370
    50
100
AcDbLine
 10
351.3532759784126
 20
222.0527493522891
 30
0.0
 11
351.8532759784126
 21
221.5527493522891
 31
0.0
  0
LINE
  5
39D
330
1F
100
AcDbEntity
  8
NoLayerName_001
  6
Continuous
 62
     7
370
    50
100
AcDbLine
 10
351.3532759784126
 20
238.0527493522891
 30
0.0
 11
351.3532759784126
 21
222.0527493522891
 31
0.0
  0
LINE
  5
39E
330
1F
100
AcDbEntity
  8
NoLayerName_001
  6
Continuous
 62
     7
370
    50
100
AcDbLine
 10
330.9940160121232
 20
238.0527493522891
 30
0.0
 11
330.9940160121232
 21
222.0527493522891
 31
0.0
  0
LINE
  5
39F
330
1F
100
AcDbEntity
  8
NoLayerName_001
  6
Continuous
 62
     7
370
    50
100
AcDbLine
 10
324.8863865683008
 20
242.3293575294451
 30
0.0
 11
330.9940160121232
 21
238.0527493522891
 31
0.0
  0
LINE
  5
3A0
330
1F
100
AcDbEntity
  8
NoLayerName_001
  6
Continuous
 62
     7
370
    50
100
AcDbLine
 10
330.9940160121232
 20
238.0527493522891
 30
0.0
 11
351.3532759784125
 21
238.0527493522891
 31
0.0
  0
LINE
  5
3A1
330
1F
100
AcDbEntity
  8
NoLayerName_001
  6
Continuous
 62
     7
370
    50
100
AcDbLine
 10
324.8863865683008
 20
217.7761411751331
 30
0.0
 11
330.9940160121232
 21
222.0527493522891
 31
0.0
  0
LINE
  5
3A2
330
1F
100
AcDbEntity
  8
NoLayerName_001
  6
Continuous
 62
     7
370
    50
100
AcDbLine
 10
330.9940160121232
 20
222.0527493522891
 30
0.0
 11
351.3532759784125
 21
222.0527493522891
 31
0.0
  0
DIMENSION
  5
3A3
102
{ACAD_XDICTIONARY
360
3A4
102
}
330
1F
100
AcDbEntity
  8
NoLayerName_001
  6
Continuous
 62
     3
370
    25
100
AcDbDimension
  2
*D19
 10
86.24636375679111
 20
248.0527493522891
 30
0.0
 11
86.24636375679111
 21
230.0527492757942
 31
0.0
 70
   160
  1
\W0.8000;<>
 71
     5
 42
36.0
  3
Standard
100
AcDbAlignedDimension
 13
186.8532759784127
 23
212.0527493522891
 33
0.0
 14
186.8532759784127
 24
248.0527493522891
 34
0.0
 50
90.0
100
AcDbRotatedDimension
1001
ACAD
1000
DSTYLE
1002
{
1070
   347
1005
16
1070
   372
1070
    25
1070
   346
1005
16
1070
   371
1070
    25
1070
   345
1005
16
1070
   178
1070
     0
1070
   177
1070
     0
1070
   176
1070
     0
1070
     3
1000
φ<>
1070
    47
1040
0.0
1070
    48
1040
0.0
1070
    78
1070
     8
1070
   271
1070
     3
1070
    41
1040
2.0
1070
   342
1005
274
1070
    44
1040
1.200000000000003
1070
   147
1040
1.0
1070
   140
1040
3.5
1002
}
1001
ACAD_DSTYLE_DIM_LINETYPE
1070
   380
1005
16
1001
ACAD_DSTYLE_DIM_EXT1_LINETYPE
1070
   381
1005
16
1001
ACAD_DSTYLE_DIM_EXT2_LINETYPE
1070
   382
1005
16
  0
DIMENSION
  5
3B1
102
{ACAD_XDICTIONARY
360
3B2
102
}
330
1F
100
AcDbEntity
  8
NoLayerName_001
  6
Continuous
 62
     3
370
    25
100
AcDbDimension
  2
*D20
 10
76.24636375679111
 20
270.0527493522892
 30
0.0
 11
76.24636375679111
 21
230.0527492757942
 31
0.0
 70
   160
  1
\W0.8000;<>
 71
     5
 42
80.0
  3
Standard
100
AcDbAlignedDimension
 13
252.3532759784127
 23
190.0527493522891
 33
0.0
 14
252.3532759784127
 24
270.0527493522891
 34
0.0
 50
90.0
100
AcDbRotatedDimension
1001
ACAD
1000
DSTYLE
1002
{
1070
   347
1005
16
1070
   372
1070
    25
1070
   346
1005
16
1070
   371
1070
    25
1070
   345
1005
16
1070
   178
1070
     0
1070
   177
1070
     0
1070
   176
1070
     0
1070
     3
1000
φ<>ｈ7
1070
    47
1040
0.0
1070
    48
1040
0.0
1070
    78
1070
     8
1070
   271
1070
     3
1070
    41
1040
2.0
1070
   342
1005
274
1070
    44
1040
1.199999999999989
1070
   147
1040
1.0
1070
   140
1040
3.5
1002
}
1001
ACAD_DSTYLE_DIM_LINETYPE
1070
   380
1005
16
1001
ACAD_DSTYLE_DIM_EXT1_LINETYPE
1070
   381
1005
16
1001
ACAD_DSTYLE_DIM_EXT2_LINETYPE
1070
   382
1005
16
  0
DIMENSION
  5
3BF
102
{ACAD_XDICTIONARY
360
3C0
102
}
330
1F
100
AcDbEntity
  8
NoLayerName_001
  6
Continuous
 62
     3
370
    25
100
AcDbDimension
  2
*D21
 10
66.24636375679113
 20
288.5527493522892
 30
0.0
 11
66.24636375679111
 21
230.0527492757942
 31
0.0
 70
   160
  1
\W0.8000;<>
 71
     5
 42
117.0
  3
Standard
100
AcDbAlignedDimension
 13
257.8532759784126
 23
171.5527493522891
 33
0.0
 14
257.8532759784126
 24
288.5527493522891
 34
0.0
 50
90.0
100
AcDbRotatedDimension
1001
ACAD
1000
DSTYLE
1002
{
1070
   347
1005
16
1070
   372
1070
    25
1070
   346
1005
16
1070
   371
1070
    25
1070
   345
1005
16
1070
   178
1070
     0
1070
   177
1070
     0
1070
   176
1070
     0
1070
     3
1000
φ<>
1070
    47
1040
0.0
1070
    48
1040
0.0
1070
    78
1070
     8
1070
   271
1070
     3
1070
    41
1040
2.0
1070
   342
1005
274
1070
    44
1040
1.199999999999989
1070
   147
1040
1.0
1070
   140
1040
3.5
1002
}
1001
ACAD_DSTYLE_DIM_LINETYPE
1070
   380
1005
16
1001
ACAD_DSTYLE_DIM_EXT1_LINETYPE
1070
   381
1005
16
1001
ACAD_DSTYLE_DIM_EXT2_LINETYPE
1070
   382
1005
16
  0
POINT
  5
3CD
330
1F
100
AcDbEntity
  8
NoLayerName_001
  6
Continuous
 62
     7
370
    50
100
AcDbPoint
 10
0.0
 20
420.0
 30
0.0
  0
POINT
  5
3CE
330
1F
100
AcDbEntity
  8
NoLayerName_001
  6
Continuous
 62
     7
370
    50
100
AcDbPoint
 10
0.0
 20
0.0
 30
0.0
  0
POINT
  5
3CF
330
1F
100
AcDbEntity
  8
NoLayerName_001
  6
Continuous
 62
     7
370
    50
100
AcDbPoint
 10
594.0
 20
0.0
 30
0.0
  0
POINT
  5
3D0
330
1F
100
AcDbEntity
  8
NoLayerName_001
  6
Continuous
 62
     7
370
    50
100
AcDbPoint
 10
594.0
 20
420.0
 30
0.0
  0
LINE
  5
3D1
330
1F
100
AcDbEntity
  8
NoLayerName_001
  6
Continuous
 62
     7
370
    50
100
AcDbLine
 10
584.0
 20
410.0
 30
0.0
 11
25.0
 21
410.0000000000001
 31
0.0
  0
LINE
  5
3D2
330
1F
100
AcDbEntity
  8
NoLayerName_001
  6
Continuous
 62
     7
370
    50
100
AcDbLine
 10
584.0
 20
10.0
 30
0.0
 11
584.0
 21
410.0
 31
0.0
  0
LINE
  5
3D3
330
1F
100
AcDbEntity
  8
NoLayerName_001
  6
Continuous
 62
     7
370
    50
100
AcDbLine
 10
25.00000000000006
 20
9.999999999999972
 30
0.0
 11
584.0
 21
10.0
 31
0.0
  0
LINE
  5
3D4
330
1F
100
AcDbEntity
  8
NoLayerName_001
  6
Continuous
 62
     7
370
    50
100
AcDbLine
 10
25.0
 20
410.0
 30
0.0
 11
25.00000000000006
 21
10.0
 31
0.0
  0
LINE
  5
3D5
330
1F
100
AcDbEntity
  8
NoLayerName_001
  6
Continuous
 62
     3
370
    25
100
AcDbLine
 10
494.5000000000001
 20
9.999999999999995
 30
0.0
 11
508.2500000000001
 21
26.09756133593568
 31
0.0
  0
LINE
  5
3D6
330
1F
100
AcDbEntity
  8
NoLayerName_001
  6
Continuous
 62
     3
370
    25
100
AcDbLine
 10
494.5000000000001
 20
28.50000000000006
 30
0.0
 11
494.5000000000001
 21
10.00000000000006
 31
0.0
  0
LINE
  5
3D7
330
1F
100
AcDbEntity
  8
NoLayerName_001
  6
Continuous
 62
     3
370
    25
100
AcDbLine
 10
508.2500000000001
 20
28.50000000000006
 30
0.0
 11
508.2500000000001
 21
10.00000000000006
 31
0.0
  0
LINE
  5
3D8
330
1F
100
AcDbEntity
  8
NoLayerName_001
  6
Continuous
 62
     7
370
    50
100
AcDbLine
 10
467.0000000000001
 20
28.50000000000006
 30
0.0
 11
467.0
 21
10.00000000000005
 31
0.0
  0
LINE
  5
3D9
330
1F
100
AcDbEntity
  8
NoLayerName_001
  6
Continuous
 62
     3
370
    25
100
AcDbLine
 10
480.7500000000001
 20
28.50000000000006
 30
0.0
 11
480.7500000000001
 21
10.00000000000006
 31
0.0
  0
LINE
  5
3DA
330
1F
100
AcDbEntity
  8
NoLayerName_001
  6
Continuous
 62
     7
370
    50
100
AcDbLine
 10
427.9335542242808
 20
21.00000000000005
 30
0.0
 11
430.9783303436838
 21
21.00000000000005
 31
0.0
  0
LINE
  5
3DB
330
1F
100
AcDbEntity
  8
NoLayerName_001
  6
Continuous
 62
     7
370
    50
100
AcDbLine
 10
427.9335542242808
 20
21.00000000000005
 30
0.0
 11
429.7679383130327
 21
27.00000000000008
 31
0.0
  0
LINE
  5
3DC
330
1F
100
AcDbEntity
  8
NoLayerName_001
  6
Continuous
 62
     7
370
    50
100
AcDbLine
 10
429.7679383130327
 20
27.00000000000008
 30
0.0
 11
436.053486417191
 21
27.00000000000008
 31
0.0
  0
LINE
  5
3DD
330
1F
100
AcDbEntity
  8
NoLayerName_001
  6
Continuous
 62
     7
370
    50
100
AcDbLine
 10
430.9783303436838
 20
21.00000000000005
 30
0.0
 11
431.5089946311028
 21
22.73572467404068
 31
0.0
  0
LINE
  5
3DE
330
1F
100
AcDbEntity
  8
NoLayerName_001
  6
Continuous
 62
     7
370
    50
100
AcDbLine
 10
432.2651370925098
 20
25.20895522388064
 30
0.0
 11
433.4227253697779
 21
25.20895522388064
 31
0.0
  0
LINE
  5
3DF
330
1F
100
AcDbEntity
  8
NoLayerName_001
  6
Continuous
 62
     7
370
    50
100
AcDbLine
 10
431.827075220569
 20
23.77611940298515
 30
0.0
 11
432.9616486240261
 21
23.77611940298512
 31
0.0
  0
ARC
  5
3E0
330
1F
100
AcDbEntity
  8
NoLayerName_001
  6
Continuous
 62
     7
370
    50
100
AcDbCircle
 10
436.053486417191
 20
26.2835820895523
 30
0.0
 40
0.7164179104477597
100
AcDbArc
 50
342.9999999999999
 51
90.0
  0
LINE
  5
3E1
330
1F
100
AcDbEntity
  8
NoLayerName_001
  6
Continuous
 62
     7
370
    50
100
AcDbLine
 10
431.5089946311028
 20
22.73572467404068
 30
0.0
 11
433.1275840750271
 21
21.00000000000005
 31
0.0
  0
LINE
  5
3E2
330
1F
100
AcDbEntity
  8
NoLayerName_001
  6
Continuous
 62
     7
370
    50
100
AcDbLine
 10
431.827075220569
 20
23.77611940298515
 30
0.0
 11
432.2651370925097
 21
25.20895522388064
 31
0.0
  0
ARC
  5
3E3
330
1F
100
AcDbEntity
  8
NoLayerName_001
  6
Continuous
 62
     7
370
    50
100
AcDbCircle
 10
434.7019990401175
 20
24.31343283582097
 30
0.0
 40
1.43283582089552
100
AcDbArc
 50
272.9260899220355
 51
343.0000000000005
  0
LINE
  5
3E4
330
1F
100
AcDbEntity
  8
NoLayerName_001
  6
Continuous
 62
     7
370
    50
100
AcDbLine
 10
436.0722267501541
 20
23.89451218427791
 30
0.0
 11
436.7386002722093
 21
26.07412176378079
 31
0.0
  0
LINE
  5
3E5
330
1F
100
AcDbEntity
  8
NoLayerName_001
  6
Continuous
 62
     7
370
    50
100
AcDbLine
 10
433.5940038335324
 20
24.97748566482584
 30
0.0
 11
433.3042055515353
 21
24.02959819532327
 31
0.0
  0
ARC
  5
3E6
330
1F
100
AcDbEntity
  8
NoLayerName_001
  6
Continuous
 62
     7
370
    50
100
AcDbCircle
 10
432.9616486240262
 20
24.13432835820901
 30
0.0
 40
0.358208955223881
100
AcDbArc
 50
270.0
 51
342.9999999999986
  0
LINE
  5
3E7
330
1F
100
AcDbEntity
  8
NoLayerName_001
  6
Continuous
 62
     7
370
    50
100
AcDbLine
 10
434.7751420228658
 20
22.88246512349615
 30
0.0
 11
435.8561568813521
 21
21.72321861418367
 31
0.0
  0
ARC
  5
3E8
330
1F
100
AcDbEntity
  8
NoLayerName_001
  6
Continuous
 62
     7
370
    50
100
AcDbCircle
 10
433.4227253697779
 20
25.02985074626871
 30
0.0
 40
0.1791044776119435
100
AcDbArc
 50
343.0000000000007
 51
90.0
  0
LINE
  5
3E9
330
1F
100
AcDbEntity
  8
NoLayerName_001
  6
Continuous
 62
     7
370
    50
100
AcDbLine
 10
435.8561568813521
 20
21.72321861418367
 30
0.0
 11
437.4694308503462
 21
27.00000000000008
 31
0.0
  0
LINE
  5
3EA
330
1F
100
AcDbEntity
  8
NoLayerName_001
  6
Continuous
 62
     7
370
    50
100
AcDbLine
 10
439.0380318362211
 20
21.00000000000005
 30
0.0
 11
440.872415924973
 21
27.00000000000008
 31
0.0
  0
LINE
  5
3EB
330
1F
100
AcDbEntity
  8
NoLayerName_001
  6
Continuous
 62
     7
370
    50
100
AcDbLine
 10
439.5753452690569
 20
21.00000000000005
 30
0.0
 11
441.4097293578089
 21
27.00000000000008
 31
0.0
  0
LINE
  5
3EC
330
1F
100
AcDbEntity
  8
NoLayerName_001
  6
Continuous
 62
     7
370
    50
100
AcDbLine
 10
442.7992258660718
 20
21.00000000000005
 30
0.0
 11
443.5433171154966
 21
23.4338128115724
 31
0.0
  0
LINE
  5
3ED
330
1F
100
AcDbEntity
  8
NoLayerName_001
  6
Continuous
 62
     7
370
    50
100
AcDbLine
 10
446.0517095583961
 20
26.36597565540239
 30
0.0
 11
446.2455502533313
 21
27.00000000000008
 31
0.0
  0
LINE
  5
3EE
330
1F
100
AcDbEntity
  8
NoLayerName_001
  6
Continuous
 62
     7
370
    50
100
AcDbLine
 10
448.7673566537482
 20
25.87526747484565
 30
0.0
 11
449.1112218951223
 21
27.00000000000008
 31
0.0
  0
LINE
  5
3EF
330
1F
100
AcDbEntity
  8
NoLayerName_001
  6
Continuous
 62
     7
370
    50
100
AcDbLine
 10
444.9484795974151
 20
21.00000000000005
 30
0.0
 11
443.5433171154967
 21
23.4338128115724
 31
0.0
  0
LINE
  5
3F0
330
1F
100
AcDbEntity
  8
NoLayerName_001
  6
Continuous
 62
     7
370
    50
100
AcDbLine
 10
443.8670016789275
 20
24.4925373134329
 30
0.0
 11
444.6336099548238
 21
27.00000000000008
 31
0.0
  0
ARC
  5
3F1
330
1F
100
AcDbEntity
  8
NoLayerName_001
  6
Continuous
 62
     7
370
    50
100
AcDbCircle
 10
443.4825326020774
 20
27.15145187704555
 30
0.0
 40
2.686567164179102
100
AcDbArc
 50
278.2277291591021
 51
343.0
  0
LINE
  5
3F2
330
1F
100
AcDbEntity
  8
NoLayerName_001
  6
Continuous
 62
     7
370
    50
100
AcDbLine
 10
447.9381664474436
 20
21.40563546859544
 30
0.0
 11
446.6729729281764
 21
23.59701492537319
 31
0.0
  0
ARC
  5
3F3
330
1F
100
AcDbEntity
  8
NoLayerName_001
  6
Continuous
 62
     7
370
    50
100
AcDbCircle
 10
445.3417873786566
 20
26.9225691037032
 30
0.0
 40
3.582089552238807
100
AcDbArc
 50
291.8157240909301
 51
342.9999999999998
  0
LINE
  5
3F4
330
1F
100
AcDbEntity
  8
NoLayerName_001
  6
Continuous
 62
     7
370
    50
100
AcDbLine
 10
447.9381664474436
 20
21.40563546859544
 30
0.0
 11
449.6485353279581
 21
27.00000000000008
 31
0.0
  0
LINE
  5
3F5
330
1F
100
AcDbEntity
  8
NoLayerName_001
  6
Continuous
 62
     7
370
    50
100
AcDbLine
 10
453.9037034780121
 20
21.00000000000005
 30
0.0
 11
454.3417653499529
 21
22.43283582089557
 31
0.0
  0
LINE
  5
3F6
330
1F
100
AcDbEntity
  8
NoLayerName_001
  6
Continuous
 62
     7
370
    50
100
AcDbLine
 10
451.028332514132
 20
22.43283582089557
 30
0.0
 11
451.1652268491135
 21
22.88059701492542
 31
0.0
  0
LINE
  5
3F7
330
1F
100
AcDbEntity
  8
NoLayerName_001
  6
Continuous
 62
     7
370
    50
100
AcDbLine
 10
451.8770773910172
 20
25.20895522388064
 30
0.0
 11
455.1905102268381
 21
25.20895522388064
 31
0.0
  0
LINE
  5
3F8
330
1F
100
AcDbEntity
  8
NoLayerName_001
  6
Continuous
 62
     7
370
    50
100
AcDbLine
 10
451.5485309870617
 20
24.13432835820901
 30
0.0
 11
454.8619638228826
 21
24.13432835820901
 31
0.0
  0
LINE
  5
3F9
330
1F
100
AcDbEntity
  8
NoLayerName_001
  6
Continuous
 62
     7
370
    50
100
AcDbLine
 10
451.1652268491135
 20
22.88059701492542
 30
0.0
 11
454.4786596849344
 21
22.88059701492542
 31
0.0
  0
LINE
  5
3FA
330
1F
100
AcDbEntity
  8
NoLayerName_001
  6
Continuous
 62
     7
370
    50
100
AcDbLine
 10
451.028332514132
 20
22.43283582089557
 30
0.0
 11
454.3417653499529
 21
22.43283582089557
 31
0.0
  0
LINE
  5
3FB
330
1F
100
AcDbEntity
  8
NoLayerName_001
  6
Continuous
 62
     7
370
    50
100
AcDbLine
 10
451.5485309870617
 20
24.13432835820901
 30
0.0
 11
451.8770773910172
 21
25.20895522388064
 31
0.0
  0
LINE
  5
3FC
330
1F
100
AcDbEntity
  8
NoLayerName_001
  6
Continuous
 62
     7
370
    50
100
AcDbLine
 10
455.1905102268381
 20
25.20895522388064
 30
0.0
 11
455.7380875667641
 21
27.00000000000008
 31
0.0
  0
LINE
  5
3FD
330
1F
100
AcDbEntity
  8
NoLayerName_001
  6
Continuous
 62
     7
370
    50
100
AcDbLine
 10
454.4786596849344
 20
22.88059701492542
 30
0.0
 11
454.8619638228826
 21
24.13432835820901
 31
0.0
  0
LINE
  5
3FE
330
1F
100
AcDbEntity
  8
NoLayerName_001
  6
Continuous
 62
     7
370
    50
100
AcDbLine
 10
454.351464672042
 20
21.00000000000005
 30
0.0
 11
456.1858487607939
 21
27.00000000000008
 31
0.0
  0
LINE
  5
3FF
330
1F
100
AcDbEntity
  8
NoLayerName_001
  6
Continuous
 62
     7
370
    50
100
AcDbLine
 10
457.2171363138331
 20
21.00000000000005
 30
0.0
 11
458.2092579797328
 21
24.24508374876319
 31
0.0
  0
LINE
  5
400
330
1F
100
AcDbEntity
  8
NoLayerName_001
  6
Continuous
 62
     7
370
    50
100
AcDbLine
 10
460.2086524680285
 20
23.75491625123691
 30
0.0
 11
461.2007741339282
 21
27.00000000000008
 31
0.0
  0
LINE
  5
401
330
1F
100
AcDbEntity
  8
NoLayerName_001
  6
Continuous
 62
     7
370
    50
100
AcDbLine
 10
462.2320616869674
 20
21.00000000000005
 30
0.0
 11
464.0664457757193
 21
27.00000000000008
 31
0.0
  0
LINE
  5
402
330
1F
100
AcDbEntity
  8
NoLayerName_001
  6
Continuous
 62
     7
370
    50
100
AcDbLine
 10
460.082807955624
 20
21.00000000000005
 30
0.0
 11
462.2320616869674
 21
21.00000000000005
 31
0.0
  0
LINE
  5
403
330
1F
100
AcDbEntity
  8
NoLayerName_001
  6
Continuous
 62
     7
370
    50
100
AcDbLine
 10
458.2092579797328
 20
24.24508374876319
 30
0.0
 11
460.082807955624
 21
21.00000000000005
 31
0.0
  0
LINE
  5
404
330
1F
100
AcDbEntity
  8
NoLayerName_001
  6
Continuous
 62
     7
370
    50
100
AcDbLine
 10
454.351464672042
 20
21.00000000000005
 30
0.0
 11
457.217136313833
 21
21.00000000000005
 31
0.0
  0
LINE
  5
405
330
1F
100
AcDbEntity
  8
NoLayerName_001
  6
Continuous
 62
     7
370
    50
100
AcDbLine
 10
458.3351024921373
 20
27.00000000000008
 30
0.0
 11
460.2086524680285
 21
23.75491625123691
 31
0.0
  0
LINE
  5
406
330
1F
100
AcDbEntity
  8
NoLayerName_001
  6
Continuous
 62
     7
370
    50
100
AcDbLine
 10
461.2007741339282
 20
27.00000000000008
 30
0.0
 11
464.0664457757193
 21
27.00000000000008
 31
0.0
  0
LINE
  5
407
330
1F
100
AcDbEntity
  8
NoLayerName_001
  6
Continuous
 62
     7
370
    50
100
AcDbLine
 10
456.1858487607939
 20
27.00000000000008
 30
0.0
 11
458.3351024921373
 21
27.00000000000008
 31
0.0
  0
LINE
  5
408
330
1F
100
AcDbEntity
  8
NoLayerName_001
  6
Continuous
 62
     7
370
    50
100
AcDbLine
 10
449.6485353279581
 20
27.00000000000008
 30
0.0
 11
455.7380875667641
 21
27.00000000000008
 31
0.0
  0
LINE
  5
409
330
1F
100
AcDbEntity
  8
NoLayerName_001
  6
Continuous
 62
     7
370
    50
100
AcDbLine
 10
444.9484795974151
 20
21.00000000000005
 30
0.0
 11
453.9037034780122
 21
21.00000000000005
 31
0.0
  0
LINE
  5
40A
330
1F
100
AcDbEntity
  8
NoLayerName_001
  6
Continuous
 62
     7
370
    50
100
AcDbLine
 10
446.2455502533313
 20
27.00000000000008
 30
0.0
 11
449.1112218951223
 21
27.00000000000008
 31
0.0
  0
LINE
  5
40B
330
1F
100
AcDbEntity
  8
NoLayerName_001
  6
Continuous
 62
     7
370
    50
100
AcDbLine
 10
441.4097293578089
 20
27.00000000000008
 30
0.0
 11
444.6336099548238
 21
27.00000000000008
 31
0.0
  0
LINE
  5
40C
330
1F
100
AcDbEntity
  8
NoLayerName_001
  6
Continuous
 62
     7
370
    50
100
AcDbLine
 10
439.5753452690569
 20
21.00000000000005
 30
0.0
 11
442.7992258660719
 21
21.00000000000005
 31
0.0
  0
LINE
  5
40D
330
1F
100
AcDbEntity
  8
NoLayerName_001
  6
Continuous
 62
     7
370
    50
100
AcDbLine
 10
437.4694308503462
 20
27.00000000000008
 30
0.0
 11
440.872415924973
 21
27.00000000000008
 31
0.0
  0
LINE
  5
40E
330
1F
100
AcDbEntity
  8
NoLayerName_001
  6
Continuous
 62
     7
370
    50
100
AcDbLine
 10
433.127584075027
 20
21.00000000000005
 30
0.0
 11
439.0380318362211
 21
21.00000000000005
 31
0.0
  0
LINE
  5
40F
330
1F
100
AcDbEntity
  8
NoLayerName_001
  6
Continuous
 62
     7
370
    50
100
AcDbLine
 10
349.4999999999999
 20
48.00000000000037
 30
0.0
 11
584.0
 21
48.00000000000006
 31
0.0
  0
LINE
  5
410
330
1F
100
AcDbEntity
  8
NoLayerName_001
  6
DOTSX
 62
     3
370
    25
100
AcDbLine
 10
578.0
 20
28.50000000000006
 30
0.0
 11
578.0
 21
21.00000000000006
 31
0.0
  0
LINE
  5
411
330
1F
100
AcDbEntity
  8
NoLayerName_001
  6
DOTSX
 62
     3
370
    25
100
AcDbLine
 10
568.0
 20
28.50000000000006
 30
0.0
 11
568.0
 21
21.00000000000006
 31
0.0
  0
LINE
  5
412
330
1F
100
AcDbEntity
  8
NoLayerName_001
  6
DOTSX
 62
     3
370
    25
100
AcDbLine
 10
553.0
 20
28.50000000000006
 30
0.0
 11
553.0
 21
21.00000000000006
 31
0.0
  0
LINE
  5
413
330
1F
100
AcDbEntity
  8
NoLayerName_001
  6
Continuous
 62
     7
370
    50
100
AcDbLine
 10
349.4999999999999
 20
48.00000000000043
 30
0.0
 11
349.4999999999999
 21
10.00000000000037
 31
0.0
  0
LINE
  5
414
330
1F
100
AcDbEntity
  8
NoLayerName_001
  6
Continuous
 62
     3
370
    25
100
AcDbLine
 10
349.4999999999999
 20
13.80000000000038
 30
0.0
 11
425.0
 21
13.80000000000007
 31
0.0
  0
LINE
  5
415
330
1F
100
AcDbEntity
  8
NoLayerName_001
  6
Continuous
 62
     3
370
    25
100
AcDbLine
 10
358.4999999999999
 20
48.00000000000045
 30
0.0
 11
358.4999999999999
 21
10.00000000000037
 31
0.0
  0
LINE
  5
416
330
1F
100
AcDbEntity
  8
NoLayerName_001
  6
Continuous
 62
     3
370
    25
100
AcDbLine
 10
393.4999999999999
 20
48.00000000000045
 30
0.0
 11
393.4999999999999
 21
10.00000000000037
 31
0.0
  0
LINE
  5
417
330
1F
100
AcDbEntity
  8
NoLayerName_001
  6
Continuous
 62
     3
370
    25
100
AcDbLine
 10
413.5
 20
48.00000000000045
 30
0.0
 11
413.5
 21
10.00000000000037
 31
0.0
  0
LINE
  5
418
330
1F
100
AcDbEntity
  8
NoLayerName_001
  6
Continuous
 62
     7
370
    50
100
AcDbLine
 10
425.0000000000001
 20
48.00000000000006
 30
0.0
 11
425.0000000000001
 21
10.00000000000009
 31
0.0
  0
LINE
  5
419
330
1F
100
AcDbEntity
  8
NoLayerName_001
  6
Continuous
 62
     7
370
    50
100
AcDbLine
 10
522.0
 20
48.00000000000006
 30
0.0
 11
522.0
 21
10.00000000000006
 31
0.0
  0
LINE
  5
41A
330
1F
100
AcDbEntity
  8
NoLayerName_001
  6
Continuous
 62
     7
370
    50
100
AcDbLine
 10
425.0000000000001
 20
34.00000000000006
 30
0.0
 11
584.0
 21
34.00000000000006
 31
0.0
  0
LINE
  5
41B
330
1F
100
AcDbEntity
  8
NoLayerName_001
  6
Continuous
 62
     7
370
    50
100
AcDbLine
 10
522.0
 20
21.00000000000006
 30
0.0
 11
584.0
 21
21.00000000000006
 31
0.0
  0
LINE
  5
41C
330
1F
100
AcDbEntity
  8
NoLayerName_001
  6
Continuous
 62
     7
370
    50
100
AcDbLine
 10
425.0000000000001
 20
28.50000000000007
 30
0.0
 11
522.0
 21
28.50000000000003
 31
0.0
  0
LINE
  5
41D
330
1F
100
AcDbEntity
  8
NoLayerName_001
  6
Continuous
 62
     3
370
    25
100
AcDbLine
 10
437.0000000000001
 20
34.00000000000006
 30
0.0
 11
437.0000000000001
 21
28.50000000000006
 31
0.0
  0
LINE
  5
41E
330
1F
100
AcDbEntity
  8
NoLayerName_001
  6
Continuous
 62
     3
370
    25
100
AcDbLine
 10
482.0
 20
34.00000000000006
 30
0.0
 11
482.0
 21
28.50000000000006
 31
0.0
  0
LINE
  5
41F
330
1F
100
AcDbEntity
  8
NoLayerName_001
  6
Continuous
 62
     3
370
    25
100
AcDbLine
 10
470.0
 20
34.00000000000006
 30
0.0
 11
470.0
 21
28.50000000000006
 31
0.0
  0
LINE
  5
420
330
1F
100
AcDbEntity
  8
NoLayerName_001
  6
Continuous
 62
     3
370
    25
100
AcDbLine
 10
528.0
 20
22.00039441330034
 30
0.0
 11
528.0
 21
21.00000000000006
 31
0.0
  0
LINE
  5
421
330
1F
100
AcDbEntity
  8
NoLayerName_001
  6
Continuous
 62
     3
370
    25
100
AcDbLine
 10
533.0
 20
22.00039441330034
 30
0.0
 11
533.0
 21
21.00000000000006
 31
0.0
  0
LINE
  5
422
330
1F
100
AcDbEntity
  8
NoLayerName_001
  6
Continuous
 62
     3
370
    25
100
AcDbLine
 10
538.0
 20
22.00039441330034
 30
0.0
 11
538.0
 21
21.00000000000006
 31
0.0
  0
LINE
  5
423
330
1F
100
AcDbEntity
  8
NoLayerName_001
  6
Continuous
 62
     3
370
    25
100
AcDbLine
 10
543.0
 20
22.00039441330034
 30
0.0
 11
543.0
 21
21.00000000000006
 31
0.0
  0
LINE
  5
424
330
1F
100
AcDbEntity
  8
NoLayerName_001
  6
Continuous
 62
     3
370
    25
100
AcDbLine
 10
558.0
 20
22.00000000000006
 30
0.0
 11
558.0
 21
21.00000000000006
 31
0.0
  0
LINE
  5
425
330
1F
100
AcDbEntity
  8
NoLayerName_001
  6
Continuous
 62
     3
370
    25
100
AcDbLine
 10
563.0
 20
22.00000000000006
 30
0.0
 11
563.0
 21
21.00000000000006
 31
0.0
  0
LINE
  5
426
330
1F
100
AcDbEntity
  8
NoLayerName_001
  6
Continuous
 62
     3
370
    25
100
AcDbLine
 10
573.0
 20
22.00000000000006
 30
0.0
 11
573.0
 21
21.00000000000006
 31
0.0
  0
LINE
  5
427
330
1F
100
AcDbEntity
  8
NoLayerName_001
  6
Continuous
 62
     3
370
    25
100
AcDbLine
 10
548.0
 20
21.00039441330037
 30
0.0
 11
548.0
 21
22.00039441330037
 31
0.0
  0
LINE
  5
428
330
1F
100
AcDbEntity
  8
NoLayerName_001
  6
Continuous
 62
     7
370
    50
100
AcDbLine
 10
504.0
 20
48.00000000000009
 30
0.0
 11
504.0
 21
34.00000000000006
 31
0.0
  0
LINE
  5
429
330
1F
100
AcDbEntity
  8
NoLayerName_001
  6
Continuous
 62
     7
370
    50
100
AcDbLine
 10
476.0
 20
34.00000000000006
 30
0.0
 11
476.0
 21
48.00000000000009
 31
0.0
  0
LINE
  5
42A
330
1F
100
AcDbEntity
  8
NoLayerName_001
  6
Continuous
 62
     3
370
    25
100
AcDbLine
 10
349.4999999999999
 20
17.59999995231667
 30
0.0
 11
425.0
 21
17.59999995231635
 31
0.0
  0
LINE
  5
42B
330
1F
100
AcDbEntity
  8
NoLayerName_001
  6
Continuous
 62
     3
370
    25
100
AcDbLine
 10
349.4999999999999
 20
21.39999990463295
 30
0.0
 11
425.0
 21
21.39999990463264
 31
0.0
  0
LINE
  5
42C
330
1F
100
AcDbEntity
  8
NoLayerName_001
  6
Continuous
 62
     3
370
    25
100
AcDbLine
 10
349.4999999999999
 20
25.19999985694923
 30
0.0
 11
425.0
 21
25.19999985694892
 31
0.0
  0
LINE
  5
42D
330
1F
100
AcDbEntity
  8
NoLayerName_001
  6
Continuous
 62
     3
370
    25
100
AcDbLine
 10
349.4999999999999
 20
28.99999980926552
 30
0.0
 11
425.0
 21
28.9999998092652
 31
0.0
  0
LINE
  5
42E
330
1F
100
AcDbEntity
  8
NoLayerName_001
  6
Continuous
 62
     3
370
    25
100
AcDbLine
 10
349.4999999999999
 20
32.7999997615818
 30
0.0
 11
425.0
 21
32.79999976158149
 31
0.0
  0
LINE
  5
42F
330
1F
100
AcDbEntity
  8
NoLayerName_001
  6
Continuous
 62
     3
370
    25
100
AcDbLine
 10
349.4999999999999
 20
36.59999971389809
 30
0.0
 11
425.0
 21
36.59999971389777
 31
0.0
  0
LINE
  5
430
330
1F
100
AcDbEntity
  8
NoLayerName_001
  6
Continuous
 62
     3
370
    25
100
AcDbLine
 10
349.4999999999999
 20
40.39999966621437
 30
0.0
 11
425.0
 21
40.39999966621406
 31
0.0
  0
LINE
  5
431
330
1F
100
AcDbEntity
  8
NoLayerName_001
  6
Continuous
 62
     3
370
    25
100
AcDbLine
 10
349.4999999999999
 20
44.19999961853065
 30
0.0
 11
425.0
 21
44.19999961853034
 31
0.0
  0
LINE
  5
432
330
1F
100
AcDbEntity
  8
NoLayerName_001
  6
Continuous
 62
     3
370
    25
100
AcDbLine
 10
497.0
 20
34.00000000000006
 30
0.0
 11
497.0
 21
28.50000000000006
 31
0.0
  0
MTEXT
  5
433
330
1F
100
AcDbEntity
  8
NoLayerName_001
 62
     3
370
    50
100
AcDbMText
 10
483.9999998807907
 20
31.25000000000005
 30
0.0
 40
3.5
 41
0.0
 71
     4
 72
     5
  1
\A1;\W0.6667;\T1.4643;１：１
 73
     1
 44
1.0
1001
ACAD
1000
ACAD_MTEXT_DEFINED_HEIGHT_BEGIN
1070
    46
1040
3.5
1000
ACAD_MTEXT_DEFINED_HEIGHT_END
  0
MTEXT
  5
434
330
1F
100
AcDbEntity
  8
NoLayerName_001
 62
     3
370
    50
100
AcDbMText
 10
510.0976346018256
 20
45.00048792391301
 30
0.0
 40
1.379310344827586
 41
0.0
 71
     8
 72
     5
  1
\fMS PGothic|b0|c128|p50;\A1;ＱＵＡＮＴＩＴＹ
 73
     1
 44
1.299389002163688
1001
ACAD
1000
ACAD_MTEXT_DEFINED_HEIGHT_BEGIN
1070
    46
1040
2.0
1000
ACAD_MTEXT_DEFINED_HEIGHT_END
  0
MTEXT
  5
435
330
1F
100
AcDbEntity
  8
NoLayerName_001
 62
     3
370
    50
100
AcDbMText
 10
482.1929104807319
 20
45.00048792391301
 30
0.0
 40
1.379310344827586
 41
0.0
 71
     8
 72
     5
  1
\fMS PGothic|b0|c128|p50;\A1;ＭＡＴＥＲＩＡＬ
 73
     1
 44
1.299389002163688
1001
ACAD
1000
ACAD_MTEXT_DEFINED_HEIGHT_BEGIN
1070
    46
1040
2.0
1000
ACAD_MTEXT_DEFINED_HEIGHT_END
  0
MTEXT
  5
436
330
1F
100
AcDbEntity
  8
NoLayerName_001
 62
     3
370
    50
100
AcDbMText
 10
430.4545224192085
 20
45.00048792391301
 30
0.0
 40
1.379310344827586
 41
0.0
 71
     8
 72
     5
  1
\fMS PGothic|b0|c128|p50;\A1;ＭＯＤＥＬＳ
 73
     1
 44
1.299389002163688
1001
ACAD
1000
ACAD_MTEXT_DEFINED_HEIGHT_BEGIN
1070
    46
1040
2.0
1000
ACAD_MTEXT_DEFINED_HEIGHT_END
  0
MTEXT
  5
437
330
1F
100
AcDbEntity
  8
NoLayerName_001
 62
     3
370
    50
100
AcDbMText
 10
431.1066861154976
 20
30.25048792391298
 30
0.0
 40
1.523229246001523
 41
0.0
 71
     8
 72
     5
  1
\fMS Gothic|b0|c128|p49;\A1;ＤＡＴＥ
 73
     1
 44
1.26299316385529
1001
ACAD
1000
ACAD_MTEXT_DEFINED_HEIGHT_BEGIN
1070
    46
1040
2.0
1000
ACAD_MTEXT_DEFINED_HEIGHT_END
  0
MTEXT
  5
438
330
1F
100
AcDbEntity
  8
NoLayerName_001
 62
     3
370
    50
100
AcDbMText
 10
476.0832638742866
 20
30.25048792391298
 30
0.0
 40
1.523229246001523
 41
0.0
 71
     8
 72
     5
  1
\fMS Gothic|b0|c128|p49;\A1;ＳＣＡＬＥ
 73
     1
 44
1.26299316385529
1001
ACAD
1000
ACAD_MTEXT_DEFINED_HEIGHT_BEGIN
1070
    46
1040
2.0
1000
ACAD_MTEXT_DEFINED_HEIGHT_END
  0
MTEXT
  5
439
330
1F
100
AcDbEntity
  8
NoLayerName_001
 62
     3
370
    50
100
AcDbMText
 10
473.875
 20
27.00000000000004
 30
0.0
 40
1.10344829230473
 41
0.0
 71
     5
 72
     5
  1
\fMS PGothic|b0|c128|p50;\A1;ＡＰＰＲＯＶＥＤ
 73
     1
 44
1.299389002163688
1001
ACAD
1000
ACAD_MTEXT_DEFINED_HEIGHT_BEGIN
1070
    46
1040
1.600000023841858
1000
ACAD_MTEXT_DEFINED_HEIGHT_END
  0
MTEXT
  5
43A
330
1F
100
AcDbEntity
  8
NoLayerName_001
 62
     3
370
    50
100
AcDbMText
 10
487.6249847412109
 20
27.00000000000004
 30
0.0
 40
1.10344829230473
 41
0.0
 71
     5
 72
     5
  1
\fMS PGothic|b0|c128|p50;\A1;ＣＨＥＣＫＥＤ
 73
     1
 44
1.299389002163688
1001
ACAD
1000
ACAD_MTEXT_DEFINED_HEIGHT_BEGIN
1070
    46
1040
1.600000023841858
1000
ACAD_MTEXT_DEFINED_HEIGHT_END
  0
MTEXT
  5
43B
330
1F
100
AcDbEntity
  8
NoLayerName_001
 62
     3
370
    50
100
AcDbMText
 10
501.3749847412109
 20
27.00000000000004
 30
0.0
 40
1.10344829230473
 41
0.0
 71
     5
 72
     5
  1
\fMS PGothic|b0|c128|p50;\A1;ＤＥＳＩＧＮＥＤ
 73
     1
 44
1.299389002163688
1001
ACAD
1000
ACAD_MTEXT_DEFINED_HEIGHT_BEGIN
1070
    46
1040
1.600000023841858
1000
ACAD_MTEXT_DEFINED_HEIGHT_END
  0
MTEXT
  5
43C
330
1F
100
AcDbEntity
  8
NoLayerName_001
 62
     3
370
    50
100
AcDbMText
 10
515.125
 20
27.00000000000003
 30
0.0
 40
1.10344829230473
 41
0.0
 71
     5
 72
     5
  1
\fMS PGothic|b0|c128|p50;\A1;ＤＲＡＷＮ
 73
     1
 44
1.299389002163688
1001
ACAD
1000
ACAD_MTEXT_DEFINED_HEIGHT_BEGIN
1070
    46
1040
1.600000023841858
1000
ACAD_MTEXT_DEFINED_HEIGHT_END
  0
MTEXT
  5
43D
330
1F
100
AcDbEntity
  8
NoLayerName_001
 62
     3
370
    50
100
AcDbMText
 10
529.5267880442085
 20
31.25048792391298
 30
0.0
 40
1.379310344827586
 41
0.0
 71
     8
 72
     5
  1
\fMS PGothic|b0|c128|p50;\A1;ＤＲＡＷＩＮＧ　№
 73
     1
 44
1.299389002163688
1001
ACAD
1000
ACAD_MTEXT_DEFINED_HEIGHT_BEGIN
1070
    46
1040
2.0
1000
ACAD_MTEXT_DEFINED_HEIGHT_END
  0
MTEXT
  5
43E
330
1F
100
AcDbEntity
  8
NoLayerName_001
 62
     3
370
    50
100
AcDbMText
 10
403.4999847412109
 20
11.90000000000005
 30
0.0
 40
1.379310344827586
 41
0.0
 71
     5
 72
     5
  1
\fMS PGothic|b0|c128|p50;\A1;ＤＡＴＥ
 73
     1
 44
1.299389002163688
1001
ACAD
1000
ACAD_MTEXT_DEFINED_HEIGHT_BEGIN
1070
    46
1040
2.0
1000
ACAD_MTEXT_DEFINED_HEIGHT_END
  0
MTEXT
  5
43F
330
1F
100
AcDbEntity
  8
NoLayerName_001
 62
     3
370
    50
100
AcDbMText
 10
375.9999847412109
 20
11.90000000000009
 30
0.0
 40
1.379310344827586
 41
0.0
 71
     5
 72
     5
  1
\fMS PGothic|b0|c128|p50;\A1;ＮＯＴＥ
 73
     1
 44
1.299389002163688
1001
ACAD
1000
ACAD_MTEXT_DEFINED_HEIGHT_BEGIN
1070
    46
1040
2.0
1000
ACAD_MTEXT_DEFINED_HEIGHT_END
  0
MTEXT
  5
440
330
1F
100
AcDbEntity
  8
NoLayerName_001
 62
     3
370
    50
100
AcDbMText
 10
354.0
 20
11.90000000000016
 30
0.0
 40
1.379310344827586
 41
0.0
 71
     5
 72
     5
  1
\fMS PGothic|b0|c128|p50;\A1;ＭＡＲＫ
 73
     1
 44
1.299389002163688
1001
ACAD
1000
ACAD_MTEXT_DEFINED_HEIGHT_BEGIN
1070
    46
1040
2.0
1000
ACAD_MTEXT_DEFINED_HEIGHT_END
  0
MTEXT
  5
441
330
1F
100
AcDbEntity
  8
NoLayerName_001
 62
     3
370
    50
100
AcDbMText
 10
419.25
 20
11.90000000000003
 30
0.0
 40
1.379310344827586
 41
0.0
 71
     5
 72
     5
  1
\fMS PGothic|b0|c128|p50;\A1;ＮＡＭＥ
 73
     1
 44
1.299389002163688
1001
ACAD
1000
ACAD_MTEXT_DEFINED_HEIGHT_BEGIN
1070
    46
1040
2.0
1000
ACAD_MTEXT_DEFINED_HEIGHT_END
  0
MTEXT
  5
442
330
1F
100
AcDbEntity
  8
NoLayerName_001
 62
     7
370
    50
100
AcDbMText
 10
430.4223327636719
 20
17.00000000000021
 30
0.0
 40
1.724137931034483
 41
0.0
 71
     7
 72
     5
  1
\fMS PGothic|b0|c128|p50;\A1;ＲＩＫＥＮ　ＳＥＩＫＩ　ＣＯ．，ＬＴＤ．
 73
     1
 44
1.299389002163688
1001
ACAD
1000
ACAD_MTEXT_DEFINED_HEIGHT_BEGIN
1070
    46
1040
2.5
1000
ACAD_MTEXT_DEFINED_HEIGHT_END
  0
MTEXT
  5
443
330
1F
100
AcDbEntity
  8
NoLayerName_001
 62
     3
370
    50
100
AcDbMText
 10
531.9920218180257
 20
18.83717805983667
 30
0.0
 40
1.10344829230473
 41
0.0
 71
     8
 72
     5
  1
\fMS PGothic|b0|c128|p50;\A1;ＵＳＥＲ’Ｓ　ＤＲＡＷＩＮＧ　№
 73
     1
 44
1.299389002163688
1001
ACAD
1000
ACAD_MTEXT_DEFINED_HEIGHT_BEGIN
1070
    46
1040
1.600000023841858
1000
ACAD_MTEXT_DEFINED_HEIGHT_END
  0
MTEXT
  5
444
330
1F
100
AcDbEntity
  8
NoLayerName_001
 62
     3
370
    50
100
AcDbMText
 10
537.4999694824219
 20
29.50000000000006
 30
0.0
 40
1.10344829230473
 41
0.0
 71
     5
 72
     5
  1
\fMS PGothic|b0|c128|p50;\A1;Ｃｏｄｅ
 73
     1
 44
1.299389002163688
1001
ACAD
1000
ACAD_MTEXT_DEFINED_HEIGHT_BEGIN
1070
    46
1040
1.600000023841858
1000
ACAD_MTEXT_DEFINED_HEIGHT_END
  0
MTEXT
  5
445
330
1F
100
AcDbEntity
  8
NoLayerName_001
 62
     3
370
    50
100
AcDbMText
 10
560.5000305175781
 20
29.50000000000006
 30
0.0
 40
1.10344829230473
 41
0.0
 71
     5
 72
     5
  1
\fMS PGothic|b0|c128|p50;\A1;Ｐａｒｔ
 73
     1
 44
1.299389002163688
1001
ACAD
1000
ACAD_MTEXT_DEFINED_HEIGHT_BEGIN
1070
    46
1040
1.600000023841858
1000
ACAD_MTEXT_DEFINED_HEIGHT_END
  0
MTEXT
  5
446
330
1F
100
AcDbEntity
  8
NoLayerName_001
 62
     3
370
    50
100
AcDbMText
 10
572.9999694824219
 20
29.50000000000006
 30
0.0
 40
1.10344829230473
 41
0.0
 71
     5
 72
     5
  1
\fMS PGothic|b0|c128|p50;\A1;Ｐｒｏｃｅｓｓ
 73
     1
 44
1.299389002163688
1001
ACAD
1000
ACAD_MTEXT_DEFINED_HEIGHT_BEGIN
1070
    46
1040
1.600000023841858
1000
ACAD_MTEXT_DEFINED_HEIGHT_END
  0
MTEXT
  5
447
330
1F
100
AcDbEntity
  8
NoLayerName_001
 62
     3
370
    50
100
AcDbMText
 10
581.297607421875
 20
29.50000000000006
 30
0.0
 40
1.10344829230473
 41
0.0
 71
     5
 72
     5
  1
\fMS PGothic|b0|c128|p50;\A1;Ｖｅｒ
 73
     1
 44
1.299389002163688
1001
ACAD
1000
ACAD_MTEXT_DEFINED_HEIGHT_BEGIN
1070
    46
1040
1.600000023841858
1000
ACAD_MTEXT_DEFINED_HEIGHT_END
  0
MTEXT
  5
448
330
1F
100
AcDbEntity
  8
NoLayerName_001
 62
     3
370
    50
100
AcDbMText
 10
425.5000000000001
 20
13.40000000000021
 30
0.0
 40
1.517241412195666
 41
0.0
 71
     7
 72
     5
  1
\fMS PGothic|b0|c128|p50;\A1;ＴＥＬ　（０２５８）８２－４１２３（チャック営業部）
 73
     1
 44
1.299389002163688
1001
ACAD
1000
ACAD_MTEXT_DEFINED_HEIGHT_BEGIN
1070
    46
1040
2.200000047683716
1000
ACAD_MTEXT_DEFINED_HEIGHT_END
  0
MTEXT
  5
449
330
1F
100
AcDbEntity
  8
NoLayerName_001
 62
     3
370
    50
100
AcDbMText
 10
425.5000000000001
 20
10.50000000000021
 30
0.0
 40
1.517241412195666
 41
0.0
 71
     7
 72
     5
  1
\fMS PGothic|b0|c128|p50;\A1;ＦＡＸ　（０２５８）８２－９９９６
 73
     1
 44
1.299389002163688
1001
ACAD
1000
ACAD_MTEXT_DEFINED_HEIGHT_BEGIN
1070
    46
1040
2.200000047683716
1000
ACAD_MTEXT_DEFINED_HEIGHT_END
  0
INSERT
  5
44A
330
1F
100
AcDbEntity
  8
NoLayerName_001
  6
Continuous
 62
     3
370
    25
100
AcDbBlockReference
 66
     1
  2
SX_DeltaSymbol
 10
354.0
 20
15.22376043070376
 30
0.0
 41
3.199999999999989
 42
3.199999999999989
 43
3.199999999999989
  0
ATTRIB
  5
450
330
44A
100
AcDbEntity
  8
0
  6
Continuous
 62
     3
370
    25
100
AcDbText
 10
353.3142857040678
 20
14.42376041878283
 30
0.0
 40
1.600000023841858
  1
１
 72
     4
 11
354.0
 21
15.22376043070376
 31
0.0
100
AcDbAttribute
  2
デルタ文字
 70
     0
 74
     2
  0
SEQEND
  5
451
330
44A
100
AcDbEntity
  8
NoLayerName_001
  6
Continuous
 62
     3
370
    25
  0
INSERT
  5
452
330
1F
100
AcDbEntity
  8
NoLayerName_001
  6
Continuous
 62
     3
370
    25
100
AcDbBlockReference
 66
     1
  2
SX_DeltaSymbol
 10
354.0
 20
19.02376038302004
 30
0.0
 41
3.199999999999989
 42
3.199999999999989
 43
3.199999999999989
  0
ATTRIB
  5
453
330
452
100
AcDbEntity
  8
0
  6
Continuous
 62
     3
370
    25
100
AcDbText
 10
353.3142857040678
 20
18.22376037109911
 30
0.0
 40
1.600000023841858
  1
２
 72
     4
 11
354.0
 21
19.02376038302004
 31
0.0
100
AcDbAttribute
  2
デルタ文字
 70
     0
 74
     2
  0
SEQEND
  5
454
330
452
100
AcDbEntity
  8
NoLayerName_001
  6
Continuous
 62
     3
370
    25
  0
INSERT
  5
455
330
1F
100
AcDbEntity
  8
NoLayerName_001
  6
Continuous
 62
     3
370
    25
100
AcDbBlockReference
 66
     1
  2
SX_DeltaSymbol
 10
354.0
 20
22.82376033533633
 30
0.0
 41
3.199999999999989
 42
3.199999999999989
 43
3.199999999999989
  0
ATTRIB
  5
456
330
455
100
AcDbEntity
  8
0
  6
Continuous
 62
     3
370
    25
100
AcDbText
 10
353.3142857040678
 20
22.0237603234154
 30
0.0
 40
1.600000023841858
  1
３
 72
     4
 11
354.0
 21
22.82376033533633
 31
0.0
100
AcDbAttribute
  2
デルタ文字
 70
     0
 74
     2
  0
SEQEND
  5
457
330
455
100
AcDbEntity
  8
NoLayerName_001
  6
Continuous
 62
     3
370
    25
  0
INSERT
  5
458
330
1F
100
AcDbEntity
  8
NoLayerName_001
  6
Continuous
 62
     3
370
    25
100
AcDbBlockReference
 66
     1
  2
SX_DeltaSymbol
 10
354.0
 20
26.62376028765261
 30
0.0
 41
3.199999999999989
 42
3.199999999999989
 43
3.199999999999989
  0
ATTRIB
  5
459
330
458
100
AcDbEntity
  8
0
  6
Continuous
 62
     3
370
    25
100
AcDbText
 10
353.3142857040678
 20
25.82376027573168
 30
0.0
 40
1.600000023841858
  1
４
 72
     4
 11
354.0
 21
26.62376028765261
 31
0.0
100
AcDbAttribute
  2
デルタ文字
 70
     0
 74
     2
  0
SEQEND
  5
45A
330
458
100
AcDbEntity
  8
NoLayerName_001
  6
Continuous
 62
     3
370
    25
  0
INSERT
  5
45B
330
1F
100
AcDbEntity
  8
NoLayerName_001
  6
Continuous
 62
     3
370
    25
100
AcDbBlockReference
 66
     1
  2
SX_DeltaSymbol
 10
354.0
 20
30.4237602399689
 30
0.0
 41
3.199999999999989
 42
3.199999999999989
 43
3.199999999999989
  0
ATTRIB
  5
45C
330
45B
100
AcDbEntity
  8
0
  6
Continuous
 62
     3
370
    25
100
AcDbText
 10
353.3142857040678
 20
29.62376022804797
 30
0.0
 40
1.600000023841858
  1
５
 72
     4
 11
354.0
 21
30.4237602399689
 31
0.0
100
AcDbAttribute
  2
デルタ文字
 70
     0
 74
     2
  0
SEQEND
  5
45D
330
45B
100
AcDbEntity
  8
NoLayerName_001
  6
Continuous
 62
     3
370
    25
  0
INSERT
  5
45E
330
1F
100
AcDbEntity
  8
NoLayerName_001
  6
Continuous
 62
     3
370
    25
100
AcDbBlockReference
 66
     1
  2
SX_DeltaSymbol
 10
354.0
 20
34.22376019228518
 30
0.0
 41
3.199999999999989
 42
3.199999999999989
 43
3.199999999999989
  0
ATTRIB
  5
45F
330
45E
100
AcDbEntity
  8
0
  6
Continuous
 62
     3
370
    25
100
AcDbText
 10
353.3142857040678
 20
33.42376018036425
 30
0.0
 40
1.600000023841858
  1
６
 72
     4
 11
354.0
 21
34.22376019228518
 31
0.0
100
AcDbAttribute
  2
デルタ文字
 70
     0
 74
     2
  0
SEQEND
  5
460
330
45E
100
AcDbEntity
  8
NoLayerName_001
  6
Continuous
 62
     3
370
    25
  0
INSERT
  5
461
330
1F
100
AcDbEntity
  8
NoLayerName_001
  6
Continuous
 62
     3
370
    25
100
AcDbBlockReference
 66
     1
  2
SX_DeltaSymbol
 10
354.0
 20
38.02376014460146
 30
0.0
 41
3.199999999999989
 42
3.199999999999989
 43
3.199999999999989
  0
ATTRIB
  5
462
330
461
100
AcDbEntity
  8
0
  6
Continuous
 62
     3
370
    25
100
AcDbText
 10
353.3142857040678
 20
37.22376013268053
 30
0.0
 40
1.600000023841858
  1
７
 72
     4
 11
354.0
 21
38.02376014460146
 31
0.0
100
AcDbAttribute
  2
デルタ文字
 70
     0
 74
     2
  0
SEQEND
  5
463
330
461
100
AcDbEntity
  8
NoLayerName_001
  6
Continuous
 62
     3
370
    25
  0
INSERT
  5
464
330
1F
100
AcDbEntity
  8
NoLayerName_001
  6
Continuous
 62
     3
370
    25
100
AcDbBlockReference
 66
     1
  2
SX_DeltaSymbol
 10
354.0
 20
41.82376009691774
 30
0.0
 41
3.199999999999989
 42
3.199999999999989
 43
3.199999999999989
  0
ATTRIB
  5
465
330
464
100
AcDbEntity
  8
0
  6
Continuous
 62
     3
370
    25
100
AcDbText
 10
353.3142857040678
 20
41.02376008499682
 30
0.0
 40
1.600000023841858
  1
８
 72
     4
 11
354.0
 21
41.82376009691774
 31
0.0
100
AcDbAttribute
  2
デルタ文字
 70
     0
 74
     2
  0
SEQEND
  5
466
330
464
100
AcDbEntity
  8
NoLayerName_001
  6
Continuous
 62
     3
370
    25
  0
INSERT
  5
467
330
1F
100
AcDbEntity
  8
NoLayerName_001
  6
Continuous
 62
     3
370
    25
100
AcDbBlockReference
 66
     1
  2
SX_DeltaSymbol
 10
354.0
 20
45.62376004923403
 30
0.0
 41
3.199999999999989
 42
3.199999999999989
 43
3.199999999999989
  0
ATTRIB
  5
468
330
467
100
AcDbEntity
  8
0
  6
Continuous
 62
     3
370
    25
100
AcDbText
 10
353.3142857040678
 20
44.8237600373131
 30
0.0
 40
1.600000023841858
  1
９
 72
     4
 11
354.0
 21
45.62376004923403
 31
0.0
100
AcDbAttribute
  2
デルタ文字
 70
     0
 74
     2
  0
SEQEND
  5
469
330
467
100
AcDbEntity
  8
NoLayerName_001
  6
Continuous
 62
     3
370
    25
  0
MTEXT
  5
46A
330
1F
100
AcDbEntity
  8
NoLayerName_001
 62
     7
370
    50
100
AcDbMText
 10
509.6778564453125
 20
31.25000000000005
 30
0.0
 40
3.808073115003808
 41
0.0
 71
     5
 72
     5
  1
\fMS Gothic|b0|c128|p49;\A1;Ａ－２
 73
     1
 44
1.26299316385529
1001
ACAD
1000
ACAD_MTEXT_DEFINED_HEIGHT_BEGIN
1070
    46
1040
5.0
1000
ACAD_MTEXT_DEFINED_HEIGHT_END
  0
MTEXT
  5
46B
330
1F
100
AcDbEntity
  8
NoLayerName_001
 62
     3
370
    50
100
AcDbMText
 10
529.4968503000679
 20
45.00048792391301
 30
0.0
 40
1.379310344827586
 41
0.0
 71
     8
 72
     5
  1
\fMS PGothic|b0|c128|p50;\A1;ＰＡＲＴ　ＮＡＭＥ
 73
     1
 44
1.299389002163688
1001
ACAD
1000
ACAD_MTEXT_DEFINED_HEIGHT_BEGIN
1070
    46
1040
2.0
1000
ACAD_MTEXT_DEFINED_HEIGHT_END
  0
MTEXT
  5
46C
330
1F
100
AcDbEntity
  8
NoLayerName_001
 62
     3
370
    50
100
AcDbMText
 10
440.9000091552734
 20
31.25000000000007
 30
0.0
 40
3.5
 41
0.0
 71
     4
 72
     5
  1
\A1;\W0.6667;２００５，１，３１
 73
     1
 44
1.0
1001
ACAD
1000
ACAD_MTEXT_DEFINED_HEIGHT_BEGIN
1070
    46
1040
3.5
1000
ACAD_MTEXT_DEFINED_HEIGHT_END
  0
MTEXT
  5
46D
330
1F
100
AcDbEntity
  8
NoLayerName_001
 62
     3
370
    50
100
AcDbMText
 10
515.125
 20
17.75000002981222
 30
0.0
 40
6.25
 41
0.0
 71
     5
 72
     5
  1
\A1;\W0.8333;笹崎
  7
@Standard
 73
     2
 44
0.6
  0
MTEXT
  5
46E
330
1F
100
AcDbEntity
  8
NoLayerName_001
 62
     3
370
    50
100
AcDbMText
 10
553.0
 20
39.00000000000006
 30
0.0
 40
4.5
 41
0.0
 71
     5
 72
     5
  1
\A1;\W0.8333;組　立　図
 73
     1
 44
1.0
1001
ACAD
1000
ACAD_MTEXT_DEFINED_HEIGHT_BEGIN
1070
    46
1040
4.5
1000
ACAD_MTEXT_DEFINED_HEIGHT_END
  0
MTEXT
  5
46F
330
1F
100
AcDbEntity
  8
NoLayerName_001
 62
     3
370
    50
100
AcDbMText
 10
428.0000004768372
 20
39.50000000000013
 30
0.0
 40
4.5
 41
0.0
 71
     4
 72
     5
  1
\A1;\W0.8333;\T0.9000;ＰＵＬＬ－２５（Ⅱ型）
 73
     1
 44
1.0
1001
ACAD
1000
ACAD_MTEXT_DEFINED_HEIGHT_BEGIN
1070
    46
1040
4.5
1000
ACAD_MTEXT_DEFINED_HEIGHT_END
  0
INSERT
  5
470
330
1F
100
AcDbEntity
  8
NoLayerName_001
100
AcDbBlockReference
  2
JZB_0001
 10
467.375
 20
11.25
 30
0.0
  0
ENDSEC
  0
SECTION
  2
OBJECTS
  0
DICTIONARY
  5
C
330
0
100
AcDbDictionary
281
     1
  3
ACAD_GROUP
350
D
  3
ACAD_LAYOUT
350
1A
  3
ACAD_MATERIAL
350
43
  3
ACAD_MLEADERSTYLE
350
473
  3
ACAD_MLINESTYLE
350
17
  3
ACAD_PLOTSETTINGS
350
19
  3
ACAD_PLOTSTYLENAME
350
E
  3
ACAD_SCALELIST
350
47
  3
ACAD_VISUALSTYLE
350
2A
  3
AcDbVariableDictionary
350
471
  3
DWGPROPS
350
47A
  0
DICTIONARY
  5
273
330
272
100
AcDbDictionary
280
     1
281
     1
  0
DICTIONARY
  5
287
330
286
100
AcDbDictionary
280
     1
281
     1
  0
DICTIONARY
  5
295
330
294
100
AcDbDictionary
280
     1
281
     1
  0
DICTIONARY
  5
2A3
330
2A2
100
AcDbDictionary
280
     1
281
     1
  0
DICTIONARY
  5
2B1
330
2B0
100
AcDbDictionary
280
     1
281
     1
  0
DICTIONARY
  5
2BF
330
2BE
100
AcDbDictionary
280
     1
281
     1
  0
DICTIONARY
  5
2CD
330
2CC
100
AcDbDictionary
280
     1
281
     1
  0
DICTIONARY
  5
2DB
330
2DA
100
AcDbDictionary
280
     1
281
     1
  0
DICTIONARY
  5
2E9
330
2E8
100
AcDbDictionary
280
     1
281
     1
  0
DICTIONARY
  5
2F8
330
2F7
100
AcDbDictionary
280
     1
281
     1
  0
DICTIONARY
  5
344
330
343
100
AcDbDictionary
280
     1
281
     1
  0
DICTIONARY
  5
361
330
360
100
AcDbDictionary
280
     1
281
     1
  0
DICTIONARY
  5
36F
330
36E
100
AcDbDictionary
280
     1
281
     1
  0
DICTIONARY
  5
386
330
385
100
AcDbDictionary
280
     1
281
     1
  0
DICTIONARY
  5
3A4
330
3A3
100
AcDbDictionary
280
     1
281
     1
  0
DICTIONARY
  5
3B2
330
3B1
100
AcDbDictionary
280
     1
281
     1
  0
DICTIONARY
  5
3C0
330
3BF
100
AcDbDictionary
280
     1
281
     1
  0
DICTIONARY
  5
D
102
{ACAD_REACTORS
330
C
102
}
330
C
100
AcDbDictionary
281
     1
  0
DICTIONARY
  5
1A
102
{ACAD_REACTORS
330
C
102
}
330
C
100
AcDbDictionary
281
     1
  3
Layout1
350
1E
  3
Model
350
22
  0
DICTIONARY
  5
43
102
{ACAD_REACTORS
330
C
102
}
330
C
100
AcDbDictionary
281
     1
  3
ByBlock
350
45
  3
ByLayer
350
44
  3
Global
350
46
  0
DICTIONARY
  5
473
102
{ACAD_REACTORS
330
C
102
}
330
C
100
AcDbDictionary
281
     1
  0
DICTIONARY
  5
17
102
{ACAD_REACTORS
330
C
102
}
330
C
100
AcDbDictionary
281
     1
  3
Standard
350
18
  0
DICTIONARY
  5
19
102
{ACAD_REACTORS
330
C
102
}
330
C
100
AcDbDictionary
281
     1
  0
ACDBDICTIONARYWDFLT
  5
E
102
{ACAD_REACTORS
330
C
102
}
330
C
100
AcDbDictionary
281
     1
  3
Normal
350
F
100
AcDbDictionaryWithDefault
340
F
  0
DICTIONARY
  5
47
102
{ACAD_REACTORS
330
C
102
}
330
C
100
AcDbDictionary
281
     1
  3
A0
350
48
  3
A1
350
49
  3
A2
350
4A
  3
A3
350
4B
  3
A4
350
4C
  3
A5
350
4D
  3
A6
350
4E
  3
A7
350
4F
  3
A8
350
50
  3
A9
350
51
  3
B0
350
52
  3
B1
350
53
  3
B2
350
54
  3
B3
350
55
  3
B4
350
56
  3
B5
350
57
  3
B6
350
58
  3
B7
350
59
  3
B8
350
5A
  3
B9
350
5B
  3
C0
350
5C
  3
C1
350
5D
  3
C2
350
5E
  3
C3
350
5F
  3
C4
350
60
  3
C5
350
61
  3
C6
350
62
  3
C7
350
63
  3
C8
350
64
  3
C9
350
65
  3
D0
350
66
  3
D1
350
67
  3
D2
350
68
  0
DICTIONARY
  5
2A
102
{ACAD_REACTORS
330
C
102
}
330
C
100
AcDbDictionary
281
     1
  3
2dWireframe
350
2F
  3
Basic
350
32
  3
Brighten
350
36
  3
ColorChange
350
3A
  3
Conceptual
350
34
  3
Dim
350
35
  3
EdgeColorOff
350
3D
  3
Facepattern
350
39
  3
Flat
350
2B
  3
FlatWithEdges
350
2C
  3
Gouraud
350
2D
  3
GouraudWithEdges
350
2E
  3
Hidden
350
31
  3
JitterOff
350
3B
  3
Linepattern
350
38
  3
OverhangOff
350
3C
  3
Realistic
350
33
  3
Shaded
350
42
  3
Shaded with edges
350
41
  3
Shades of Gray
350
3E
  3
Sketchy
350
3F
  3
Thicken
350
37
  3
Wireframe
350
30
  3
X-Ray
350
40
  0
DICTIONARY
  5
471
102
{ACAD_REACTORS
330
C
102
}
330
C
100
AcDbDictionary
281
     1
  3
CANNOSCALE
350
47E
  3
DIMASSOC
350
478
  3
HIDETEXT
350
479
  3
MSLTSCALE
350
47F
  3
PSOLHEIGHT
350
475
  3
PSOLWIDTH
350
474
  0
XRECORD
  5
47A
102
{ACAD_REACTORS
330
C
102
}
330
C
100
AcDbXrecord
280
     1
  1
DWGPROPS COOKIE
  2

  3

  4

  6
File was created by TR2_DExp
  7

  8

  9

300
=
301
=
302
=
303
=
304
=
305
=
306
=
307
=
308
=
309
=
 40
0.0
 41
2455188.375
 42
2455188.375
  1

 90
        0
  0
LAYOUT
  5
1E
102
{ACAD_REACTORS
330
1A
102
}
330
1A
100
AcDbPlotSettings
  1

  2
none_device
  4

  6

 40
0.0
 41
0.0
 42
0.0
 43
0.0
 44
0.0
 45
0.0
 46
0.0
 47
0.0
 48
0.0
 49
0.0
140
0.0
141
0.0
142
1.0
143
1.0
 70
   688
 72
     1
 73
     0
 74
     5
  7

 75
    16
147
1.0
148
0.0
149
0.0
100
AcDbLayout
  1
Layout1
 70
     0
 71
     1
 10
0.0
 20
0.0
 11
420.0
 21
297.0
 12
0.0
 22
0.0
 32
0.0
 14
1.000000000000000E+20
 24
1.000000000000000E+20
 34
1.000000000000000E+20
 15
-1.000000000000000E+20
 25
-1.000000000000000E+20
 35
-1.000000000000000E+20
146
0.0
 13
0.0
 23
0.0
 33
0.0
 16
1.0
 26
0.0
 36
0.0
 17
0.0
 27
1.0
 37
0.0
 76
     0
330
1B
  0
LAYOUT
  5
22
102
{ACAD_REACTORS
330
1A
102
}
330
1A
100
AcDbPlotSettings
  1

  2
none_device
  4
Letter_(8.50_x_11.00_Inches)
  6

 40
6.35
 41
6.35
 42
6.35000508
 43
6.35000508
 44
215.9
 45
279.4
 46
0.0
 47
0.0
 48
0.0
 49
0.0
140
0.0
141
0.0
142
1.0
143
1.0
 70
  1712
 72
     1
 73
     0
 74
     0
  7

 75
     0
147
1.0
148
0.0
149
0.0
100
AcDbLayout
  1
Model
 70
     1
 71
     0
 10
0.0
 20
0.0
 11
594.0
 21
420.0
 12
0.0
 22
0.0
 32
0.0
 14
0.0
 24
0.0
 34
0.0
 15
594.0
 25
420.0
 35
0.0
146
0.0
 13
0.0
 23
0.0
 33
0.0
 16
1.0
 26
0.0
 36
0.0
 17
0.0
 27
1.0
 37
0.0
 76
     0
330
1F
331
29
  0
MATERIAL
  5
45
102
{ACAD_REACTORS
330
43
102
}
102
{ACAD_XDICTIONARY
360
4B2
102
}
330
43
100
AcDbMaterial
  1
ByBlock
  0
MATERIAL
  5
44
102
{ACAD_REACTORS
330
43
102
}
102
{ACAD_XDICTIONARY
360
4B0
102
}
330
43
100
AcDbMaterial
  1
ByLayer
  0
MATERIAL
  5
46
102
{ACAD_REACTORS
330
43
102
}
102
{ACAD_XDICTIONARY
360
4B4
102
}
330
43
100
AcDbMaterial
  1
Global
  0
MLINESTYLE
  5
18
102
{ACAD_REACTORS
330
17
102
}
330
17
100
AcDbMlineStyle
  2
Standard
 70
     0
  3

 62
   256
 51
90.0
 52
90.0
 71
     2
 49
0.5
 62
   256
  6
BYLAYER
 49
-0.5
 62
   256
  6
BYLAYER
  0
ACDBPLACEHOLDER
  5
F
102
{ACAD_REACTORS
330
E
102
}
330
E
  0
SCALE
  5
48
102
{ACAD_REACTORS
330
47
102
}
330
47
100
AcDbScale
 70
     0
300
1:1
140
1.0
141
1.0
290
     1
  0
SCALE
  5
49
102
{ACAD_REACTORS
330
47
102
}
330
47
100
AcDbScale
 70
     0
300
1:2
140
1.0
141
2.0
290
     0
  0
SCALE
  5
4A
102
{ACAD_REACTORS
330
47
102
}
330
47
100
AcDbScale
 70
     0
300
1:4
140
1.0
141
4.0
290
     0
  0
SCALE
  5
4B
102
{ACAD_REACTORS
330
47
102
}
330
47
100
AcDbScale
 70
     0
300
1:5
140
1.0
141
5.0
290
     0
  0
SCALE
  5
4C
102
{ACAD_REACTORS
330
47
102
}
330
47
100
AcDbScale
 70
     0
300
1:8
140
1.0
141
8.0
290
     0
  0
SCALE
  5
4D
102
{ACAD_REACTORS
330
47
102
}
330
47
100
AcDbScale
 70
     0
300
1:10
140
1.0
141
10.0
290
     0
  0
SCALE
  5
4E
102
{ACAD_REACTORS
330
47
102
}
330
47
100
AcDbScale
 70
     0
300
1:16
140
1.0
141
16.0
290
     0
  0
SCALE
  5
4F
102
{ACAD_REACTORS
330
47
102
}
330
47
100
AcDbScale
 70
     0
300
1:20
140
1.0
141
20.0
290
     0
  0
SCALE
  5
50
102
{ACAD_REACTORS
330
47
102
}
330
47
100
AcDbScale
 70
     0
300
1:30
140
1.0
141
30.0
290
     0
  0
SCALE
  5
51
102
{ACAD_REACTORS
330
47
102
}
330
47
100
AcDbScale
 70
     0
300
1:40
140
1.0
141
40.0
290
     0
  0
SCALE
  5
52
102
{ACAD_REACTORS
330
47
102
}
330
47
100
AcDbScale
 70
     0
300
1:50
140
1.0
141
50.0
290
     0
  0
SCALE
  5
53
102
{ACAD_REACTORS
330
47
102
}
330
47
100
AcDbScale
 70
     0
300
1:100
140
1.0
141
100.0
290
     0
  0
SCALE
  5
54
102
{ACAD_REACTORS
330
47
102
}
330
47
100
AcDbScale
 70
     0
300
2:1
140
2.0
141
1.0
290
     0
  0
SCALE
  5
55
102
{ACAD_REACTORS
330
47
102
}
330
47
100
AcDbScale
 70
     0
300
4:1
140
4.0
141
1.0
290
     0
  0
SCALE
  5
56
102
{ACAD_REACTORS
330
47
102
}
330
47
100
AcDbScale
 70
     0
300
8:1
140
8.0
141
1.0
290
     0
  0
SCALE
  5
57
102
{ACAD_REACTORS
330
47
102
}
330
47
100
AcDbScale
 70
     0
300
10:1
140
10.0
141
1.0
290
     0
  0
SCALE
  5
58
102
{ACAD_REACTORS
330
47
102
}
330
47
100
AcDbScale
 70
     0
300
100:1
140
100.0
141
1.0
290
     0
  0
SCALE
  5
59
102
{ACAD_REACTORS
330
47
102
}
330
47
100
AcDbScale
 70
     0
300
1/128" = 1'-0"
140
0.0078125
141
12.0
290
     0
  0
SCALE
  5
5A
102
{ACAD_REACTORS
330
47
102
}
330
47
100
AcDbScale
 70
     0
300
1/64" = 1'-0"
140
0.015625
141
12.0
290
     0
  0
SCALE
  5
5B
102
{ACAD_REACTORS
330
47
102
}
330
47
100
AcDbScale
 70
     0
300
1/32" = 1'-0"
140
0.03125
141
12.0
290
     0
  0
SCALE
  5
5C
102
{ACAD_REACTORS
330
47
102
}
330
47
100
AcDbScale
 70
     0
300
1/16" = 1'-0"
140
0.0625
141
12.0
290
     0
  0
SCALE
  5
5D
102
{ACAD_REACTORS
330
47
102
}
330
47
100
AcDbScale
 70
     0
300
3/32" = 1'-0"
140
0.09375
141
12.0
290
     0
  0
SCALE
  5
5E
102
{ACAD_REACTORS
330
47
102
}
330
47
100
AcDbScale
 70
     0
300
1/8" = 1'-0"
140
0.125
141
12.0
290
     0
  0
SCALE
  5
5F
102
{ACAD_REACTORS
330
47
102
}
330
47
100
AcDbScale
 70
     0
300
3/16" = 1'-0"
140
0.1875
141
12.0
290
     0
  0
SCALE
  5
60
102
{ACAD_REACTORS
330
47
102
}
330
47
100
AcDbScale
 70
     0
300
1/4" = 1'-0"
140
0.25
141
12.0
290
     0
  0
SCALE
  5
61
102
{ACAD_REACTORS
330
47
102
}
330
47
100
AcDbScale
 70
     0
300
3/8" = 1'-0"
140
0.375
141
12.0
290
     0
  0
SCALE
  5
62
102
{ACAD_REACTORS
330
47
102
}
330
47
100
AcDbScale
 70
     0
300
1/2" = 1'-0"
140
0.5
141
12.0
290
     0
  0
SCALE
  5
63
102
{ACAD_REACTORS
330
47
102
}
330
47
100
AcDbScale
 70
     0
300
3/4" = 1'-0"
140
0.75
141
12.0
290
     0
  0
SCALE
  5
64
102
{ACAD_REACTORS
330
47
102
}
330
47
100
AcDbScale
 70
     0
300
1" = 1'-0"
140
1.0
141
12.0
290
     0
  0
SCALE
  5
65
102
{ACAD_REACTORS
330
47
102
}
330
47
100
AcDbScale
 70
     0
300
1-1/2" = 1'-0"
140
1.5
141
12.0
290
     0
  0
SCALE
  5
66
102
{ACAD_REACTORS
330
47
102
}
330
47
100
AcDbScale
 70
     0
300
3" = 1'-0"
140
3.0
141
12.0
290
     0
  0
SCALE
  5
67
102
{ACAD_REACTORS
330
47
102
}
330
47
100
AcDbScale
 70
     0
300
6" = 1'-0"
140
6.0
141
12.0
290
     0
  0
SCALE
  5
68
102
{ACAD_REACTORS
330
47
102
}
330
47
100
AcDbScale
 70
     0
300
1'-0" = 1'-0"
140
12.0
141
12.0
290
     0
  0
VISUALSTYLE
  5
2F
102
{ACAD_REACTORS
330
2A
102
}
102
{ACAD_XDICTIONARY
360
488
102
}
330
2A
100
AcDbVisualStyle
  2
2dWireframe
 70
     4
 71
     0
 72
     2
 73
     0
 90
        0
 40
0.6
 41
30.0
 62
     5
 63
     7
 74
     1
 91
        4
 64
     7
 65
   257
 75
     1
175
     1
 42
1.0
 92
        0
 66
   257
 43
1.0
 76
     1
 77
     6
 78
     2
 67
     7
 79
     5
170
     0
171
     0
290
     0
174
     0
 93
        1
 44
0.0
173
     0
291
     0
 45
0.0
1001
ACAD
1000
AcDbSavedByObjectVersion
1070
     0
  0
VISUALSTYLE
  5
32
102
{ACAD_REACTORS
330
2A
102
}
102
{ACAD_XDICTIONARY
360
48E
102
}
330
2A
100
AcDbVisualStyle
  2
Basic
 70
     7
 71
     1
 72
     0
 73
     1
 90
        0
 40
0.6
 41
30.0
 62
     5
 63
     7
 74
     0
 91
        4
 64
     7
 65
   257
 75
     1
175
     1
 42
1.0
 92
        8
 66
     7
 43
1.0
 76
     1
 77
     6
 78
     2
 67
     7
 79
     5
170
     0
171
     0
290
     0
174
     0
 93
        1
 44
0.0
173
     0
291
     1
 45
0.0
1001
ACAD
1000
AcDbSavedByObjectVersion
1070
     0
  0
VISUALSTYLE
  5
36
102
{ACAD_REACTORS
330
2A
102
}
102
{ACAD_XDICTIONARY
360
496
102
}
330
2A
100
AcDbVisualStyle
  2
Brighten
 70
    12
 71
     2
 72
     2
 73
     0
 90
        0
 40
0.6
 41
30.0
 62
     5
 63
     7
 74
     1
 91
        4
 64
     7
 65
   257
 75
     1
175
     1
 42
1.0
 92
        8
 66
     7
 43
1.0
 76
     1
 77
     6
 78
     2
 67
     7
 79
     5
170
     0
171
     0
290
     0
174
     0
 93
        1
 44
50.0
173
     0
291
     1
 45
0.0
1001
ACAD
1000
AcDbSavedByObjectVersion
1070
     0
  0
VISUALSTYLE
  5
3A
102
{ACAD_REACTORS
330
2A
102
}
102
{ACAD_XDICTIONARY
360
49E
102
}
330
2A
100
AcDbVisualStyle
  2
ColorChange
 70
    16
 71
     2
 72
     2
 73
     3
 90
        0
 40
0.6
 41
30.0
 62
     5
 63
     8
 74
     1
 91
        4
 64
     7
 65
   257
 75
     1
175
     1
 42
1.0
 92
        8
 66
     8
 43
1.0
 76
     1
 77
     6
 78
     2
 67
     7
 79
     5
170
     0
171
     0
290
     0
174
     0
 93
        1
 44
0.0
173
     0
291
     1
 45
0.0
1001
ACAD
1000
AcDbSavedByObjectVersion
1070
     0
  0
VISUALSTYLE
  5
34
102
{ACAD_REACTORS
330
2A
102
}
102
{ACAD_XDICTIONARY
360
492
102
}
330
2A
100
AcDbVisualStyle
  2
Conceptual
 70
     9
 71
     3
 72
     2
 73
     0
 90
        0
 40
0.6
 41
30.0
 62
     5
 63
     7
 74
     2
 91
        2
 64
     7
 65
   257
 75
     1
175
     1
 42
179.0
 92
        8
 66
     7
 43
1.0
 76
     1
 77
     6
 78
     2
 67
     7
 79
     3
170
     0
171
     0
290
     0
174
     0
 93
        1
 44
0.0
173
     0
291
     0
 45
0.0
1001
ACAD
1000
AcDbSavedByObjectVersion
1070
     0
  0
VISUALSTYLE
  5
35
102
{ACAD_REACTORS
330
2A
102
}
102
{ACAD_XDICTIONARY
360
494
102
}
330
2A
100
AcDbVisualStyle
  2
Dim
 70
    11
 71
     2
 72
     2
 73
     0
 90
        0
 40
0.6
 41
30.0
 62
     5
 63
     7
 74
     1
 91
        4
 64
     7
 65
   257
 75
     1
175
     1
 42
1.0
 92
        8
 66
     7
 43
1.0
 76
     1
 77
     6
 78
     2
 67
     7
 79
     5
170
     0
171
     0
290
     0
174
     0
 93
        1
 44
-50.0
173
     0
291
     1
 45
0.0
1001
ACAD
1000
AcDbSavedByObjectVersion
1070
     0
  0
VISUALSTYLE
  5
3D
102
{ACAD_REACTORS
330
2A
102
}
102
{ACAD_XDICTIONARY
360
4A4
102
}
330
2A
100
AcDbVisualStyle
  2
EdgeColorOff
 70
    22
 71
     2
 72
     2
 73
     0
 90
        0
 40
0.6
 41
30.0
 62
     5
 63
     7
 74
     1
 91
        4
 64
     7
 65
   257
 75
     1
175
     1
 42
1.0
 92
        8
 66
     7
 43
1.0
 76
     1
 77
     6
 78
     2
 67
     7
 79
     5
170
     0
171
     0
290
     0
174
     0
 93
        1
 44
0.0
173
     0
291
     1
 45
0.0
1001
ACAD
1000
AcDbSavedByObjectVersion
1070
     0
  0
VISUALSTYLE
  5
39
102
{ACAD_REACTORS
330
2A
102
}
102
{ACAD_XDICTIONARY
360
49C
102
}
330
2A
100
AcDbVisualStyle
  2
Facepattern
 70
    15
 71
     2
 72
     2
 73
     0
 90
        0
 40
0.6
 41
30.0
 62
     5
 63
     7
 74
     1
 91
        4
 64
     7
 65
   257
 75
     1
175
     1
 42
1.0
 92
        8
 66
     7
 43
1.0
 76
     1
 77
     6
 78
     2
 67
     7
 79
     5
170
     0
171
     0
290
     0
174
     0
 93
        1
 44
0.0
173
     0
291
     1
 45
0.0
1001
ACAD
1000
AcDbSavedByObjectVersion
1070
     0
  0
VISUALSTYLE
  5
2B
102
{ACAD_REACTORS
330
2A
102
}
102
{ACAD_XDICTIONARY
360
480
102
}
330
2A
100
AcDbVisualStyle
  2
Flat
 70
     0
 71
     2
 72
     1
 73
     1
 90
        2
 40
0.6
 41
30.0
 62
     5
 63
     7
 74
     0
 91
        0
 64
     7
 65
   257
 75
     1
175
     1
 42
1.0
 92
        8
 66
     7
 43
1.0
 76
     1
 77
     6
 78
     2
 67
     7
 79
     5
170
     0
171
     0
290
     0
174
     0
 93
       13
 44
0.0
173
     0
291
     1
 45
0.0
1001
ACAD
1000
AcDbSavedByObjectVersion
1070
     0
  0
VISUALSTYLE
  5
2C
102
{ACAD_REACTORS
330
2A
102
}
102
{ACAD_XDICTIONARY
360
482
102
}
330
2A
100
AcDbVisualStyle
  2
FlatWithEdges
 70
     1
 71
     2
 72
     1
 73
     1
 90
        2
 40
0.6
 41
30.0
 62
     5
 63
     7
 74
     1
 91
        0
 64
     7
 65
   257
 75
     1
175
     1
 42
1.0
 92
        0
 66
   257
 43
1.0
 76
     1
 77
     6
 78
     2
 67
     7
 79
     5
170
     0
171
     0
290
     0
174
     0
 93
       13
 44
0.0
173
     0
291
     1
 45
0.0
1001
ACAD
1000
AcDbSavedByObjectVersion
1070
     0
  0
VISUALSTYLE
  5
2D
102
{ACAD_REACTORS
330
2A
102
}
102
{ACAD_XDICTIONARY
360
484
102
}
330
2A
100
AcDbVisualStyle
  2
Gouraud
 70
     2
 71
     2
 72
     2
 73
     1
 90
        2
 40
0.6
 41
30.0
 62
     5
 63
     7
 74
     0
 91
        0
 64
     7
 65
   257
 75
     1
175
     1
 42
1.0
 92
        0
 66
     7
 43
1.0
 76
     1
 77
     6
 78
     2
 67
     7
 79
     5
170
     0
171
     0
290
     0
174
     0
 93
       13
 44
0.0
173
     0
291
     1
 45
0.0
1001
ACAD
1000
AcDbSavedByObjectVersion
1070
     0
  0
VISUALSTYLE
  5
2E
102
{ACAD_REACTORS
330
2A
102
}
102
{ACAD_XDICTIONARY
360
486
102
}
330
2A
100
AcDbVisualStyle
  2
GouraudWithEdges
 70
     3
 71
     2
 72
     2
 73
     1
 90
        2
 40
0.6
 41
30.0
 62
     5
 63
     7
 74
     1
 91
        0
 64
     7
 65
   257
 75
     1
175
     1
 42
1.0
 92
        0
 66
   257
 43
1.0
 76
     1
 77
     6
 78
     2
 67
     7
 79
     5
170
     0
171
     0
290
     0
174
     0
 93
       13
 44
0.0
173
     0
291
     1
 45
0.0
1001
ACAD
1000
AcDbSavedByObjectVersion
1070
     0
  0
VISUALSTYLE
  5
31
102
{ACAD_REACTORS
330
2A
102
}
102
{ACAD_XDICTIONARY
360
48C
102
}
330
2A
100
AcDbVisualStyle
  2
Hidden
 70
     6
 71
     1
 72
     2
 73
     2
 90
        0
 40
0.6
 41
30.0
 62
     5
 63
     7
 74
     2
 91
        2
 64
     7
 65
   257
 75
     2
175
     1
 42
40.0
 92
        0
 66
   257
 43
1.0
 76
     1
 77
     6
 78
     2
 67
     7
 79
     3
170
     0
171
     0
290
     0
174
     0
 93
        1
 44
0.0
173
     0
291
     0
 45
0.0
1001
ACAD
1000
AcDbSavedByObjectVersion
1070
     0
  0
VISUALSTYLE
  5
3B
102
{ACAD_REACTORS
330
2A
102
}
102
{ACAD_XDICTIONARY
360
4A0
102
}
330
2A
100
AcDbVisualStyle
  2
JitterOff
 70
    20
 71
     2
 72
     2
 73
     0
 90
        0
 40
0.6
 41
30.0
 62
     5
 63
     7
 74
     1
 91
        4
 64
     7
 65
   257
 75
     1
175
     1
 42
1.0
 92
       10
 66
     7
 43
1.0
 76
     1
 77
     6
 78
     2
 67
     7
 79
     5
170
     0
171
     0
290
     0
174
     0
 93
        1
 44
0.0
173
     0
291
     1
 45
0.0
1001
ACAD
1000
AcDbSavedByObjectVersion
1070
     0
  0
VISUALSTYLE
  5
38
102
{ACAD_REACTORS
330
2A
102
}
102
{ACAD_XDICTIONARY
360
49A
102
}
330
2A
100
AcDbVisualStyle
  2
Linepattern
 70
    14
 71
     2
 72
     2
 73
     0
 90
        0
 40
0.6
 41
30.0
 62
     5
 63
     7
 74
     1
 91
        4
 64
     7
 65
   257
 75
     7
175
     7
 42
1.0
 92
        8
 66
     7
 43
1.0
 76
     1
 77
     6
 78
     2
 67
     7
 79
     5
170
     0
171
     0
290
     0
174
     0
 93
        1
 44
0.0
173
     0
291
     1
 45
0.0
1001
ACAD
1000
AcDbSavedByObjectVersion
1070
     0
  0
VISUALSTYLE
  5
3C
102
{ACAD_REACTORS
330
2A
102
}
102
{ACAD_XDICTIONARY
360
4A2
102
}
330
2A
100
AcDbVisualStyle
  2
OverhangOff
 70
    21
 71
     2
 72
     2
 73
     0
 90
        0
 40
0.6
 41
30.0
 62
     5
 63
     7
 74
     1
 91
        4
 64
     7
 65
   257
 75
     1
175
     1
 42
1.0
 92
        9
 66
     7
 43
1.0
 76
     1
 77
     6
 78
     2
 67
     7
 79
     5
170
     0
171
     0
290
     0
174
     0
 93
        1
 44
0.0
173
     0
291
     1
 45
0.0
1001
ACAD
1000
AcDbSavedByObjectVersion
1070
     0
  0
VISUALSTYLE
  5
33
102
{ACAD_REACTORS
330
2A
102
}
102
{ACAD_XDICTIONARY
360
490
102
}
330
2A
100
AcDbVisualStyle
  2
Realistic
 70
     8
 71
     2
 72
     3
 73
     0
 90
        2
 40
0.6
 41
30.0
 62
     5
 63
     7
 74
     0
 91
        0
 64
     7
 65
   257
 75
     1
175
     1
 42
1.0
 92
        8
 66
   257
 43
1.0
 76
     1
 77
     6
 78
     2
 67
     7
 79
     3
170
     0
171
     0
290
     0
174
     0
 93
       13
 44
0.0
173
     0
291
     0
 45
0.0
1001
ACAD
1000
AcDbSavedByObjectVersion
1070
     0
  0
VISUALSTYLE
  5
42
102
{ACAD_REACTORS
330
2A
102
}
102
{ACAD_XDICTIONARY
360
4AE
102
}
330
2A
100
AcDbVisualStyle
  2
Shaded
 70
    27
 71
     2
 72
     2
 73
     1
 90
        2
 40
0.6
 41
30.0
 62
     5
 63
     7
 74
     0
 91
        4
 64
     7
 65
   257
 75
     1
175
     1
 42
1.0
 92
        8
 66
   257
 43
1.0
 76
     1
 77
     6
 78
     2
 67
     8
 79
     3
170
     0
171
     0
290
     0
174
     0
 93
        5
 44
0.0
173
     0
291
     0
 45
0.0
1001
ACAD
1000
AcDbSavedByObjectVersion
1070
     0
  0
VISUALSTYLE
  5
41
102
{ACAD_REACTORS
330
2A
102
}
102
{ACAD_XDICTIONARY
360
4AC
102
}
330
2A
100
AcDbVisualStyle
  2
Shaded with edges
 70
    26
 71
     2
 72
     2
 73
     1
 90
        2
 40
0.6
 41
30.0
 62
     5
 63
     7
 74
     1
 91
       10
 64
     7
 65
   257
 75
     2
175
     1
 42
1.0
 92
        8
 66
   257
 43
1.0
 76
     1
 77
     6
 78
     2
 67
     7
 79
     3
170
     0
171
     0
290
     0
174
     0
 93
        5
 44
0.0
173
     0
291
     0
 45
0.0
1001
ACAD
1000
AcDbSavedByObjectVersion
1070
     0
  0
VISUALSTYLE
  5
3E
102
{ACAD_REACTORS
330
2A
102
}
102
{ACAD_XDICTIONARY
360
4A6
102
}
330
2A
100
AcDbVisualStyle
  2
Shades of Gray
 70
    23
 71
     2
 72
     2
 73
     3
 90
        0
 40
0.6
 41
30.0
 62
     5
 63
     7
 74
     2
 91
        2
 64
     7
 65
     7
 75
     1
175
     1
 42
40.0
 92
        8
 66
     7
 43
1.0
 76
     1
 77
     6
 78
     2
 67
     7
 79
     3
170
     0
171
     0
290
     0
174
     0
 93
        1
 44
0.0
173
     0
291
     0
 45
0.0
1001
ACAD
1000
AcDbSavedByObjectVersion
1070
     0
  0
VISUALSTYLE
  5
3F
102
{ACAD_REACTORS
330
2A
102
}
102
{ACAD_XDICTIONARY
360
4A8
102
}
330
2A
100
AcDbVisualStyle
  2
Sketchy
 70
    24
 71
     1
 72
     2
 73
     2
 90
        0
 40
0.6
 41
30.0
 62
     5
 63
     7
 74
     2
 91
        2
 64
     7
 65
     7
 75
     1
175
     1
 42
40.0
 92
       11
 66
     7
 43
1.0
 76
     1
 77
     6
 78
     2
 67
     7
 79
     6
170
     0
171
     0
290
     0
174
     0
 93
        1
 44
0.0
173
     0
291
     0
 45
0.0
1001
ACAD
1000
AcDbSavedByObjectVersion
1070
     0
  0
VISUALSTYLE
  5
37
102
{ACAD_REACTORS
330
2A
102
}
102
{ACAD_XDICTIONARY
360
498
102
}
330
2A
100
AcDbVisualStyle
  2
Thicken
 70
    13
 71
     2
 72
     2
 73
     0
 90
        0
 40
0.6
 41
30.0
 62
     5
 63
     7
 74
     1
 91
        4
 64
     7
 65
   257
 75
     1
175
     1
 42
1.0
 92
       12
 66
     7
 43
1.0
 76
     1
 77
     6
 78
     2
 67
     7
 79
     5
170
     0
171
     0
290
     0
174
     0
 93
        1
 44
0.0
173
     0
291
     1
 45
0.0
1001
ACAD
1000
AcDbSavedByObjectVersion
1070
     0
  0
VISUALSTYLE
  5
30
102
{ACAD_REACTORS
330
2A
102
}
102
{ACAD_XDICTIONARY
360
48A
102
}
330
2A
100
AcDbVisualStyle
  2
Wireframe
 70
     5
 71
     0
 72
     2
 73
     0
 90
        0
 40
0.6
 41
30.0
 62
     5
 63
     7
 74
     1
 91
        4
 64
     7
 65
   257
 75
     1
175
     1
 42
1.0
 92
        0
 66
   257
 43
1.0
 76
     1
 77
     6
 78
     2
 67
     7
 79
     3
170
     0
171
     0
290
     0
174
     0
 93
        1
 44
0.0
173
     0
291
     0
 45
0.0
1001
ACAD
1000
AcDbSavedByObjectVersion
1070
     0
  0
VISUALSTYLE
  5
40
102
{ACAD_REACTORS
330
2A
102
}
102
{ACAD_XDICTIONARY
360
4AA
102
}
330
2A
100
AcDbVisualStyle
  2
X-Ray
 70
    25
 71
     2
 72
     2
 73
     1
 90
        1
 40
0.5
 41
30.0
 62
     5
 63
     7
 74
     1
 91
        0
 64
     7
 65
   257
 75
     1
175
     1
 42
1.0
 92
        8
 66
     7
 43
1.0
 76
     1
 77
     6
 78
     2
 67
     7
 79
     3
170
     0
171
     0
290
     0
174
     0
 93
       13
 44
0.0
173
     0
291
     0
 45
0.0
1001
ACAD
1000
AcDbSavedByObjectVersion
1070
     0
  0
DICTIONARYVAR
  5
47E
102
{ACAD_REACTORS
330
471
102
}
330
471
100
DictionaryVariables
280
     0
  1
1:1
  0
DICTIONARYVAR
  5
478
102
{ACAD_REACTORS
330
471
102
}
330
471
100
DictionaryVariables
280
     0
  1
2
  0
DICTIONARYVAR
  5
479
102
{ACAD_REACTORS
330
471
102
}
330
471
100
DictionaryVariables
280
     0
  1
1
  0
DICTIONARYVAR
  5
47F
102
{ACAD_REACTORS
330
471
102
}
330
471
100
DictionaryVariables
280
     0
  1
1
  0
DICTIONARYVAR
  5
475
102
{ACAD_REACTORS
330
471
102
}
330
471
100
DictionaryVariables
280
     0
  1
80.000000
  0
DICTIONARYVAR
  5
474
102
{ACAD_REACTORS
330
471
102
}
330
471
100
DictionaryVariables
280
     0
  1
5.000000
  0
DICTIONARY
  5
4B2
330
45
100
AcDbDictionary
280
     1
281
     1
  3
ACAD_XREC_ROUNDTRIP
360
4B3
  0
DICTIONARY
  5
4B0
330
44
100
AcDbDictionary
280
     1
281
     1
  3
ACAD_XREC_ROUNDTRIP
360
4B1
  0
DICTIONARY
  5
4B4
330
46
100
AcDbDictionary
280
     1
281
     1
  3
ACAD_XREC_ROUNDTRIP
360
4B5
  0
DICTIONARY
  5
488
330
2F
100
AcDbDictionary
280
     1
281
     1
  3
ACAD_XREC_ROUNDTRIP
360
489
  0
DICTIONARY
  5
48E
330
32
100
AcDbDictionary
280
     1
281
     1
  3
ACAD_XREC_ROUNDTRIP
360
48F
  0
DICTIONARY
  5
496
330
36
100
AcDbDictionary
280
     1
281
     1
  3
ACAD_XREC_ROUNDTRIP
360
497
  0
DICTIONARY
  5
49E
330
3A
100
AcDbDictionary
280
     1
281
     1
  3
ACAD_XREC_ROUNDTRIP
360
49F
  0
DICTIONARY
  5
492
330
34
100
AcDbDictionary
280
     1
281
     1
  3
ACAD_XREC_ROUNDTRIP
360
493
  0
DICTIONARY
  5
494
330
35
100
AcDbDictionary
280
     1
281
     1
  3
ACAD_XREC_ROUNDTRIP
360
495
  0
DICTIONARY
  5
4A4
330
3D
100
AcDbDictionary
280
     1
281
     1
  3
ACAD_XREC_ROUNDTRIP
360
4A5
  0
DICTIONARY
  5
49C
330
39
100
AcDbDictionary
280
     1
281
     1
  3
ACAD_XREC_ROUNDTRIP
360
49D
  0
DICTIONARY
  5
480
330
2B
100
AcDbDictionary
280
     1
281
     1
  3
ACAD_XREC_ROUNDTRIP
360
481
  0
DICTIONARY
  5
482
330
2C
100
AcDbDictionary
280
     1
281
     1
  3
ACAD_XREC_ROUNDTRIP
360
483
  0
DICTIONARY
  5
484
330
2D
100
AcDbDictionary
280
     1
281
     1
  3
ACAD_XREC_ROUNDTRIP
360
485
  0
DICTIONARY
  5
486
330
2E
100
AcDbDictionary
280
     1
281
     1
  3
ACAD_XREC_ROUNDTRIP
360
487
  0
DICTIONARY
  5
48C
330
31
100
AcDbDictionary
280
     1
281
     1
  3
ACAD_XREC_ROUNDTRIP
360
48D
  0
DICTIONARY
  5
4A0
330
3B
100
AcDbDictionary
280
     1
281
     1
  3
ACAD_XREC_ROUNDTRIP
360
4A1
  0
DICTIONARY
  5
49A
330
38
100
AcDbDictionary
280
     1
281
     1
  3
ACAD_XREC_ROUNDTRIP
360
49B
  0
DICTIONARY
  5
4A2
330
3C
100
AcDbDictionary
280
     1
281
     1
  3
ACAD_XREC_ROUNDTRIP
360
4A3
  0
DICTIONARY
  5
490
330
33
100
AcDbDictionary
280
     1
281
     1
  3
ACAD_XREC_ROUNDTRIP
360
491
  0
DICTIONARY
  5
4AE
330
42
100
AcDbDictionary
280
     1
281
     1
  3
ACAD_XREC_ROUNDTRIP
360
4AF
  0
DICTIONARY
  5
4AC
330
41
100
AcDbDictionary
280
     1
281
     1
  3
ACAD_XREC_ROUNDTRIP
360
4AD
  0
DICTIONARY
  5
4A6
330
3E
100
AcDbDictionary
280
     1
281
     1
  3
ACAD_XREC_ROUNDTRIP
360
4A7
  0
DICTIONARY
  5
4A8
330
3F
100
AcDbDictionary
280
     1
281
     1
  3
ACAD_XREC_ROUNDTRIP
360
4A9
  0
DICTIONARY
  5
498
330
37
100
AcDbDictionary
280
     1
281
     1
  3
ACAD_XREC_ROUNDTRIP
360
499
  0
DICTIONARY
  5
48A
330
30
100
AcDbDictionary
280
     1
281
     1
  3
ACAD_XREC_ROUNDTRIP
360
48B
  0
DICTIONARY
  5
4AA
330
40
100
AcDbDictionary
280
     1
281
     1
  3
ACAD_XREC_ROUNDTRIP
360
4AB
  0
XRECORD
  5
4B3
102
{ACAD_REACTORS
330
4B2
102
}
330
4B2
100
AcDbXrecord
280
     1
102
MATERIAL
148
0.0
149
0.0
149
0.0
 93
        0
 94
      127
282
     0
 72
     1
 77
     1
171
     1
175
     1
179
     1
273
     0
  0
XRECORD
  5
4B1
102
{ACAD_REACTORS
330
4B0
102
}
330
4B0
100
AcDbXrecord
280
     1
102
MATERIAL
148
0.0
149
0.0
149
0.0
 93
        0
 94
      127
282
     0
 72
     1
 77
     1
171
     1
175
     1
179
     1
273
     0
  0
XRECORD
  5
4B5
102
{ACAD_REACTORS
330
4B4
102
}
330
4B4
100
AcDbXrecord
280
     1
102
MATERIAL
148
0.0
149
0.0
149
0.0
 93
        0
 94
      127
282
     0
 72
     1
 77
     1
171
     1
175
     1
179
     1
273
     0
  0
XRECORD
  5
489
102
{ACAD_REACTORS
330
488
102
}
330
488
100
AcDbXrecord
280
     1
102
RTVSPropertyOp0
 70
     1
102
RTVSPropertyOp1
 70
     1
102
RTVSPropertyOp2
 70
     1
102
RTVSPropertyOp3
 70
     1
102
RTVSPropertyOp4
 70
     1
102
RTVSPropertyOp5
 70
     1
102
RTVSPropertyOp6
 70
     1
102
RTVSPropertyOp7
 70
     1
102
RTVSPropertyOp8
 70
     1
102
RTVSPropertyOp9
 70
     1
102
RTVSPropertyOp10
 70
     1
102
RTVSPropertyOp11
 70
     1
102
RTVSPropertyOp12
 70
     1
102
RTVSPropertyOp13
 70
     1
102
RTVSPropertyOp14
 70
     1
102
RTVSPropertyOp15
 70
     1
102
RTVSPropertyOp16
 70
     1
102
RTVSPropertyOp17
 70
     1
102
RTVSPropertyOp18
 70
     1
102
RTVSPropertyOp19
 70
     1
102
RTVSPropertyOp20
 70
     1
102
RTVSPropertyOp21
 70
     1
102
RTVSPropertyOp22
 70
     1
102
RTVSPropertyOp23
 70
     1
102
RTVSPropertyOp24
 70
     1
102
RTVSPropertyOp25
 70
     1
102
RTVSPropertyOp26
 70
     1
102
RTVSPropertyOp27
 70
     1
102
RTVSPropertyOp28
 70
     1
102
RTVSPropertyOp29
 70
     1
102
RTVSPropertyOp30
 70
     1
102
RTVSPropertyOp31
 70
     1
102
RTVSPropertyOp32
 70
     1
102
RTVSPropertyOp33
 70
     1
102
RTVSPropertyOp34
 70
     1
102
RTVSPropertyOp35
 70
     1
102
RTVSPropertyOp36
 70
     1
102
RTVSPropertyOp37
 70
     1
102
RTVSPropertyOp38
 70
     1
102
RTVSPropertyOp39
 70
     1
102
RTVSPropertyOp40
 70
     1
102
RTVSPropertyOp41
 70
     1
102
RTVSPropertyOp42
 70
     1
102
RTVSPropertyOp43
 70
     1
102
RTVSPropertyOp44
 70
     1
102
RTVSPropertyOp45
 70
     1
102
RTVSPropertyOp46
 70
     1
102
RTVSPropertyOp47
 70
     1
102
RTVSPropertyOp48
 70
     1
102
RTVSPropertyOp49
 70
     1
102
RTVSPropertyOp50
 70
     1
102
RTVSPropertyOp51
 70
     0
102
RTVSPropertyOp52
 70
     0
102
RTVSPropertyOp53
 70
     1
102
RTVSPropertyOp54
 70
     1
102
RTVSPropertyOp55
 70
     1
102
RTVSPropertyOp56
 70
     1
102
RTVSPropertyOp57
 70
     1
102
RTVSPost2010Prop28
280
     1
102
RTVSPost2010PropOp28
 70
     1
102
RTVSPost2010Prop29
280
     1
102
RTVSPost2010PropOp29
 70
     1
102
RTVSPost2010Prop30
280
     0
102
RTVSPost2010PropOp30
 70
     1
102
RTVSPost2010Prop31
280
     0
102
RTVSPost2010PropOp31
 70
     1
102
RTVSPost2010Prop32
280
     0
102
RTVSPost2010PropOp32
 70
     1
102
RTVSPost2010Prop33
280
     0
102
RTVSPost2010PropOp33
 70
     1
102
RTVSPost2010Prop34
280
     0
102
RTVSPost2010PropOp34
 70
     1
102
RTVSPost2010Prop35
280
     0
102
RTVSPost2010PropOp35
 70
     1
102
RTVSPost2010Prop36
280
     0
102
RTVSPost2010PropOp36
 70
     1
102
RTVSPost2010Prop37
 90
       50
102
RTVSPost2010PropOp37
 70
     1
102
RTVSPost2010Prop38
140
0.0
102
RTVSPost2010PropOp38
 70
     1
102
RTVSPost2010Prop39
140
1.0
102
RTVSPost2010PropOp39
 70
     1
102
RTVSPost2010Prop40
 90
        0
102
RTVSPost2010PropOp40
 70
     1
102
RTVSPost2010Prop41ColorIndex
 90
       18
102
RTVSPost2010Prop41ColorRGB
 90
        0
102
RTVSPost2010PropOp41
 70
     1
102
RTVSPost2010Prop42
 90
       50
102
RTVSPost2010PropOp42
 70
     1
102
RTVSPost2010Prop43
 90
        3
102
RTVSPost2010PropOp43
 70
     1
102
RTVSPost2010Prop44ColorIndex
 90
        5
102
RTVSPost2010Prop44ColorRGB
 90
      255
102
RTVSPost2010PropOp44
 70
     1
102
RTVSPost2010Prop45
280
     0
102
RTVSPost2010PropOp45
 70
     1
102
RTVSPost2010Prop46
 90
       50
102
RTVSPost2010PropOp46
 70
     1
102
RTVSPost2010Prop47
 90
       50
102
RTVSPost2010PropOp47
 70
     1
102
RTVSPost2010Prop48
 90
       50
102
RTVSPost2010PropOp48
 70
     1
102
RTVSPost2010Prop49
280
     0
102
RTVSPost2010PropOp49
 70
     1
102
RTVSPost2010Prop50
 90
       50
102
RTVSPost2010PropOp50
 70
     1
102
RTVSPost2010Prop51ColorIndex
 90
      256
102
RTVSPost2010Prop51ColorRGB
 90
-16777216
102
RTVSPost2010PropOp51
 70
     0
102
RTVSPost2010Prop52
140
1.0
102
RTVSPost2010PropOp52
 70
     0
102
RTVSPost2010Prop53
 90
        2
102
RTVSPost2010PropOp53
 70
     1
102
RTVSPost2010Prop54
  1
strokes_ogs.tif
102
RTVSPost2010PropOp54
 70
     1
102
RTVSPost2010Prop55
280
     0
102
RTVSPost2010PropOp55
 70
     1
102
RTVSPost2010Prop56
140
1.0
102
RTVSPost2010PropOp56
 70
     1
102
RTVSPost2010Prop57
140
1.0
102
RTVSPost2010PropOp57
 70
     1
  0
XRECORD
  5
48F
102
{ACAD_REACTORS
330
48E
102
}
330
48E
100
AcDbXrecord
280
     1
102
RTVSPropertyOp0
 70
     1
102
RTVSPropertyOp1
 70
     1
102
RTVSPropertyOp2
 70
     1
102
RTVSPropertyOp3
 70
     1
102
RTVSPropertyOp4
 70
     1
102
RTVSPropertyOp5
 70
     1
102
RTVSPropertyOp6
 70
     1
102
RTVSPropertyOp7
 70
     1
102
RTVSPropertyOp8
 70
     1
102
RTVSPropertyOp9
 70
     1
102
RTVSPropertyOp10
 70
     1
102
RTVSPropertyOp11
 70
     1
102
RTVSPropertyOp12
 70
     1
102
RTVSPropertyOp13
 70
     1
102
RTVSPropertyOp14
 70
     1
102
RTVSPropertyOp15
 70
     1
102
RTVSPropertyOp16
 70
     1
102
RTVSPropertyOp17
 70
     1
102
RTVSPropertyOp18
 70
     1
102
RTVSPropertyOp19
 70
     1
102
RTVSPropertyOp20
 70
     1
102
RTVSPropertyOp21
 70
     1
102
RTVSPropertyOp22
 70
     1
102
RTVSPropertyOp23
 70
     1
102
RTVSPropertyOp24
 70
     1
102
RTVSPropertyOp25
 70
     1
102
RTVSPropertyOp26
 70
     1
102
RTVSPropertyOp27
 70
     1
102
RTVSPropertyOp28
 70
     1
102
RTVSPropertyOp29
 70
     1
102
RTVSPropertyOp30
 70
     1
102
RTVSPropertyOp31
 70
     1
102
RTVSPropertyOp32
 70
     1
102
RTVSPropertyOp33
 70
     1
102
RTVSPropertyOp34
 70
     1
102
RTVSPropertyOp35
 70
     1
102
RTVSPropertyOp36
 70
     1
102
RTVSPropertyOp37
 70
     1
102
RTVSPropertyOp38
 70
     1
102
RTVSPropertyOp39
 70
     1
102
RTVSPropertyOp40
 70
     1
102
RTVSPropertyOp41
 70
     1
102
RTVSPropertyOp42
 70
     1
102
RTVSPropertyOp43
 70
     1
102
RTVSPropertyOp44
 70
     1
102
RTVSPropertyOp45
 70
     1
102
RTVSPropertyOp46
 70
     1
102
RTVSPropertyOp47
 70
     1
102
RTVSPropertyOp48
 70
     1
102
RTVSPropertyOp49
 70
     1
102
RTVSPropertyOp50
 70
     1
102
RTVSPropertyOp51
 70
     0
102
RTVSPropertyOp52
 70
     0
102
RTVSPropertyOp53
 70
     1
102
RTVSPropertyOp54
 70
     1
102
RTVSPropertyOp55
 70
     1
102
RTVSPropertyOp56
 70
     1
102
RTVSPropertyOp57
 70
     1
102
RTVSPost2010Prop28
280
     0
102
RTVSPost2010PropOp28
 70
     1
102
RTVSPost2010Prop29
280
     1
102
RTVSPost2010PropOp29
 70
     1
102
RTVSPost2010Prop30
280
     1
102
RTVSPost2010PropOp30
 70
     1
102
RTVSPost2010Prop31
280
     0
102
RTVSPost2010PropOp31
 70
     1
102
RTVSPost2010Prop32
280
     0
102
RTVSPost2010PropOp32
 70
     1
102
RTVSPost2010Prop33
280
     0
102
RTVSPost2010PropOp33
 70
     1
102
RTVSPost2010Prop34
280
     0
102
RTVSPost2010PropOp34
 70
     1
102
RTVSPost2010Prop35
280
     0
102
RTVSPost2010PropOp35
 70
     1
102
RTVSPost2010Prop36
280
     0
102
RTVSPost2010PropOp36
 70
     1
102
RTVSPost2010Prop37
 90
       50
102
RTVSPost2010PropOp37
 70
     1
102
RTVSPost2010Prop38
140
0.0
102
RTVSPost2010PropOp38
 70
     1
102
RTVSPost2010Prop39
140
1.0
102
RTVSPost2010PropOp39
 70
     1
102
RTVSPost2010Prop40
 90
        0
102
RTVSPost2010PropOp40
 70
     1
102
RTVSPost2010Prop41ColorIndex
 90
       18
102
RTVSPost2010Prop41ColorRGB
 90
        0
102
RTVSPost2010PropOp41
 70
     1
102
RTVSPost2010Prop42
 90
       50
102
RTVSPost2010PropOp42
 70
     1
102
RTVSPost2010Prop43
 90
        3
102
RTVSPost2010PropOp43
 70
     1
102
RTVSPost2010Prop44ColorIndex
 90
        5
102
RTVSPost2010Prop44ColorRGB
 90
      255
102
RTVSPost2010PropOp44
 70
     1
102
RTVSPost2010Prop45
280
     0
102
RTVSPost2010PropOp45
 70
     1
102
RTVSPost2010Prop46
 90
       50
102
RTVSPost2010PropOp46
 70
     1
102
RTVSPost2010Prop47
 90
       50
102
RTVSPost2010PropOp47
 70
     1
102
RTVSPost2010Prop48
 90
       50
102
RTVSPost2010PropOp48
 70
     1
102
RTVSPost2010Prop49
280
     0
102
RTVSPost2010PropOp49
 70
     1
102
RTVSPost2010Prop50
 90
       50
102
RTVSPost2010PropOp50
 70
     1
102
RTVSPost2010Prop51ColorIndex
 90
      256
102
RTVSPost2010Prop51ColorRGB
 90
-16777216
102
RTVSPost2010PropOp51
 70
     0
102
RTVSPost2010Prop52
140
1.0
102
RTVSPost2010PropOp52
 70
     0
102
RTVSPost2010Prop53
 90
        2
102
RTVSPost2010PropOp53
 70
     1
102
RTVSPost2010Prop54
  1
strokes_ogs.tif
102
RTVSPost2010PropOp54
 70
     1
102
RTVSPost2010Prop55
280
     0
102
RTVSPost2010PropOp55
 70
     1
102
RTVSPost2010Prop56
140
1.0
102
RTVSPost2010PropOp56
 70
     1
102
RTVSPost2010Prop57
140
1.0
102
RTVSPost2010PropOp57
 70
     1
  0
XRECORD
  5
497
102
{ACAD_REACTORS
330
496
102
}
330
496
100
AcDbXrecord
280
     1
102
RTVSPropertyOp0
 70
     1
102
RTVSPropertyOp1
 70
     1
102
RTVSPropertyOp2
 70
     1
102
RTVSPropertyOp3
 70
     1
102
RTVSPropertyOp4
 70
     1
102
RTVSPropertyOp5
 70
     1
102
RTVSPropertyOp6
 70
     1
102
RTVSPropertyOp7
 70
     1
102
RTVSPropertyOp8
 70
     1
102
RTVSPropertyOp9
 70
     1
102
RTVSPropertyOp10
 70
     1
102
RTVSPropertyOp11
 70
     1
102
RTVSPropertyOp12
 70
     1
102
RTVSPropertyOp13
 70
     1
102
RTVSPropertyOp14
 70
     1
102
RTVSPropertyOp15
 70
     1
102
RTVSPropertyOp16
 70
     1
102
RTVSPropertyOp17
 70
     1
102
RTVSPropertyOp18
 70
     1
102
RTVSPropertyOp19
 70
     1
102
RTVSPropertyOp20
 70
     1
102
RTVSPropertyOp21
 70
     1
102
RTVSPropertyOp22
 70
     1
102
RTVSPropertyOp23
 70
     1
102
RTVSPropertyOp24
 70
     1
102
RTVSPropertyOp25
 70
     1
102
RTVSPropertyOp26
 70
     1
102
RTVSPropertyOp27
 70
     1
102
RTVSPropertyOp28
 70
     1
102
RTVSPropertyOp29
 70
     1
102
RTVSPropertyOp30
 70
     1
102
RTVSPropertyOp31
 70
     1
102
RTVSPropertyOp32
 70
     1
102
RTVSPropertyOp33
 70
     1
102
RTVSPropertyOp34
 70
     1
102
RTVSPropertyOp35
 70
     1
102
RTVSPropertyOp36
 70
     1
102
RTVSPropertyOp37
 70
     1
102
RTVSPropertyOp38
 70
     1
102
RTVSPropertyOp39
 70
     1
102
RTVSPropertyOp40
 70
     1
102
RTVSPropertyOp41
 70
     1
102
RTVSPropertyOp42
 70
     1
102
RTVSPropertyOp43
 70
     1
102
RTVSPropertyOp44
 70
     1
102
RTVSPropertyOp45
 70
     1
102
RTVSPropertyOp46
 70
     1
102
RTVSPropertyOp47
 70
     1
102
RTVSPropertyOp48
 70
     1
102
RTVSPropertyOp49
 70
     1
102
RTVSPropertyOp50
 70
     1
102
RTVSPropertyOp51
 70
     0
102
RTVSPropertyOp52
 70
     0
102
RTVSPropertyOp53
 70
     1
102
RTVSPropertyOp54
 70
     1
102
RTVSPropertyOp55
 70
     1
102
RTVSPropertyOp56
 70
     1
102
RTVSPropertyOp57
 70
     1
102
RTVSPost2010Prop28
280
     0
102
RTVSPost2010PropOp28
 70
     1
102
RTVSPost2010Prop29
280
     1
102
RTVSPost2010PropOp29
 70
     1
102
RTVSPost2010Prop30
280
     1
102
RTVSPost2010PropOp30
 70
     1
102
RTVSPost2010Prop31
280
     0
102
RTVSPost2010PropOp31
 70
     1
102
RTVSPost2010Prop32
280
     0
102
RTVSPost2010PropOp32
 70
     1
102
RTVSPost2010Prop33
280
     0
102
RTVSPost2010PropOp33
 70
     1
102
RTVSPost2010Prop34
280
     0
102
RTVSPost2010PropOp34
 70
     1
102
RTVSPost2010Prop35
280
     0
102
RTVSPost2010PropOp35
 70
     1
102
RTVSPost2010Prop36
280
     0
102
RTVSPost2010PropOp36
 70
     1
102
RTVSPost2010Prop37
 90
       50
102
RTVSPost2010PropOp37
 70
     1
102
RTVSPost2010Prop38
140
0.0
102
RTVSPost2010PropOp38
 70
     1
102
RTVSPost2010Prop39
140
1.0
102
RTVSPost2010PropOp39
 70
     1
102
RTVSPost2010Prop40
 90
        0
102
RTVSPost2010PropOp40
 70
     1
102
RTVSPost2010Prop41ColorIndex
 90
       18
102
RTVSPost2010Prop41ColorRGB
 90
        0
102
RTVSPost2010PropOp41
 70
     1
102
RTVSPost2010Prop42
 90
       50
102
RTVSPost2010PropOp42
 70
     1
102
RTVSPost2010Prop43
 90
        3
102
RTVSPost2010PropOp43
 70
     1
102
RTVSPost2010Prop44ColorIndex
 90
        5
102
RTVSPost2010Prop44ColorRGB
 90
      255
102
RTVSPost2010PropOp44
 70
     1
102
RTVSPost2010Prop45
280
     0
102
RTVSPost2010PropOp45
 70
     1
102
RTVSPost2010Prop46
 90
       50
102
RTVSPost2010PropOp46
 70
     1
102
RTVSPost2010Prop47
 90
       50
102
RTVSPost2010PropOp47
 70
     1
102
RTVSPost2010Prop48
 90
       50
102
RTVSPost2010PropOp48
 70
     1
102
RTVSPost2010Prop49
280
     0
102
RTVSPost2010PropOp49
 70
     1
102
RTVSPost2010Prop50
 90
       50
102
RTVSPost2010PropOp50
 70
     1
102
RTVSPost2010Prop51ColorIndex
 90
      256
102
RTVSPost2010Prop51ColorRGB
 90
-16777216
102
RTVSPost2010PropOp51
 70
     0
102
RTVSPost2010Prop52
140
1.0
102
RTVSPost2010PropOp52
 70
     0
102
RTVSPost2010Prop53
 90
        2
102
RTVSPost2010PropOp53
 70
     1
102
RTVSPost2010Prop54
  1
strokes_ogs.tif
102
RTVSPost2010PropOp54
 70
     1
102
RTVSPost2010Prop55
280
     0
102
RTVSPost2010PropOp55
 70
     1
102
RTVSPost2010Prop56
140
1.0
102
RTVSPost2010PropOp56
 70
     1
102
RTVSPost2010Prop57
140
1.0
102
RTVSPost2010PropOp57
 70
     1
  0
XRECORD
  5
49F
102
{ACAD_REACTORS
330
49E
102
}
330
49E
100
AcDbXrecord
280
     1
102
RTVSPropertyOp0
 70
     1
102
RTVSPropertyOp1
 70
     1
102
RTVSPropertyOp2
 70
     1
102
RTVSPropertyOp3
 70
     1
102
RTVSPropertyOp4
 70
     1
102
RTVSPropertyOp5
 70
     1
102
RTVSPropertyOp6
 70
     1
102
RTVSPropertyOp7
 70
     1
102
RTVSPropertyOp8
 70
     1
102
RTVSPropertyOp9
 70
     1
102
RTVSPropertyOp10
 70
     1
102
RTVSPropertyOp11
 70
     1
102
RTVSPropertyOp12
 70
     1
102
RTVSPropertyOp13
 70
     1
102
RTVSPropertyOp14
 70
     1
102
RTVSPropertyOp15
 70
     1
102
RTVSPropertyOp16
 70
     1
102
RTVSPropertyOp17
 70
     1
102
RTVSPropertyOp18
 70
     1
102
RTVSPropertyOp19
 70
     1
102
RTVSPropertyOp20
 70
     1
102
RTVSPropertyOp21
 70
     1
102
RTVSPropertyOp22
 70
     1
102
RTVSPropertyOp23
 70
     1
102
RTVSPropertyOp24
 70
     1
102
RTVSPropertyOp25
 70
     1
102
RTVSPropertyOp26
 70
     1
102
RTVSPropertyOp27
 70
     1
102
RTVSPropertyOp28
 70
     1
102
RTVSPropertyOp29
 70
     1
102
RTVSPropertyOp30
 70
     1
102
RTVSPropertyOp31
 70
     1
102
RTVSPropertyOp32
 70
     1
102
RTVSPropertyOp33
 70
     1
102
RTVSPropertyOp34
 70
     1
102
RTVSPropertyOp35
 70
     1
102
RTVSPropertyOp36
 70
     1
102
RTVSPropertyOp37
 70
     1
102
RTVSPropertyOp38
 70
     1
102
RTVSPropertyOp39
 70
     1
102
RTVSPropertyOp40
 70
     1
102
RTVSPropertyOp41
 70
     1
102
RTVSPropertyOp42
 70
     1
102
RTVSPropertyOp43
 70
     1
102
RTVSPropertyOp44
 70
     1
102
RTVSPropertyOp45
 70
     1
102
RTVSPropertyOp46
 70
     1
102
RTVSPropertyOp47
 70
     1
102
RTVSPropertyOp48
 70
     1
102
RTVSPropertyOp49
 70
     1
102
RTVSPropertyOp50
 70
     1
102
RTVSPropertyOp51
 70
     0
102
RTVSPropertyOp52
 70
     0
102
RTVSPropertyOp53
 70
     1
102
RTVSPropertyOp54
 70
     1
102
RTVSPropertyOp55
 70
     1
102
RTVSPropertyOp56
 70
     1
102
RTVSPropertyOp57
 70
     1
102
RTVSPost2010Prop28
280
     0
102
RTVSPost2010PropOp28
 70
     1
102
RTVSPost2010Prop29
280
     1
102
RTVSPost2010PropOp29
 70
     1
102
RTVSPost2010Prop30
280
     1
102
RTVSPost2010PropOp30
 70
     1
102
RTVSPost2010Prop31
280
     0
102
RTVSPost2010PropOp31
 70
     1
102
RTVSPost2010Prop32
280
     0
102
RTVSPost2010PropOp32
 70
     1
102
RTVSPost2010Prop33
280
     0
102
RTVSPost2010PropOp33
 70
     1
102
RTVSPost2010Prop34
280
     0
102
RTVSPost2010PropOp34
 70
     1
102
RTVSPost2010Prop35
280
     0
102
RTVSPost2010PropOp35
 70
     1
102
RTVSPost2010Prop36
280
     0
102
RTVSPost2010PropOp36
 70
     1
102
RTVSPost2010Prop37
 90
       50
102
RTVSPost2010PropOp37
 70
     1
102
RTVSPost2010Prop38
140
0.0
102
RTVSPost2010PropOp38
 70
     1
102
RTVSPost2010Prop39
140
1.0
102
RTVSPost2010PropOp39
 70
     1
102
RTVSPost2010Prop40
 90
        0
102
RTVSPost2010PropOp40
 70
     1
102
RTVSPost2010Prop41ColorIndex
 90
       18
102
RTVSPost2010Prop41ColorRGB
 90
        0
102
RTVSPost2010PropOp41
 70
     1
102
RTVSPost2010Prop42
 90
       50
102
RTVSPost2010PropOp42
 70
     1
102
RTVSPost2010Prop43
 90
        3
102
RTVSPost2010PropOp43
 70
     1
102
RTVSPost2010Prop44ColorIndex
 90
        5
102
RTVSPost2010Prop44ColorRGB
 90
      255
102
RTVSPost2010PropOp44
 70
     1
102
RTVSPost2010Prop45
280
     0
102
RTVSPost2010PropOp45
 70
     1
102
RTVSPost2010Prop46
 90
       50
102
RTVSPost2010PropOp46
 70
     1
102
RTVSPost2010Prop47
 90
       50
102
RTVSPost2010PropOp47
 70
     1
102
RTVSPost2010Prop48
 90
       50
102
RTVSPost2010PropOp48
 70
     1
102
RTVSPost2010Prop49
280
     0
102
RTVSPost2010PropOp49
 70
     1
102
RTVSPost2010Prop50
 90
       50
102
RTVSPost2010PropOp50
 70
     1
102
RTVSPost2010Prop51ColorIndex
 90
      256
102
RTVSPost2010Prop51ColorRGB
 90
-16777216
102
RTVSPost2010PropOp51
 70
     0
102
RTVSPost2010Prop52
140
1.0
102
RTVSPost2010PropOp52
 70
     0
102
RTVSPost2010Prop53
 90
        2
102
RTVSPost2010PropOp53
 70
     1
102
RTVSPost2010Prop54
  1
strokes_ogs.tif
102
RTVSPost2010PropOp54
 70
     1
102
RTVSPost2010Prop55
280
     0
102
RTVSPost2010PropOp55
 70
     1
102
RTVSPost2010Prop56
140
1.0
102
RTVSPost2010PropOp56
 70
     1
102
RTVSPost2010Prop57
140
1.0
102
RTVSPost2010PropOp57
 70
     1
  0
XRECORD
  5
493
102
{ACAD_REACTORS
330
492
102
}
330
492
100
AcDbXrecord
280
     1
102
RTVSPropertyOp0
 70
     1
102
RTVSPropertyOp1
 70
     1
102
RTVSPropertyOp2
 70
     1
102
RTVSPropertyOp3
 70
     1
102
RTVSPropertyOp4
 70
     1
102
RTVSPropertyOp5
 70
     1
102
RTVSPropertyOp6
 70
     1
102
RTVSPropertyOp7
 70
     1
102
RTVSPropertyOp8
 70
     1
102
RTVSPropertyOp9
 70
     1
102
RTVSPropertyOp10
 70
     1
102
RTVSPropertyOp11
 70
     1
102
RTVSPropertyOp12
 70
     1
102
RTVSPropertyOp13
 70
     1
102
RTVSPropertyOp14
 70
     1
102
RTVSPropertyOp15
 70
     1
102
RTVSPropertyOp16
 70
     1
102
RTVSPropertyOp17
 70
     1
102
RTVSPropertyOp18
 70
     1
102
RTVSPropertyOp19
 70
     1
102
RTVSPropertyOp20
 70
     1
102
RTVSPropertyOp21
 70
     1
102
RTVSPropertyOp22
 70
     1
102
RTVSPropertyOp23
 70
     1
102
RTVSPropertyOp24
 70
     1
102
RTVSPropertyOp25
 70
     1
102
RTVSPropertyOp26
 70
     1
102
RTVSPropertyOp27
 70
     1
102
RTVSPropertyOp28
 70
     1
102
RTVSPropertyOp29
 70
     1
102
RTVSPropertyOp30
 70
     1
102
RTVSPropertyOp31
 70
     1
102
RTVSPropertyOp32
 70
     1
102
RTVSPropertyOp33
 70
     1
102
RTVSPropertyOp34
 70
     1
102
RTVSPropertyOp35
 70
     1
102
RTVSPropertyOp36
 70
     1
102
RTVSPropertyOp37
 70
     1
102
RTVSPropertyOp38
 70
     1
102
RTVSPropertyOp39
 70
     1
102
RTVSPropertyOp40
 70
     1
102
RTVSPropertyOp41
 70
     1
102
RTVSPropertyOp42
 70
     1
102
RTVSPropertyOp43
 70
     1
102
RTVSPropertyOp44
 70
     1
102
RTVSPropertyOp45
 70
     1
102
RTVSPropertyOp46
 70
     1
102
RTVSPropertyOp47
 70
     1
102
RTVSPropertyOp48
 70
     1
102
RTVSPropertyOp49
 70
     1
102
RTVSPropertyOp50
 70
     1
102
RTVSPropertyOp51
 70
     0
102
RTVSPropertyOp52
 70
     0
102
RTVSPropertyOp53
 70
     1
102
RTVSPropertyOp54
 70
     1
102
RTVSPropertyOp55
 70
     1
102
RTVSPropertyOp56
 70
     1
102
RTVSPropertyOp57
 70
     1
102
RTVSPost2010Prop28
280
     0
102
RTVSPost2010PropOp28
 70
     1
102
RTVSPost2010Prop29
280
     1
102
RTVSPost2010PropOp29
 70
     1
102
RTVSPost2010Prop30
280
     1
102
RTVSPost2010PropOp30
 70
     1
102
RTVSPost2010Prop31
280
     0
102
RTVSPost2010PropOp31
 70
     1
102
RTVSPost2010Prop32
280
     0
102
RTVSPost2010PropOp32
 70
     1
102
RTVSPost2010Prop33
280
     0
102
RTVSPost2010PropOp33
 70
     1
102
RTVSPost2010Prop34
280
     0
102
RTVSPost2010PropOp34
 70
     1
102
RTVSPost2010Prop35
280
     0
102
RTVSPost2010PropOp35
 70
     1
102
RTVSPost2010Prop36
280
     0
102
RTVSPost2010PropOp36
 70
     1
102
RTVSPost2010Prop37
 90
       50
102
RTVSPost2010PropOp37
 70
     1
102
RTVSPost2010Prop38
140
0.0
102
RTVSPost2010PropOp38
 70
     1
102
RTVSPost2010Prop39
140
1.0
102
RTVSPost2010PropOp39
 70
     1
102
RTVSPost2010Prop40
 90
        0
102
RTVSPost2010PropOp40
 70
     1
102
RTVSPost2010Prop41ColorIndex
 90
       18
102
RTVSPost2010Prop41ColorRGB
 90
        0
102
RTVSPost2010PropOp41
 70
     1
102
RTVSPost2010Prop42
 90
       50
102
RTVSPost2010PropOp42
 70
     1
102
RTVSPost2010Prop43
 90
        3
102
RTVSPost2010PropOp43
 70
     1
102
RTVSPost2010Prop44ColorIndex
 90
        5
102
RTVSPost2010Prop44ColorRGB
 90
      255
102
RTVSPost2010PropOp44
 70
     1
102
RTVSPost2010Prop45
280
     0
102
RTVSPost2010PropOp45
 70
     1
102
RTVSPost2010Prop46
 90
       50
102
RTVSPost2010PropOp46
 70
     1
102
RTVSPost2010Prop47
 90
       50
102
RTVSPost2010PropOp47
 70
     1
102
RTVSPost2010Prop48
 90
       50
102
RTVSPost2010PropOp48
 70
     1
102
RTVSPost2010Prop49
280
     0
102
RTVSPost2010PropOp49
 70
     1
102
RTVSPost2010Prop50
 90
       50
102
RTVSPost2010PropOp50
 70
     1
102
RTVSPost2010Prop51ColorIndex
 90
      256
102
RTVSPost2010Prop51ColorRGB
 90
-16777216
102
RTVSPost2010PropOp51
 70
     0
102
RTVSPost2010Prop52
140
1.0
102
RTVSPost2010PropOp52
 70
     0
102
RTVSPost2010Prop53
 90
        2
102
RTVSPost2010PropOp53
 70
     1
102
RTVSPost2010Prop54
  1
strokes_ogs.tif
102
RTVSPost2010PropOp54
 70
     1
102
RTVSPost2010Prop55
280
     0
102
RTVSPost2010PropOp55
 70
     1
102
RTVSPost2010Prop56
140
1.0
102
RTVSPost2010PropOp56
 70
     1
102
RTVSPost2010Prop57
140
1.0
102
RTVSPost2010PropOp57
 70
     1
  0
XRECORD
  5
495
102
{ACAD_REACTORS
330
494
102
}
330
494
100
AcDbXrecord
280
     1
102
RTVSPropertyOp0
 70
     1
102
RTVSPropertyOp1
 70
     1
102
RTVSPropertyOp2
 70
     1
102
RTVSPropertyOp3
 70
     1
102
RTVSPropertyOp4
 70
     1
102
RTVSPropertyOp5
 70
     1
102
RTVSPropertyOp6
 70
     1
102
RTVSPropertyOp7
 70
     1
102
RTVSPropertyOp8
 70
     1
102
RTVSPropertyOp9
 70
     1
102
RTVSPropertyOp10
 70
     1
102
RTVSPropertyOp11
 70
     1
102
RTVSPropertyOp12
 70
     1
102
RTVSPropertyOp13
 70
     1
102
RTVSPropertyOp14
 70
     1
102
RTVSPropertyOp15
 70
     1
102
RTVSPropertyOp16
 70
     1
102
RTVSPropertyOp17
 70
     1
102
RTVSPropertyOp18
 70
     1
102
RTVSPropertyOp19
 70
     1
102
RTVSPropertyOp20
 70
     1
102
RTVSPropertyOp21
 70
     1
102
RTVSPropertyOp22
 70
     1
102
RTVSPropertyOp23
 70
     1
102
RTVSPropertyOp24
 70
     1
102
RTVSPropertyOp25
 70
     1
102
RTVSPropertyOp26
 70
     1
102
RTVSPropertyOp27
 70
     1
102
RTVSPropertyOp28
 70
     1
102
RTVSPropertyOp29
 70
     1
102
RTVSPropertyOp30
 70
     1
102
RTVSPropertyOp31
 70
     1
102
RTVSPropertyOp32
 70
     1
102
RTVSPropertyOp33
 70
     1
102
RTVSPropertyOp34
 70
     1
102
RTVSPropertyOp35
 70
     1
102
RTVSPropertyOp36
 70
     1
102
RTVSPropertyOp37
 70
     1
102
RTVSPropertyOp38
 70
     1
102
RTVSPropertyOp39
 70
     1
102
RTVSPropertyOp40
 70
     1
102
RTVSPropertyOp41
 70
     1
102
RTVSPropertyOp42
 70
     1
102
RTVSPropertyOp43
 70
     1
102
RTVSPropertyOp44
 70
     1
102
RTVSPropertyOp45
 70
     1
102
RTVSPropertyOp46
 70
     1
102
RTVSPropertyOp47
 70
     1
102
RTVSPropertyOp48
 70
     1
102
RTVSPropertyOp49
 70
     1
102
RTVSPropertyOp50
 70
     1
102
RTVSPropertyOp51
 70
     0
102
RTVSPropertyOp52
 70
     0
102
RTVSPropertyOp53
 70
     1
102
RTVSPropertyOp54
 70
     1
102
RTVSPropertyOp55
 70
     1
102
RTVSPropertyOp56
 70
     1
102
RTVSPropertyOp57
 70
     1
102
RTVSPost2010Prop28
280
     0
102
RTVSPost2010PropOp28
 70
     1
102
RTVSPost2010Prop29
280
     1
102
RTVSPost2010PropOp29
 70
     1
102
RTVSPost2010Prop30
280
     1
102
RTVSPost2010PropOp30
 70
     1
102
RTVSPost2010Prop31
280
     0
102
RTVSPost2010PropOp31
 70
     1
102
RTVSPost2010Prop32
280
     0
102
RTVSPost2010PropOp32
 70
     1
102
RTVSPost2010Prop33
280
     0
102
RTVSPost2010PropOp33
 70
     1
102
RTVSPost2010Prop34
280
     0
102
RTVSPost2010PropOp34
 70
     1
102
RTVSPost2010Prop35
280
     0
102
RTVSPost2010PropOp35
 70
     1
102
RTVSPost2010Prop36
280
     0
102
RTVSPost2010PropOp36
 70
     1
102
RTVSPost2010Prop37
 90
       50
102
RTVSPost2010PropOp37
 70
     1
102
RTVSPost2010Prop38
140
0.0
102
RTVSPost2010PropOp38
 70
     1
102
RTVSPost2010Prop39
140
1.0
102
RTVSPost2010PropOp39
 70
     1
102
RTVSPost2010Prop40
 90
        0
102
RTVSPost2010PropOp40
 70
     1
102
RTVSPost2010Prop41ColorIndex
 90
       18
102
RTVSPost2010Prop41ColorRGB
 90
        0
102
RTVSPost2010PropOp41
 70
     1
102
RTVSPost2010Prop42
 90
       50
102
RTVSPost2010PropOp42
 70
     1
102
RTVSPost2010Prop43
 90
        3
102
RTVSPost2010PropOp43
 70
     1
102
RTVSPost2010Prop44ColorIndex
 90
        5
102
RTVSPost2010Prop44ColorRGB
 90
      255
102
RTVSPost2010PropOp44
 70
     1
102
RTVSPost2010Prop45
280
     0
102
RTVSPost2010PropOp45
 70
     1
102
RTVSPost2010Prop46
 90
       50
102
RTVSPost2010PropOp46
 70
     1
102
RTVSPost2010Prop47
 90
       50
102
RTVSPost2010PropOp47
 70
     1
102
RTVSPost2010Prop48
 90
       50
102
RTVSPost2010PropOp48
 70
     1
102
RTVSPost2010Prop49
280
     0
102
RTVSPost2010PropOp49
 70
     1
102
RTVSPost2010Prop50
 90
       50
102
RTVSPost2010PropOp50
 70
     1
102
RTVSPost2010Prop51ColorIndex
 90
      256
102
RTVSPost2010Prop51ColorRGB
 90
-16777216
102
RTVSPost2010PropOp51
 70
     0
102
RTVSPost2010Prop52
140
1.0
102
RTVSPost2010PropOp52
 70
     0
102
RTVSPost2010Prop53
 90
        2
102
RTVSPost2010PropOp53
 70
     1
102
RTVSPost2010Prop54
  1
strokes_ogs.tif
102
RTVSPost2010PropOp54
 70
     1
102
RTVSPost2010Prop55
280
     0
102
RTVSPost2010PropOp55
 70
     1
102
RTVSPost2010Prop56
140
1.0
102
RTVSPost2010PropOp56
 70
     1
102
RTVSPost2010Prop57
140
1.0
102
RTVSPost2010PropOp57
 70
     1
  0
XRECORD
  5
4A5
102
{ACAD_REACTORS
330
4A4
102
}
330
4A4
100
AcDbXrecord
280
     1
102
RTVSPropertyOp0
 70
     0
102
RTVSPropertyOp1
 70
     0
102
RTVSPropertyOp2
 70
     0
102
RTVSPropertyOp3
 70
     0
102
RTVSPropertyOp4
 70
     0
102
RTVSPropertyOp5
 70
     0
102
RTVSPropertyOp6
 70
     0
102
RTVSPropertyOp7
 70
     0
102
RTVSPropertyOp8
 70
     0
102
RTVSPropertyOp9
 70
     0
102
RTVSPropertyOp10
 70
     0
102
RTVSPropertyOp11
 70
     0
102
RTVSPropertyOp12
 70
     0
102
RTVSPropertyOp13
 70
     0
102
RTVSPropertyOp14
 70
     2
102
RTVSPropertyOp15
 70
     0
102
RTVSPropertyOp16
 70
     0
102
RTVSPropertyOp17
 70
     0
102
RTVSPropertyOp18
 70
     0
102
RTVSPropertyOp19
 70
     0
102
RTVSPropertyOp20
 70
     0
102
RTVSPropertyOp21
 70
     0
102
RTVSPropertyOp22
 70
     0
102
RTVSPropertyOp23
 70
     0
102
RTVSPropertyOp24
 70
     0
102
RTVSPropertyOp25
 70
     0
102
RTVSPropertyOp26
 70
     0
102
RTVSPropertyOp27
 70
     0
102
RTVSPropertyOp28
 70
     0
102
RTVSPropertyOp29
 70
     0
102
RTVSPropertyOp30
 70
     0
102
RTVSPropertyOp31
 70
     0
102
RTVSPropertyOp32
 70
     0
102
RTVSPropertyOp33
 70
     0
102
RTVSPropertyOp34
 70
     0
102
RTVSPropertyOp35
 70
     0
102
RTVSPropertyOp36
 70
     0
102
RTVSPropertyOp37
 70
     0
102
RTVSPropertyOp38
 70
     0
102
RTVSPropertyOp39
 70
     0
102
RTVSPropertyOp40
 70
     0
102
RTVSPropertyOp41
 70
     0
102
RTVSPropertyOp42
 70
     0
102
RTVSPropertyOp43
 70
     0
102
RTVSPropertyOp44
 70
     0
102
RTVSPropertyOp45
 70
     0
102
RTVSPropertyOp46
 70
     0
102
RTVSPropertyOp47
 70
     0
102
RTVSPropertyOp48
 70
     0
102
RTVSPropertyOp49
 70
     0
102
RTVSPropertyOp50
 70
     0
102
RTVSPropertyOp51
 70
     0
102
RTVSPropertyOp52
 70
     0
102
RTVSPropertyOp53
 70
     0
102
RTVSPropertyOp54
 70
     0
102
RTVSPropertyOp55
 70
     0
102
RTVSPropertyOp56
 70
     0
102
RTVSPropertyOp57
 70
     0
102
RTVSPost2010Prop28
280
     0
102
RTVSPost2010PropOp28
 70
     0
102
RTVSPost2010Prop29
280
     1
102
RTVSPost2010PropOp29
 70
     0
102
RTVSPost2010Prop30
280
     1
102
RTVSPost2010PropOp30
 70
     0
102
RTVSPost2010Prop31
280
     0
102
RTVSPost2010PropOp31
 70
     0
102
RTVSPost2010Prop32
280
     0
102
RTVSPost2010PropOp32
 70
     0
102
RTVSPost2010Prop33
280
     0
102
RTVSPost2010PropOp33
 70
     0
102
RTVSPost2010Prop34
280
     0
102
RTVSPost2010PropOp34
 70
     0
102
RTVSPost2010Prop35
280
     0
102
RTVSPost2010PropOp35
 70
     0
102
RTVSPost2010Prop36
280
     0
102
RTVSPost2010PropOp36
 70
     0
102
RTVSPost2010Prop37
 90
       50
102
RTVSPost2010PropOp37
 70
     0
102
RTVSPost2010Prop38
140
0.0
102
RTVSPost2010PropOp38
 70
     0
102
RTVSPost2010Prop39
140
1.0
102
RTVSPost2010PropOp39
 70
     0
102
RTVSPost2010Prop40
 90
        0
102
RTVSPost2010PropOp40
 70
     0
102
RTVSPost2010Prop41ColorIndex
 90
       18
102
RTVSPost2010Prop41ColorRGB
 90
        0
102
RTVSPost2010PropOp41
 70
     0
102
RTVSPost2010Prop42
 90
       50
102
RTVSPost2010PropOp42
 70
     0
102
RTVSPost2010Prop43
 90
        3
102
RTVSPost2010PropOp43
 70
     0
102
RTVSPost2010Prop44ColorIndex
 90
        5
102
RTVSPost2010Prop44ColorRGB
 90
      255
102
RTVSPost2010PropOp44
 70
     0
102
RTVSPost2010Prop45
280
     0
102
RTVSPost2010PropOp45
 70
     0
102
RTVSPost2010Prop46
 90
       50
102
RTVSPost2010PropOp46
 70
     0
102
RTVSPost2010Prop47
 90
       50
102
RTVSPost2010PropOp47
 70
     0
102
RTVSPost2010Prop48
 90
       50
102
RTVSPost2010PropOp48
 70
     0
102
RTVSPost2010Prop49
280
     0
102
RTVSPost2010PropOp49
 70
     0
102
RTVSPost2010Prop50
 90
       50
102
RTVSPost2010PropOp50
 70
     0
102
RTVSPost2010Prop51ColorIndex
 90
      256
102
RTVSPost2010Prop51ColorRGB
 90
-16777216
102
RTVSPost2010PropOp51
 70
     0
102
RTVSPost2010Prop52
140
1.0
102
RTVSPost2010PropOp52
 70
     0
102
RTVSPost2010Prop53
 90
        2
102
RTVSPost2010PropOp53
 70
     0
102
RTVSPost2010Prop54
  1
strokes_ogs.tif
102
RTVSPost2010PropOp54
 70
     0
102
RTVSPost2010Prop55
280
     0
102
RTVSPost2010PropOp55
 70
     0
102
RTVSPost2010Prop56
140
1.0
102
RTVSPost2010PropOp56
 70
     0
102
RTVSPost2010Prop57
140
1.0
102
RTVSPost2010PropOp57
 70
     0
  0
XRECORD
  5
49D
102
{ACAD_REACTORS
330
49C
102
}
330
49C
100
AcDbXrecord
280
     1
102
RTVSPropertyOp0
 70
     1
102
RTVSPropertyOp1
 70
     1
102
RTVSPropertyOp2
 70
     1
102
RTVSPropertyOp3
 70
     1
102
RTVSPropertyOp4
 70
     1
102
RTVSPropertyOp5
 70
     1
102
RTVSPropertyOp6
 70
     1
102
RTVSPropertyOp7
 70
     1
102
RTVSPropertyOp8
 70
     1
102
RTVSPropertyOp9
 70
     1
102
RTVSPropertyOp10
 70
     1
102
RTVSPropertyOp11
 70
     1
102
RTVSPropertyOp12
 70
     1
102
RTVSPropertyOp13
 70
     1
102
RTVSPropertyOp14
 70
     1
102
RTVSPropertyOp15
 70
     1
102
RTVSPropertyOp16
 70
     1
102
RTVSPropertyOp17
 70
     1
102
RTVSPropertyOp18
 70
     1
102
RTVSPropertyOp19
 70
     1
102
RTVSPropertyOp20
 70
     1
102
RTVSPropertyOp21
 70
     1
102
RTVSPropertyOp22
 70
     1
102
RTVSPropertyOp23
 70
     1
102
RTVSPropertyOp24
 70
     1
102
RTVSPropertyOp25
 70
     1
102
RTVSPropertyOp26
 70
     1
102
RTVSPropertyOp27
 70
     1
102
RTVSPropertyOp28
 70
     1
102
RTVSPropertyOp29
 70
     1
102
RTVSPropertyOp30
 70
     1
102
RTVSPropertyOp31
 70
     1
102
RTVSPropertyOp32
 70
     1
102
RTVSPropertyOp33
 70
     1
102
RTVSPropertyOp34
 70
     1
102
RTVSPropertyOp35
 70
     1
102
RTVSPropertyOp36
 70
     1
102
RTVSPropertyOp37
 70
     1
102
RTVSPropertyOp38
 70
     1
102
RTVSPropertyOp39
 70
     1
102
RTVSPropertyOp40
 70
     1
102
RTVSPropertyOp41
 70
     1
102
RTVSPropertyOp42
 70
     1
102
RTVSPropertyOp43
 70
     1
102
RTVSPropertyOp44
 70
     1
102
RTVSPropertyOp45
 70
     1
102
RTVSPropertyOp46
 70
     1
102
RTVSPropertyOp47
 70
     1
102
RTVSPropertyOp48
 70
     1
102
RTVSPropertyOp49
 70
     1
102
RTVSPropertyOp50
 70
     1
102
RTVSPropertyOp51
 70
     0
102
RTVSPropertyOp52
 70
     0
102
RTVSPropertyOp53
 70
     1
102
RTVSPropertyOp54
 70
     1
102
RTVSPropertyOp55
 70
     1
102
RTVSPropertyOp56
 70
     1
102
RTVSPropertyOp57
 70
     1
102
RTVSPost2010Prop28
280
     0
102
RTVSPost2010PropOp28
 70
     1
102
RTVSPost2010Prop29
280
     1
102
RTVSPost2010PropOp29
 70
     1
102
RTVSPost2010Prop30
280
     1
102
RTVSPost2010PropOp30
 70
     1
102
RTVSPost2010Prop31
280
     0
102
RTVSPost2010PropOp31
 70
     1
102
RTVSPost2010Prop32
280
     0
102
RTVSPost2010PropOp32
 70
     1
102
RTVSPost2010Prop33
280
     0
102
RTVSPost2010PropOp33
 70
     1
102
RTVSPost2010Prop34
280
     0
102
RTVSPost2010PropOp34
 70
     1
102
RTVSPost2010Prop35
280
     0
102
RTVSPost2010PropOp35
 70
     1
102
RTVSPost2010Prop36
280
     0
102
RTVSPost2010PropOp36
 70
     1
102
RTVSPost2010Prop37
 90
       50
102
RTVSPost2010PropOp37
 70
     1
102
RTVSPost2010Prop38
140
0.0
102
RTVSPost2010PropOp38
 70
     1
102
RTVSPost2010Prop39
140
1.0
102
RTVSPost2010PropOp39
 70
     1
102
RTVSPost2010Prop40
 90
        0
102
RTVSPost2010PropOp40
 70
     1
102
RTVSPost2010Prop41ColorIndex
 90
       18
102
RTVSPost2010Prop41ColorRGB
 90
        0
102
RTVSPost2010PropOp41
 70
     1
102
RTVSPost2010Prop42
 90
       50
102
RTVSPost2010PropOp42
 70
     1
102
RTVSPost2010Prop43
 90
        3
102
RTVSPost2010PropOp43
 70
     1
102
RTVSPost2010Prop44ColorIndex
 90
        5
102
RTVSPost2010Prop44ColorRGB
 90
      255
102
RTVSPost2010PropOp44
 70
     1
102
RTVSPost2010Prop45
280
     0
102
RTVSPost2010PropOp45
 70
     1
102
RTVSPost2010Prop46
 90
       50
102
RTVSPost2010PropOp46
 70
     1
102
RTVSPost2010Prop47
 90
       50
102
RTVSPost2010PropOp47
 70
     1
102
RTVSPost2010Prop48
 90
       50
102
RTVSPost2010PropOp48
 70
     1
102
RTVSPost2010Prop49
280
     0
102
RTVSPost2010PropOp49
 70
     1
102
RTVSPost2010Prop50
 90
       50
102
RTVSPost2010PropOp50
 70
     1
102
RTVSPost2010Prop51ColorIndex
 90
      256
102
RTVSPost2010Prop51ColorRGB
 90
-16777216
102
RTVSPost2010PropOp51
 70
     0
102
RTVSPost2010Prop52
140
1.0
102
RTVSPost2010PropOp52
 70
     0
102
RTVSPost2010Prop53
 90
        2
102
RTVSPost2010PropOp53
 70
     1
102
RTVSPost2010Prop54
  1
strokes_ogs.tif
102
RTVSPost2010PropOp54
 70
     1
102
RTVSPost2010Prop55
280
     0
102
RTVSPost2010PropOp55
 70
     1
102
RTVSPost2010Prop56
140
1.0
102
RTVSPost2010PropOp56
 70
     1
102
RTVSPost2010Prop57
140
1.0
102
RTVSPost2010PropOp57
 70
     1
  0
XRECORD
  5
481
102
{ACAD_REACTORS
330
480
102
}
330
480
100
AcDbXrecord
280
     1
102
RTVSPropertyOp0
 70
     1
102
RTVSPropertyOp1
 70
     1
102
RTVSPropertyOp2
 70
     1
102
RTVSPropertyOp3
 70
     1
102
RTVSPropertyOp4
 70
     1
102
RTVSPropertyOp5
 70
     1
102
RTVSPropertyOp6
 70
     1
102
RTVSPropertyOp7
 70
     1
102
RTVSPropertyOp8
 70
     1
102
RTVSPropertyOp9
 70
     1
102
RTVSPropertyOp10
 70
     1
102
RTVSPropertyOp11
 70
     1
102
RTVSPropertyOp12
 70
     1
102
RTVSPropertyOp13
 70
     1
102
RTVSPropertyOp14
 70
     1
102
RTVSPropertyOp15
 70
     1
102
RTVSPropertyOp16
 70
     1
102
RTVSPropertyOp17
 70
     1
102
RTVSPropertyOp18
 70
     1
102
RTVSPropertyOp19
 70
     1
102
RTVSPropertyOp20
 70
     1
102
RTVSPropertyOp21
 70
     1
102
RTVSPropertyOp22
 70
     1
102
RTVSPropertyOp23
 70
     1
102
RTVSPropertyOp24
 70
     1
102
RTVSPropertyOp25
 70
     1
102
RTVSPropertyOp26
 70
     1
102
RTVSPropertyOp27
 70
     1
102
RTVSPropertyOp28
 70
     1
102
RTVSPropertyOp29
 70
     1
102
RTVSPropertyOp30
 70
     1
102
RTVSPropertyOp31
 70
     1
102
RTVSPropertyOp32
 70
     1
102
RTVSPropertyOp33
 70
     1
102
RTVSPropertyOp34
 70
     1
102
RTVSPropertyOp35
 70
     1
102
RTVSPropertyOp36
 70
     1
102
RTVSPropertyOp37
 70
     1
102
RTVSPropertyOp38
 70
     1
102
RTVSPropertyOp39
 70
     1
102
RTVSPropertyOp40
 70
     1
102
RTVSPropertyOp41
 70
     1
102
RTVSPropertyOp42
 70
     1
102
RTVSPropertyOp43
 70
     1
102
RTVSPropertyOp44
 70
     1
102
RTVSPropertyOp45
 70
     1
102
RTVSPropertyOp46
 70
     1
102
RTVSPropertyOp47
 70
     1
102
RTVSPropertyOp48
 70
     1
102
RTVSPropertyOp49
 70
     1
102
RTVSPropertyOp50
 70
     1
102
RTVSPropertyOp51
 70
     0
102
RTVSPropertyOp52
 70
     0
102
RTVSPropertyOp53
 70
     1
102
RTVSPropertyOp54
 70
     1
102
RTVSPropertyOp55
 70
     1
102
RTVSPropertyOp56
 70
     1
102
RTVSPropertyOp57
 70
     1
102
RTVSPost2010Prop28
280
     0
102
RTVSPost2010PropOp28
 70
     1
102
RTVSPost2010Prop29
280
     1
102
RTVSPost2010PropOp29
 70
     1
102
RTVSPost2010Prop30
280
     1
102
RTVSPost2010PropOp30
 70
     1
102
RTVSPost2010Prop31
280
     0
102
RTVSPost2010PropOp31
 70
     1
102
RTVSPost2010Prop32
280
     0
102
RTVSPost2010PropOp32
 70
     1
102
RTVSPost2010Prop33
280
     0
102
RTVSPost2010PropOp33
 70
     1
102
RTVSPost2010Prop34
280
     0
102
RTVSPost2010PropOp34
 70
     1
102
RTVSPost2010Prop35
280
     0
102
RTVSPost2010PropOp35
 70
     1
102
RTVSPost2010Prop36
280
     0
102
RTVSPost2010PropOp36
 70
     1
102
RTVSPost2010Prop37
 90
       50
102
RTVSPost2010PropOp37
 70
     1
102
RTVSPost2010Prop38
140
0.0
102
RTVSPost2010PropOp38
 70
     1
102
RTVSPost2010Prop39
140
1.0
102
RTVSPost2010PropOp39
 70
     1
102
RTVSPost2010Prop40
 90
        0
102
RTVSPost2010PropOp40
 70
     1
102
RTVSPost2010Prop41ColorIndex
 90
       18
102
RTVSPost2010Prop41ColorRGB
 90
        0
102
RTVSPost2010PropOp41
 70
     1
102
RTVSPost2010Prop42
 90
       50
102
RTVSPost2010PropOp42
 70
     1
102
RTVSPost2010Prop43
 90
        3
102
RTVSPost2010PropOp43
 70
     1
102
RTVSPost2010Prop44ColorIndex
 90
        5
102
RTVSPost2010Prop44ColorRGB
 90
      255
102
RTVSPost2010PropOp44
 70
     1
102
RTVSPost2010Prop45
280
     0
102
RTVSPost2010PropOp45
 70
     1
102
RTVSPost2010Prop46
 90
       50
102
RTVSPost2010PropOp46
 70
     1
102
RTVSPost2010Prop47
 90
       50
102
RTVSPost2010PropOp47
 70
     1
102
RTVSPost2010Prop48
 90
       50
102
RTVSPost2010PropOp48
 70
     1
102
RTVSPost2010Prop49
280
     0
102
RTVSPost2010PropOp49
 70
     1
102
RTVSPost2010Prop50
 90
       50
102
RTVSPost2010PropOp50
 70
     1
102
RTVSPost2010Prop51ColorIndex
 90
      256
102
RTVSPost2010Prop51ColorRGB
 90
-16777216
102
RTVSPost2010PropOp51
 70
     0
102
RTVSPost2010Prop52
140
1.0
102
RTVSPost2010PropOp52
 70
     0
102
RTVSPost2010Prop53
 90
        2
102
RTVSPost2010PropOp53
 70
     1
102
RTVSPost2010Prop54
  1
strokes_ogs.tif
102
RTVSPost2010PropOp54
 70
     1
102
RTVSPost2010Prop55
280
     0
102
RTVSPost2010PropOp55
 70
     1
102
RTVSPost2010Prop56
140
1.0
102
RTVSPost2010PropOp56
 70
     1
102
RTVSPost2010Prop57
140
1.0
102
RTVSPost2010PropOp57
 70
     1
  0
XRECORD
  5
483
102
{ACAD_REACTORS
330
482
102
}
330
482
100
AcDbXrecord
280
     1
102
RTVSPropertyOp0
 70
     1
102
RTVSPropertyOp1
 70
     1
102
RTVSPropertyOp2
 70
     1
102
RTVSPropertyOp3
 70
     1
102
RTVSPropertyOp4
 70
     1
102
RTVSPropertyOp5
 70
     1
102
RTVSPropertyOp6
 70
     1
102
RTVSPropertyOp7
 70
     1
102
RTVSPropertyOp8
 70
     1
102
RTVSPropertyOp9
 70
     1
102
RTVSPropertyOp10
 70
     1
102
RTVSPropertyOp11
 70
     1
102
RTVSPropertyOp12
 70
     1
102
RTVSPropertyOp13
 70
     1
102
RTVSPropertyOp14
 70
     1
102
RTVSPropertyOp15
 70
     1
102
RTVSPropertyOp16
 70
     1
102
RTVSPropertyOp17
 70
     1
102
RTVSPropertyOp18
 70
     1
102
RTVSPropertyOp19
 70
     1
102
RTVSPropertyOp20
 70
     1
102
RTVSPropertyOp21
 70
     1
102
RTVSPropertyOp22
 70
     1
102
RTVSPropertyOp23
 70
     1
102
RTVSPropertyOp24
 70
     1
102
RTVSPropertyOp25
 70
     1
102
RTVSPropertyOp26
 70
     1
102
RTVSPropertyOp27
 70
     1
102
RTVSPropertyOp28
 70
     1
102
RTVSPropertyOp29
 70
     1
102
RTVSPropertyOp30
 70
     1
102
RTVSPropertyOp31
 70
     1
102
RTVSPropertyOp32
 70
     1
102
RTVSPropertyOp33
 70
     1
102
RTVSPropertyOp34
 70
     1
102
RTVSPropertyOp35
 70
     1
102
RTVSPropertyOp36
 70
     1
102
RTVSPropertyOp37
 70
     1
102
RTVSPropertyOp38
 70
     1
102
RTVSPropertyOp39
 70
     1
102
RTVSPropertyOp40
 70
     1
102
RTVSPropertyOp41
 70
     1
102
RTVSPropertyOp42
 70
     1
102
RTVSPropertyOp43
 70
     1
102
RTVSPropertyOp44
 70
     1
102
RTVSPropertyOp45
 70
     1
102
RTVSPropertyOp46
 70
     1
102
RTVSPropertyOp47
 70
     1
102
RTVSPropertyOp48
 70
     1
102
RTVSPropertyOp49
 70
     1
102
RTVSPropertyOp50
 70
     1
102
RTVSPropertyOp51
 70
     0
102
RTVSPropertyOp52
 70
     0
102
RTVSPropertyOp53
 70
     1
102
RTVSPropertyOp54
 70
     1
102
RTVSPropertyOp55
 70
     1
102
RTVSPropertyOp56
 70
     1
102
RTVSPropertyOp57
 70
     1
102
RTVSPost2010Prop28
280
     0
102
RTVSPost2010PropOp28
 70
     1
102
RTVSPost2010Prop29
280
     1
102
RTVSPost2010PropOp29
 70
     1
102
RTVSPost2010Prop30
280
     1
102
RTVSPost2010PropOp30
 70
     1
102
RTVSPost2010Prop31
280
     0
102
RTVSPost2010PropOp31
 70
     1
102
RTVSPost2010Prop32
280
     0
102
RTVSPost2010PropOp32
 70
     1
102
RTVSPost2010Prop33
280
     0
102
RTVSPost2010PropOp33
 70
     1
102
RTVSPost2010Prop34
280
     0
102
RTVSPost2010PropOp34
 70
     1
102
RTVSPost2010Prop35
280
     0
102
RTVSPost2010PropOp35
 70
     1
102
RTVSPost2010Prop36
280
     0
102
RTVSPost2010PropOp36
 70
     1
102
RTVSPost2010Prop37
 90
       50
102
RTVSPost2010PropOp37
 70
     1
102
RTVSPost2010Prop38
140
0.0
102
RTVSPost2010PropOp38
 70
     1
102
RTVSPost2010Prop39
140
1.0
102
RTVSPost2010PropOp39
 70
     1
102
RTVSPost2010Prop40
 90
        0
102
RTVSPost2010PropOp40
 70
     1
102
RTVSPost2010Prop41ColorIndex
 90
       18
102
RTVSPost2010Prop41ColorRGB
 90
        0
102
RTVSPost2010PropOp41
 70
     1
102
RTVSPost2010Prop42
 90
       50
102
RTVSPost2010PropOp42
 70
     1
102
RTVSPost2010Prop43
 90
        3
102
RTVSPost2010PropOp43
 70
     1
102
RTVSPost2010Prop44ColorIndex
 90
        5
102
RTVSPost2010Prop44ColorRGB
 90
      255
102
RTVSPost2010PropOp44
 70
     1
102
RTVSPost2010Prop45
280
     0
102
RTVSPost2010PropOp45
 70
     1
102
RTVSPost2010Prop46
 90
       50
102
RTVSPost2010PropOp46
 70
     1
102
RTVSPost2010Prop47
 90
       50
102
RTVSPost2010PropOp47
 70
     1
102
RTVSPost2010Prop48
 90
       50
102
RTVSPost2010PropOp48
 70
     1
102
RTVSPost2010Prop49
280
     0
102
RTVSPost2010PropOp49
 70
     1
102
RTVSPost2010Prop50
 90
       50
102
RTVSPost2010PropOp50
 70
     1
102
RTVSPost2010Prop51ColorIndex
 90
      256
102
RTVSPost2010Prop51ColorRGB
 90
-16777216
102
RTVSPost2010PropOp51
 70
     0
102
RTVSPost2010Prop52
140
1.0
102
RTVSPost2010PropOp52
 70
     0
102
RTVSPost2010Prop53
 90
        2
102
RTVSPost2010PropOp53
 70
     1
102
RTVSPost2010Prop54
  1
strokes_ogs.tif
102
RTVSPost2010PropOp54
 70
     1
102
RTVSPost2010Prop55
280
     0
102
RTVSPost2010PropOp55
 70
     1
102
RTVSPost2010Prop56
140
1.0
102
RTVSPost2010PropOp56
 70
     1
102
RTVSPost2010Prop57
140
1.0
102
RTVSPost2010PropOp57
 70
     1
  0
XRECORD
  5
485
102
{ACAD_REACTORS
330
484
102
}
330
484
100
AcDbXrecord
280
     1
102
RTVSPropertyOp0
 70
     1
102
RTVSPropertyOp1
 70
     1
102
RTVSPropertyOp2
 70
     1
102
RTVSPropertyOp3
 70
     1
102
RTVSPropertyOp4
 70
     1
102
RTVSPropertyOp5
 70
     1
102
RTVSPropertyOp6
 70
     1
102
RTVSPropertyOp7
 70
     1
102
RTVSPropertyOp8
 70
     1
102
RTVSPropertyOp9
 70
     1
102
RTVSPropertyOp10
 70
     1
102
RTVSPropertyOp11
 70
     1
102
RTVSPropertyOp12
 70
     1
102
RTVSPropertyOp13
 70
     1
102
RTVSPropertyOp14
 70
     1
102
RTVSPropertyOp15
 70
     1
102
RTVSPropertyOp16
 70
     1
102
RTVSPropertyOp17
 70
     1
102
RTVSPropertyOp18
 70
     1
102
RTVSPropertyOp19
 70
     1
102
RTVSPropertyOp20
 70
     1
102
RTVSPropertyOp21
 70
     1
102
RTVSPropertyOp22
 70
     1
102
RTVSPropertyOp23
 70
     1
102
RTVSPropertyOp24
 70
     1
102
RTVSPropertyOp25
 70
     1
102
RTVSPropertyOp26
 70
     1
102
RTVSPropertyOp27
 70
     1
102
RTVSPropertyOp28
 70
     1
102
RTVSPropertyOp29
 70
     1
102
RTVSPropertyOp30
 70
     1
102
RTVSPropertyOp31
 70
     1
102
RTVSPropertyOp32
 70
     1
102
RTVSPropertyOp33
 70
     1
102
RTVSPropertyOp34
 70
     1
102
RTVSPropertyOp35
 70
     1
102
RTVSPropertyOp36
 70
     1
102
RTVSPropertyOp37
 70
     1
102
RTVSPropertyOp38
 70
     1
102
RTVSPropertyOp39
 70
     1
102
RTVSPropertyOp40
 70
     1
102
RTVSPropertyOp41
 70
     1
102
RTVSPropertyOp42
 70
     1
102
RTVSPropertyOp43
 70
     1
102
RTVSPropertyOp44
 70
     1
102
RTVSPropertyOp45
 70
     1
102
RTVSPropertyOp46
 70
     1
102
RTVSPropertyOp47
 70
     1
102
RTVSPropertyOp48
 70
     1
102
RTVSPropertyOp49
 70
     1
102
RTVSPropertyOp50
 70
     1
102
RTVSPropertyOp51
 70
     0
102
RTVSPropertyOp52
 70
     0
102
RTVSPropertyOp53
 70
     1
102
RTVSPropertyOp54
 70
     1
102
RTVSPropertyOp55
 70
     1
102
RTVSPropertyOp56
 70
     1
102
RTVSPropertyOp57
 70
     1
102
RTVSPost2010Prop28
280
     0
102
RTVSPost2010PropOp28
 70
     1
102
RTVSPost2010Prop29
280
     1
102
RTVSPost2010PropOp29
 70
     1
102
RTVSPost2010Prop30
280
     1
102
RTVSPost2010PropOp30
 70
     1
102
RTVSPost2010Prop31
280
     0
102
RTVSPost2010PropOp31
 70
     1
102
RTVSPost2010Prop32
280
     0
102
RTVSPost2010PropOp32
 70
     1
102
RTVSPost2010Prop33
280
     0
102
RTVSPost2010PropOp33
 70
     1
102
RTVSPost2010Prop34
280
     0
102
RTVSPost2010PropOp34
 70
     1
102
RTVSPost2010Prop35
280
     0
102
RTVSPost2010PropOp35
 70
     1
102
RTVSPost2010Prop36
280
     0
102
RTVSPost2010PropOp36
 70
     1
102
RTVSPost2010Prop37
 90
       50
102
RTVSPost2010PropOp37
 70
     1
102
RTVSPost2010Prop38
140
0.0
102
RTVSPost2010PropOp38
 70
     1
102
RTVSPost2010Prop39
140
1.0
102
RTVSPost2010PropOp39
 70
     1
102
RTVSPost2010Prop40
 90
        0
102
RTVSPost2010PropOp40
 70
     1
102
RTVSPost2010Prop41ColorIndex
 90
       18
102
RTVSPost2010Prop41ColorRGB
 90
        0
102
RTVSPost2010PropOp41
 70
     1
102
RTVSPost2010Prop42
 90
       50
102
RTVSPost2010PropOp42
 70
     1
102
RTVSPost2010Prop43
 90
        3
102
RTVSPost2010PropOp43
 70
     1
102
RTVSPost2010Prop44ColorIndex
 90
        5
102
RTVSPost2010Prop44ColorRGB
 90
      255
102
RTVSPost2010PropOp44
 70
     1
102
RTVSPost2010Prop45
280
     0
102
RTVSPost2010PropOp45
 70
     1
102
RTVSPost2010Prop46
 90
       50
102
RTVSPost2010PropOp46
 70
     1
102
RTVSPost2010Prop47
 90
       50
102
RTVSPost2010PropOp47
 70
     1
102
RTVSPost2010Prop48
 90
       50
102
RTVSPost2010PropOp48
 70
     1
102
RTVSPost2010Prop49
280
     0
102
RTVSPost2010PropOp49
 70
     1
102
RTVSPost2010Prop50
 90
       50
102
RTVSPost2010PropOp50
 70
     1
102
RTVSPost2010Prop51ColorIndex
 90
      256
102
RTVSPost2010Prop51ColorRGB
 90
-16777216
102
RTVSPost2010PropOp51
 70
     0
102
RTVSPost2010Prop52
140
1.0
102
RTVSPost2010PropOp52
 70
     0
102
RTVSPost2010Prop53
 90
        2
102
RTVSPost2010PropOp53
 70
     1
102
RTVSPost2010Prop54
  1
strokes_ogs.tif
102
RTVSPost2010PropOp54
 70
     1
102
RTVSPost2010Prop55
280
     0
102
RTVSPost2010PropOp55
 70
     1
102
RTVSPost2010Prop56
140
1.0
102
RTVSPost2010PropOp56
 70
     1
102
RTVSPost2010Prop57
140
1.0
102
RTVSPost2010PropOp57
 70
     1
  0
XRECORD
  5
487
102
{ACAD_REACTORS
330
486
102
}
330
486
100
AcDbXrecord
280
     1
102
RTVSPropertyOp0
 70
     1
102
RTVSPropertyOp1
 70
     1
102
RTVSPropertyOp2
 70
     1
102
RTVSPropertyOp3
 70
     1
102
RTVSPropertyOp4
 70
     1
102
RTVSPropertyOp5
 70
     1
102
RTVSPropertyOp6
 70
     1
102
RTVSPropertyOp7
 70
     1
102
RTVSPropertyOp8
 70
     1
102
RTVSPropertyOp9
 70
     1
102
RTVSPropertyOp10
 70
     1
102
RTVSPropertyOp11
 70
     1
102
RTVSPropertyOp12
 70
     1
102
RTVSPropertyOp13
 70
     1
102
RTVSPropertyOp14
 70
     1
102
RTVSPropertyOp15
 70
     1
102
RTVSPropertyOp16
 70
     1
102
RTVSPropertyOp17
 70
     1
102
RTVSPropertyOp18
 70
     1
102
RTVSPropertyOp19
 70
     1
102
RTVSPropertyOp20
 70
     1
102
RTVSPropertyOp21
 70
     1
102
RTVSPropertyOp22
 70
     1
102
RTVSPropertyOp23
 70
     1
102
RTVSPropertyOp24
 70
     1
102
RTVSPropertyOp25
 70
     1
102
RTVSPropertyOp26
 70
     1
102
RTVSPropertyOp27
 70
     1
102
RTVSPropertyOp28
 70
     1
102
RTVSPropertyOp29
 70
     1
102
RTVSPropertyOp30
 70
     1
102
RTVSPropertyOp31
 70
     1
102
RTVSPropertyOp32
 70
     1
102
RTVSPropertyOp33
 70
     1
102
RTVSPropertyOp34
 70
     1
102
RTVSPropertyOp35
 70
     1
102
RTVSPropertyOp36
 70
     1
102
RTVSPropertyOp37
 70
     1
102
RTVSPropertyOp38
 70
     1
102
RTVSPropertyOp39
 70
     1
102
RTVSPropertyOp40
 70
     1
102
RTVSPropertyOp41
 70
     1
102
RTVSPropertyOp42
 70
     1
102
RTVSPropertyOp43
 70
     1
102
RTVSPropertyOp44
 70
     1
102
RTVSPropertyOp45
 70
     1
102
RTVSPropertyOp46
 70
     1
102
RTVSPropertyOp47
 70
     1
102
RTVSPropertyOp48
 70
     1
102
RTVSPropertyOp49
 70
     1
102
RTVSPropertyOp50
 70
     1
102
RTVSPropertyOp51
 70
     0
102
RTVSPropertyOp52
 70
     0
102
RTVSPropertyOp53
 70
     1
102
RTVSPropertyOp54
 70
     1
102
RTVSPropertyOp55
 70
     1
102
RTVSPropertyOp56
 70
     1
102
RTVSPropertyOp57
 70
     1
102
RTVSPost2010Prop28
280
     0
102
RTVSPost2010PropOp28
 70
     1
102
RTVSPost2010Prop29
280
     1
102
RTVSPost2010PropOp29
 70
     1
102
RTVSPost2010Prop30
280
     1
102
RTVSPost2010PropOp30
 70
     1
102
RTVSPost2010Prop31
280
     0
102
RTVSPost2010PropOp31
 70
     1
102
RTVSPost2010Prop32
280
     0
102
RTVSPost2010PropOp32
 70
     1
102
RTVSPost2010Prop33
280
     0
102
RTVSPost2010PropOp33
 70
     1
102
RTVSPost2010Prop34
280
     0
102
RTVSPost2010PropOp34
 70
     1
102
RTVSPost2010Prop35
280
     0
102
RTVSPost2010PropOp35
 70
     1
102
RTVSPost2010Prop36
280
     0
102
RTVSPost2010PropOp36
 70
     1
102
RTVSPost2010Prop37
 90
       50
102
RTVSPost2010PropOp37
 70
     1
102
RTVSPost2010Prop38
140
0.0
102
RTVSPost2010PropOp38
 70
     1
102
RTVSPost2010Prop39
140
1.0
102
RTVSPost2010PropOp39
 70
     1
102
RTVSPost2010Prop40
 90
        0
102
RTVSPost2010PropOp40
 70
     1
102
RTVSPost2010Prop41ColorIndex
 90
       18
102
RTVSPost2010Prop41ColorRGB
 90
        0
102
RTVSPost2010PropOp41
 70
     1
102
RTVSPost2010Prop42
 90
       50
102
RTVSPost2010PropOp42
 70
     1
102
RTVSPost2010Prop43
 90
        3
102
RTVSPost2010PropOp43
 70
     1
102
RTVSPost2010Prop44ColorIndex
 90
        5
102
RTVSPost2010Prop44ColorRGB
 90
      255
102
RTVSPost2010PropOp44
 70
     1
102
RTVSPost2010Prop45
280
     0
102
RTVSPost2010PropOp45
 70
     1
102
RTVSPost2010Prop46
 90
       50
102
RTVSPost2010PropOp46
 70
     1
102
RTVSPost2010Prop47
 90
       50
102
RTVSPost2010PropOp47
 70
     1
102
RTVSPost2010Prop48
 90
       50
102
RTVSPost2010PropOp48
 70
     1
102
RTVSPost2010Prop49
280
     0
102
RTVSPost2010PropOp49
 70
     1
102
RTVSPost2010Prop50
 90
       50
102
RTVSPost2010PropOp50
 70
     1
102
RTVSPost2010Prop51ColorIndex
 90
      256
102
RTVSPost2010Prop51ColorRGB
 90
-16777216
102
RTVSPost2010PropOp51
 70
     0
102
RTVSPost2010Prop52
140
1.0
102
RTVSPost2010PropOp52
 70
     0
102
RTVSPost2010Prop53
 90
        2
102
RTVSPost2010PropOp53
 70
     1
102
RTVSPost2010Prop54
  1
strokes_ogs.tif
102
RTVSPost2010PropOp54
 70
     1
102
RTVSPost2010Prop55
280
     0
102
RTVSPost2010PropOp55
 70
     1
102
RTVSPost2010Prop56
140
1.0
102
RTVSPost2010PropOp56
 70
     1
102
RTVSPost2010Prop57
140
1.0
102
RTVSPost2010PropOp57
 70
     1
  0
XRECORD
  5
48D
102
{ACAD_REACTORS
330
48C
102
}
330
48C
100
AcDbXrecord
280
     1
102
RTVSPropertyOp0
 70
     1
102
RTVSPropertyOp1
 70
     1
102
RTVSPropertyOp2
 70
     1
102
RTVSPropertyOp3
 70
     1
102
RTVSPropertyOp4
 70
     1
102
RTVSPropertyOp5
 70
     1
102
RTVSPropertyOp6
 70
     1
102
RTVSPropertyOp7
 70
     1
102
RTVSPropertyOp8
 70
     1
102
RTVSPropertyOp9
 70
     1
102
RTVSPropertyOp10
 70
     1
102
RTVSPropertyOp11
 70
     1
102
RTVSPropertyOp12
 70
     1
102
RTVSPropertyOp13
 70
     1
102
RTVSPropertyOp14
 70
     1
102
RTVSPropertyOp15
 70
     1
102
RTVSPropertyOp16
 70
     1
102
RTVSPropertyOp17
 70
     1
102
RTVSPropertyOp18
 70
     1
102
RTVSPropertyOp19
 70
     1
102
RTVSPropertyOp20
 70
     1
102
RTVSPropertyOp21
 70
     1
102
RTVSPropertyOp22
 70
     1
102
RTVSPropertyOp23
 70
     1
102
RTVSPropertyOp24
 70
     1
102
RTVSPropertyOp25
 70
     1
102
RTVSPropertyOp26
 70
     1
102
RTVSPropertyOp27
 70
     1
102
RTVSPropertyOp28
 70
     1
102
RTVSPropertyOp29
 70
     1
102
RTVSPropertyOp30
 70
     1
102
RTVSPropertyOp31
 70
     1
102
RTVSPropertyOp32
 70
     1
102
RTVSPropertyOp33
 70
     1
102
RTVSPropertyOp34
 70
     1
102
RTVSPropertyOp35
 70
     1
102
RTVSPropertyOp36
 70
     1
102
RTVSPropertyOp37
 70
     1
102
RTVSPropertyOp38
 70
     1
102
RTVSPropertyOp39
 70
     1
102
RTVSPropertyOp40
 70
     1
102
RTVSPropertyOp41
 70
     1
102
RTVSPropertyOp42
 70
     1
102
RTVSPropertyOp43
 70
     1
102
RTVSPropertyOp44
 70
     1
102
RTVSPropertyOp45
 70
     1
102
RTVSPropertyOp46
 70
     1
102
RTVSPropertyOp47
 70
     1
102
RTVSPropertyOp48
 70
     1
102
RTVSPropertyOp49
 70
     1
102
RTVSPropertyOp50
 70
     1
102
RTVSPropertyOp51
 70
     0
102
RTVSPropertyOp52
 70
     0
102
RTVSPropertyOp53
 70
     1
102
RTVSPropertyOp54
 70
     1
102
RTVSPropertyOp55
 70
     1
102
RTVSPropertyOp56
 70
     1
102
RTVSPropertyOp57
 70
     1
102
RTVSPost2010Prop28
280
     0
102
RTVSPost2010PropOp28
 70
     1
102
RTVSPost2010Prop29
280
     1
102
RTVSPost2010PropOp29
 70
     1
102
RTVSPost2010Prop30
280
     1
102
RTVSPost2010PropOp30
 70
     1
102
RTVSPost2010Prop31
280
     0
102
RTVSPost2010PropOp31
 70
     1
102
RTVSPost2010Prop32
280
     0
102
RTVSPost2010PropOp32
 70
     1
102
RTVSPost2010Prop33
280
     0
102
RTVSPost2010PropOp33
 70
     1
102
RTVSPost2010Prop34
280
     0
102
RTVSPost2010PropOp34
 70
     1
102
RTVSPost2010Prop35
280
     0
102
RTVSPost2010PropOp35
 70
     1
102
RTVSPost2010Prop36
280
     0
102
RTVSPost2010PropOp36
 70
     1
102
RTVSPost2010Prop37
 90
       50
102
RTVSPost2010PropOp37
 70
     1
102
RTVSPost2010Prop38
140
0.0
102
RTVSPost2010PropOp38
 70
     1
102
RTVSPost2010Prop39
140
1.0
102
RTVSPost2010PropOp39
 70
     1
102
RTVSPost2010Prop40
 90
        0
102
RTVSPost2010PropOp40
 70
     1
102
RTVSPost2010Prop41ColorIndex
 90
       18
102
RTVSPost2010Prop41ColorRGB
 90
        0
102
RTVSPost2010PropOp41
 70
     1
102
RTVSPost2010Prop42
 90
       50
102
RTVSPost2010PropOp42
 70
     1
102
RTVSPost2010Prop43
 90
        3
102
RTVSPost2010PropOp43
 70
     1
102
RTVSPost2010Prop44ColorIndex
 90
        5
102
RTVSPost2010Prop44ColorRGB
 90
      255
102
RTVSPost2010PropOp44
 70
     1
102
RTVSPost2010Prop45
280
     0
102
RTVSPost2010PropOp45
 70
     1
102
RTVSPost2010Prop46
 90
       50
102
RTVSPost2010PropOp46
 70
     1
102
RTVSPost2010Prop47
 90
       50
102
RTVSPost2010PropOp47
 70
     1
102
RTVSPost2010Prop48
 90
       50
102
RTVSPost2010PropOp48
 70
     1
102
RTVSPost2010Prop49
280
     0
102
RTVSPost2010PropOp49
 70
     1
102
RTVSPost2010Prop50
 90
       50
102
RTVSPost2010PropOp50
 70
     1
102
RTVSPost2010Prop51ColorIndex
 90
      256
102
RTVSPost2010Prop51ColorRGB
 90
-16777216
102
RTVSPost2010PropOp51
 70
     0
102
RTVSPost2010Prop52
140
1.0
102
RTVSPost2010PropOp52
 70
     0
102
RTVSPost2010Prop53
 90
        2
102
RTVSPost2010PropOp53
 70
     1
102
RTVSPost2010Prop54
  1
strokes_ogs.tif
102
RTVSPost2010PropOp54
 70
     1
102
RTVSPost2010Prop55
280
     0
102
RTVSPost2010PropOp55
 70
     1
102
RTVSPost2010Prop56
140
1.0
102
RTVSPost2010PropOp56
 70
     1
102
RTVSPost2010Prop57
140
1.0
102
RTVSPost2010PropOp57
 70
     1
  0
XRECORD
  5
4A1
102
{ACAD_REACTORS
330
4A0
102
}
330
4A0
100
AcDbXrecord
280
     1
102
RTVSPropertyOp0
 70
     0
102
RTVSPropertyOp1
 70
     0
102
RTVSPropertyOp2
 70
     0
102
RTVSPropertyOp3
 70
     0
102
RTVSPropertyOp4
 70
     0
102
RTVSPropertyOp5
 70
     0
102
RTVSPropertyOp6
 70
     0
102
RTVSPropertyOp7
 70
     0
102
RTVSPropertyOp8
 70
     0
102
RTVSPropertyOp9
 70
     0
102
RTVSPropertyOp10
 70
     0
102
RTVSPropertyOp11
 70
     0
102
RTVSPropertyOp12
 70
     0
102
RTVSPropertyOp13
 70
     0
102
RTVSPropertyOp14
 70
     2
102
RTVSPropertyOp15
 70
     0
102
RTVSPropertyOp16
 70
     0
102
RTVSPropertyOp17
 70
     0
102
RTVSPropertyOp18
 70
     0
102
RTVSPropertyOp19
 70
     0
102
RTVSPropertyOp20
 70
     0
102
RTVSPropertyOp21
 70
     0
102
RTVSPropertyOp22
 70
     0
102
RTVSPropertyOp23
 70
     0
102
RTVSPropertyOp24
 70
     0
102
RTVSPropertyOp25
 70
     0
102
RTVSPropertyOp26
 70
     0
102
RTVSPropertyOp27
 70
     0
102
RTVSPropertyOp28
 70
     0
102
RTVSPropertyOp29
 70
     0
102
RTVSPropertyOp30
 70
     0
102
RTVSPropertyOp31
 70
     0
102
RTVSPropertyOp32
 70
     0
102
RTVSPropertyOp33
 70
     0
102
RTVSPropertyOp34
 70
     0
102
RTVSPropertyOp35
 70
     0
102
RTVSPropertyOp36
 70
     0
102
RTVSPropertyOp37
 70
     0
102
RTVSPropertyOp38
 70
     0
102
RTVSPropertyOp39
 70
     0
102
RTVSPropertyOp40
 70
     0
102
RTVSPropertyOp41
 70
     0
102
RTVSPropertyOp42
 70
     0
102
RTVSPropertyOp43
 70
     0
102
RTVSPropertyOp44
 70
     0
102
RTVSPropertyOp45
 70
     0
102
RTVSPropertyOp46
 70
     0
102
RTVSPropertyOp47
 70
     0
102
RTVSPropertyOp48
 70
     0
102
RTVSPropertyOp49
 70
     0
102
RTVSPropertyOp50
 70
     0
102
RTVSPropertyOp51
 70
     0
102
RTVSPropertyOp52
 70
     0
102
RTVSPropertyOp53
 70
     0
102
RTVSPropertyOp54
 70
     0
102
RTVSPropertyOp55
 70
     0
102
RTVSPropertyOp56
 70
     0
102
RTVSPropertyOp57
 70
     0
102
RTVSPost2010Prop28
280
     0
102
RTVSPost2010PropOp28
 70
     0
102
RTVSPost2010Prop29
280
     1
102
RTVSPost2010PropOp29
 70
     0
102
RTVSPost2010Prop30
280
     1
102
RTVSPost2010PropOp30
 70
     0
102
RTVSPost2010Prop31
280
     0
102
RTVSPost2010PropOp31
 70
     0
102
RTVSPost2010Prop32
280
     0
102
RTVSPost2010PropOp32
 70
     0
102
RTVSPost2010Prop33
280
     0
102
RTVSPost2010PropOp33
 70
     0
102
RTVSPost2010Prop34
280
     0
102
RTVSPost2010PropOp34
 70
     0
102
RTVSPost2010Prop35
280
     0
102
RTVSPost2010PropOp35
 70
     0
102
RTVSPost2010Prop36
280
     0
102
RTVSPost2010PropOp36
 70
     0
102
RTVSPost2010Prop37
 90
       50
102
RTVSPost2010PropOp37
 70
     0
102
RTVSPost2010Prop38
140
0.0
102
RTVSPost2010PropOp38
 70
     0
102
RTVSPost2010Prop39
140
1.0
102
RTVSPost2010PropOp39
 70
     0
102
RTVSPost2010Prop40
 90
        0
102
RTVSPost2010PropOp40
 70
     0
102
RTVSPost2010Prop41ColorIndex
 90
       18
102
RTVSPost2010Prop41ColorRGB
 90
        0
102
RTVSPost2010PropOp41
 70
     0
102
RTVSPost2010Prop42
 90
       50
102
RTVSPost2010PropOp42
 70
     0
102
RTVSPost2010Prop43
 90
        3
102
RTVSPost2010PropOp43
 70
     0
102
RTVSPost2010Prop44ColorIndex
 90
        5
102
RTVSPost2010Prop44ColorRGB
 90
      255
102
RTVSPost2010PropOp44
 70
     0
102
RTVSPost2010Prop45
280
     0
102
RTVSPost2010PropOp45
 70
     0
102
RTVSPost2010Prop46
 90
       50
102
RTVSPost2010PropOp46
 70
     0
102
RTVSPost2010Prop47
 90
       50
102
RTVSPost2010PropOp47
 70
     0
102
RTVSPost2010Prop48
 90
       50
102
RTVSPost2010PropOp48
 70
     0
102
RTVSPost2010Prop49
280
     0
102
RTVSPost2010PropOp49
 70
     0
102
RTVSPost2010Prop50
 90
       50
102
RTVSPost2010PropOp50
 70
     0
102
RTVSPost2010Prop51ColorIndex
 90
      256
102
RTVSPost2010Prop51ColorRGB
 90
-16777216
102
RTVSPost2010PropOp51
 70
     0
102
RTVSPost2010Prop52
140
1.0
102
RTVSPost2010PropOp52
 70
     0
102
RTVSPost2010Prop53
 90
        2
102
RTVSPost2010PropOp53
 70
     0
102
RTVSPost2010Prop54
  1
strokes_ogs.tif
102
RTVSPost2010PropOp54
 70
     0
102
RTVSPost2010Prop55
280
     0
102
RTVSPost2010PropOp55
 70
     0
102
RTVSPost2010Prop56
140
1.0
102
RTVSPost2010PropOp56
 70
     0
102
RTVSPost2010Prop57
140
1.0
102
RTVSPost2010PropOp57
 70
     0
  0
XRECORD
  5
49B
102
{ACAD_REACTORS
330
49A
102
}
330
49A
100
AcDbXrecord
280
     1
102
RTVSPropertyOp0
 70
     1
102
RTVSPropertyOp1
 70
     1
102
RTVSPropertyOp2
 70
     1
102
RTVSPropertyOp3
 70
     1
102
RTVSPropertyOp4
 70
     1
102
RTVSPropertyOp5
 70
     1
102
RTVSPropertyOp6
 70
     1
102
RTVSPropertyOp7
 70
     1
102
RTVSPropertyOp8
 70
     1
102
RTVSPropertyOp9
 70
     1
102
RTVSPropertyOp10
 70
     1
102
RTVSPropertyOp11
 70
     1
102
RTVSPropertyOp12
 70
     1
102
RTVSPropertyOp13
 70
     1
102
RTVSPropertyOp14
 70
     1
102
RTVSPropertyOp15
 70
     1
102
RTVSPropertyOp16
 70
     1
102
RTVSPropertyOp17
 70
     1
102
RTVSPropertyOp18
 70
     1
102
RTVSPropertyOp19
 70
     1
102
RTVSPropertyOp20
 70
     1
102
RTVSPropertyOp21
 70
     1
102
RTVSPropertyOp22
 70
     1
102
RTVSPropertyOp23
 70
     1
102
RTVSPropertyOp24
 70
     1
102
RTVSPropertyOp25
 70
     1
102
RTVSPropertyOp26
 70
     1
102
RTVSPropertyOp27
 70
     1
102
RTVSPropertyOp28
 70
     1
102
RTVSPropertyOp29
 70
     1
102
RTVSPropertyOp30
 70
     1
102
RTVSPropertyOp31
 70
     1
102
RTVSPropertyOp32
 70
     1
102
RTVSPropertyOp33
 70
     1
102
RTVSPropertyOp34
 70
     1
102
RTVSPropertyOp35
 70
     1
102
RTVSPropertyOp36
 70
     1
102
RTVSPropertyOp37
 70
     1
102
RTVSPropertyOp38
 70
     1
102
RTVSPropertyOp39
 70
     1
102
RTVSPropertyOp40
 70
     1
102
RTVSPropertyOp41
 70
     1
102
RTVSPropertyOp42
 70
     1
102
RTVSPropertyOp43
 70
     1
102
RTVSPropertyOp44
 70
     1
102
RTVSPropertyOp45
 70
     1
102
RTVSPropertyOp46
 70
     1
102
RTVSPropertyOp47
 70
     1
102
RTVSPropertyOp48
 70
     1
102
RTVSPropertyOp49
 70
     1
102
RTVSPropertyOp50
 70
     1
102
RTVSPropertyOp51
 70
     0
102
RTVSPropertyOp52
 70
     0
102
RTVSPropertyOp53
 70
     1
102
RTVSPropertyOp54
 70
     1
102
RTVSPropertyOp55
 70
     1
102
RTVSPropertyOp56
 70
     1
102
RTVSPropertyOp57
 70
     1
102
RTVSPost2010Prop28
280
     0
102
RTVSPost2010PropOp28
 70
     1
102
RTVSPost2010Prop29
280
     1
102
RTVSPost2010PropOp29
 70
     1
102
RTVSPost2010Prop30
280
     1
102
RTVSPost2010PropOp30
 70
     1
102
RTVSPost2010Prop31
280
     0
102
RTVSPost2010PropOp31
 70
     1
102
RTVSPost2010Prop32
280
     0
102
RTVSPost2010PropOp32
 70
     1
102
RTVSPost2010Prop33
280
     0
102
RTVSPost2010PropOp33
 70
     1
102
RTVSPost2010Prop34
280
     0
102
RTVSPost2010PropOp34
 70
     1
102
RTVSPost2010Prop35
280
     0
102
RTVSPost2010PropOp35
 70
     1
102
RTVSPost2010Prop36
280
     0
102
RTVSPost2010PropOp36
 70
     1
102
RTVSPost2010Prop37
 90
       50
102
RTVSPost2010PropOp37
 70
     1
102
RTVSPost2010Prop38
140
0.0
102
RTVSPost2010PropOp38
 70
     1
102
RTVSPost2010Prop39
140
1.0
102
RTVSPost2010PropOp39
 70
     1
102
RTVSPost2010Prop40
 90
        0
102
RTVSPost2010PropOp40
 70
     1
102
RTVSPost2010Prop41ColorIndex
 90
       18
102
RTVSPost2010Prop41ColorRGB
 90
        0
102
RTVSPost2010PropOp41
 70
     1
102
RTVSPost2010Prop42
 90
       50
102
RTVSPost2010PropOp42
 70
     1
102
RTVSPost2010Prop43
 90
        3
102
RTVSPost2010PropOp43
 70
     1
102
RTVSPost2010Prop44ColorIndex
 90
        5
102
RTVSPost2010Prop44ColorRGB
 90
      255
102
RTVSPost2010PropOp44
 70
     1
102
RTVSPost2010Prop45
280
     0
102
RTVSPost2010PropOp45
 70
     1
102
RTVSPost2010Prop46
 90
       50
102
RTVSPost2010PropOp46
 70
     1
102
RTVSPost2010Prop47
 90
       50
102
RTVSPost2010PropOp47
 70
     1
102
RTVSPost2010Prop48
 90
       50
102
RTVSPost2010PropOp48
 70
     1
102
RTVSPost2010Prop49
280
     0
102
RTVSPost2010PropOp49
 70
     1
102
RTVSPost2010Prop50
 90
       50
102
RTVSPost2010PropOp50
 70
     1
102
RTVSPost2010Prop51ColorIndex
 90
      256
102
RTVSPost2010Prop51ColorRGB
 90
-16777216
102
RTVSPost2010PropOp51
 70
     0
102
RTVSPost2010Prop52
140
1.0
102
RTVSPost2010PropOp52
 70
     0
102
RTVSPost2010Prop53
 90
        2
102
RTVSPost2010PropOp53
 70
     1
102
RTVSPost2010Prop54
  1
strokes_ogs.tif
102
RTVSPost2010PropOp54
 70
     1
102
RTVSPost2010Prop55
280
     0
102
RTVSPost2010PropOp55
 70
     1
102
RTVSPost2010Prop56
140
1.0
102
RTVSPost2010PropOp56
 70
     1
102
RTVSPost2010Prop57
140
1.0
102
RTVSPost2010PropOp57
 70
     1
  0
XRECORD
  5
4A3
102
{ACAD_REACTORS
330
4A2
102
}
330
4A2
100
AcDbXrecord
280
     1
102
RTVSPropertyOp0
 70
     0
102
RTVSPropertyOp1
 70
     0
102
RTVSPropertyOp2
 70
     0
102
RTVSPropertyOp3
 70
     0
102
RTVSPropertyOp4
 70
     0
102
RTVSPropertyOp5
 70
     0
102
RTVSPropertyOp6
 70
     0
102
RTVSPropertyOp7
 70
     0
102
RTVSPropertyOp8
 70
     0
102
RTVSPropertyOp9
 70
     0
102
RTVSPropertyOp10
 70
     0
102
RTVSPropertyOp11
 70
     0
102
RTVSPropertyOp12
 70
     0
102
RTVSPropertyOp13
 70
     0
102
RTVSPropertyOp14
 70
     2
102
RTVSPropertyOp15
 70
     0
102
RTVSPropertyOp16
 70
     0
102
RTVSPropertyOp17
 70
     0
102
RTVSPropertyOp18
 70
     0
102
RTVSPropertyOp19
 70
     0
102
RTVSPropertyOp20
 70
     0
102
RTVSPropertyOp21
 70
     0
102
RTVSPropertyOp22
 70
     0
102
RTVSPropertyOp23
 70
     0
102
RTVSPropertyOp24
 70
     0
102
RTVSPropertyOp25
 70
     0
102
RTVSPropertyOp26
 70
     0
102
RTVSPropertyOp27
 70
     0
102
RTVSPropertyOp28
 70
     0
102
RTVSPropertyOp29
 70
     0
102
RTVSPropertyOp30
 70
     0
102
RTVSPropertyOp31
 70
     0
102
RTVSPropertyOp32
 70
     0
102
RTVSPropertyOp33
 70
     0
102
RTVSPropertyOp34
 70
     0
102
RTVSPropertyOp35
 70
     0
102
RTVSPropertyOp36
 70
     0
102
RTVSPropertyOp37
 70
     0
102
RTVSPropertyOp38
 70
     0
102
RTVSPropertyOp39
 70
     0
102
RTVSPropertyOp40
 70
     0
102
RTVSPropertyOp41
 70
     0
102
RTVSPropertyOp42
 70
     0
102
RTVSPropertyOp43
 70
     0
102
RTVSPropertyOp44
 70
     0
102
RTVSPropertyOp45
 70
     0
102
RTVSPropertyOp46
 70
     0
102
RTVSPropertyOp47
 70
     0
102
RTVSPropertyOp48
 70
     0
102
RTVSPropertyOp49
 70
     0
102
RTVSPropertyOp50
 70
     0
102
RTVSPropertyOp51
 70
     0
102
RTVSPropertyOp52
 70
     0
102
RTVSPropertyOp53
 70
     0
102
RTVSPropertyOp54
 70
     0
102
RTVSPropertyOp55
 70
     0
102
RTVSPropertyOp56
 70
     0
102
RTVSPropertyOp57
 70
     0
102
RTVSPost2010Prop28
280
     0
102
RTVSPost2010PropOp28
 70
     0
102
RTVSPost2010Prop29
280
     1
102
RTVSPost2010PropOp29
 70
     0
102
RTVSPost2010Prop30
280
     1
102
RTVSPost2010PropOp30
 70
     0
102
RTVSPost2010Prop31
280
     0
102
RTVSPost2010PropOp31
 70
     0
102
RTVSPost2010Prop32
280
     0
102
RTVSPost2010PropOp32
 70
     0
102
RTVSPost2010Prop33
280
     0
102
RTVSPost2010PropOp33
 70
     0
102
RTVSPost2010Prop34
280
     0
102
RTVSPost2010PropOp34
 70
     0
102
RTVSPost2010Prop35
280
     0
102
RTVSPost2010PropOp35
 70
     0
102
RTVSPost2010Prop36
280
     0
102
RTVSPost2010PropOp36
 70
     0
102
RTVSPost2010Prop37
 90
       50
102
RTVSPost2010PropOp37
 70
     0
102
RTVSPost2010Prop38
140
0.0
102
RTVSPost2010PropOp38
 70
     0
102
RTVSPost2010Prop39
140
1.0
102
RTVSPost2010PropOp39
 70
     0
102
RTVSPost2010Prop40
 90
        0
102
RTVSPost2010PropOp40
 70
     0
102
RTVSPost2010Prop41ColorIndex
 90
       18
102
RTVSPost2010Prop41ColorRGB
 90
        0
102
RTVSPost2010PropOp41
 70
     0
102
RTVSPost2010Prop42
 90
       50
102
RTVSPost2010PropOp42
 70
     0
102
RTVSPost2010Prop43
 90
        3
102
RTVSPost2010PropOp43
 70
     0
102
RTVSPost2010Prop44ColorIndex
 90
        5
102
RTVSPost2010Prop44ColorRGB
 90
      255
102
RTVSPost2010PropOp44
 70
     0
102
RTVSPost2010Prop45
280
     0
102
RTVSPost2010PropOp45
 70
     0
102
RTVSPost2010Prop46
 90
       50
102
RTVSPost2010PropOp46
 70
     0
102
RTVSPost2010Prop47
 90
       50
102
RTVSPost2010PropOp47
 70
     0
102
RTVSPost2010Prop48
 90
       50
102
RTVSPost2010PropOp48
 70
     0
102
RTVSPost2010Prop49
280
     0
102
RTVSPost2010PropOp49
 70
     0
102
RTVSPost2010Prop50
 90
       50
102
RTVSPost2010PropOp50
 70
     0
102
RTVSPost2010Prop51ColorIndex
 90
      256
102
RTVSPost2010Prop51ColorRGB
 90
-16777216
102
RTVSPost2010PropOp51
 70
     0
102
RTVSPost2010Prop52
140
1.0
102
RTVSPost2010PropOp52
 70
     0
102
RTVSPost2010Prop53
 90
        2
102
RTVSPost2010PropOp53
 70
     0
102
RTVSPost2010Prop54
  1
strokes_ogs.tif
102
RTVSPost2010PropOp54
 70
     0
102
RTVSPost2010Prop55
280
     0
102
RTVSPost2010PropOp55
 70
     0
102
RTVSPost2010Prop56
140
1.0
102
RTVSPost2010PropOp56
 70
     0
102
RTVSPost2010Prop57
140
1.0
102
RTVSPost2010PropOp57
 70
     0
  0
XRECORD
  5
491
102
{ACAD_REACTORS
330
490
102
}
330
490
100
AcDbXrecord
280
     1
102
RTVSPropertyOp0
 70
     1
102
RTVSPropertyOp1
 70
     1
102
RTVSPropertyOp2
 70
     1
102
RTVSPropertyOp3
 70
     1
102
RTVSPropertyOp4
 70
     1
102
RTVSPropertyOp5
 70
     1
102
RTVSPropertyOp6
 70
     1
102
RTVSPropertyOp7
 70
     1
102
RTVSPropertyOp8
 70
     1
102
RTVSPropertyOp9
 70
     1
102
RTVSPropertyOp10
 70
     1
102
RTVSPropertyOp11
 70
     1
102
RTVSPropertyOp12
 70
     1
102
RTVSPropertyOp13
 70
     1
102
RTVSPropertyOp14
 70
     1
102
RTVSPropertyOp15
 70
     1
102
RTVSPropertyOp16
 70
     1
102
RTVSPropertyOp17
 70
     1
102
RTVSPropertyOp18
 70
     1
102
RTVSPropertyOp19
 70
     1
102
RTVSPropertyOp20
 70
     1
102
RTVSPropertyOp21
 70
     1
102
RTVSPropertyOp22
 70
     1
102
RTVSPropertyOp23
 70
     1
102
RTVSPropertyOp24
 70
     1
102
RTVSPropertyOp25
 70
     1
102
RTVSPropertyOp26
 70
     1
102
RTVSPropertyOp27
 70
     1
102
RTVSPropertyOp28
 70
     1
102
RTVSPropertyOp29
 70
     1
102
RTVSPropertyOp30
 70
     1
102
RTVSPropertyOp31
 70
     1
102
RTVSPropertyOp32
 70
     1
102
RTVSPropertyOp33
 70
     1
102
RTVSPropertyOp34
 70
     1
102
RTVSPropertyOp35
 70
     1
102
RTVSPropertyOp36
 70
     1
102
RTVSPropertyOp37
 70
     1
102
RTVSPropertyOp38
 70
     1
102
RTVSPropertyOp39
 70
     1
102
RTVSPropertyOp40
 70
     1
102
RTVSPropertyOp41
 70
     1
102
RTVSPropertyOp42
 70
     1
102
RTVSPropertyOp43
 70
     1
102
RTVSPropertyOp44
 70
     1
102
RTVSPropertyOp45
 70
     1
102
RTVSPropertyOp46
 70
     1
102
RTVSPropertyOp47
 70
     1
102
RTVSPropertyOp48
 70
     1
102
RTVSPropertyOp49
 70
     1
102
RTVSPropertyOp50
 70
     1
102
RTVSPropertyOp51
 70
     0
102
RTVSPropertyOp52
 70
     0
102
RTVSPropertyOp53
 70
     1
102
RTVSPropertyOp54
 70
     1
102
RTVSPropertyOp55
 70
     1
102
RTVSPropertyOp56
 70
     1
102
RTVSPropertyOp57
 70
     1
102
RTVSPost2010Prop28
280
     0
102
RTVSPost2010PropOp28
 70
     1
102
RTVSPost2010Prop29
280
     1
102
RTVSPost2010PropOp29
 70
     1
102
RTVSPost2010Prop30
280
     1
102
RTVSPost2010PropOp30
 70
     1
102
RTVSPost2010Prop31
280
     0
102
RTVSPost2010PropOp31
 70
     1
102
RTVSPost2010Prop32
280
     0
102
RTVSPost2010PropOp32
 70
     1
102
RTVSPost2010Prop33
280
     0
102
RTVSPost2010PropOp33
 70
     1
102
RTVSPost2010Prop34
280
     0
102
RTVSPost2010PropOp34
 70
     1
102
RTVSPost2010Prop35
280
     0
102
RTVSPost2010PropOp35
 70
     1
102
RTVSPost2010Prop36
280
     0
102
RTVSPost2010PropOp36
 70
     1
102
RTVSPost2010Prop37
 90
       50
102
RTVSPost2010PropOp37
 70
     1
102
RTVSPost2010Prop38
140
0.0
102
RTVSPost2010PropOp38
 70
     1
102
RTVSPost2010Prop39
140
1.0
102
RTVSPost2010PropOp39
 70
     1
102
RTVSPost2010Prop40
 90
        0
102
RTVSPost2010PropOp40
 70
     1
102
RTVSPost2010Prop41ColorIndex
 90
       18
102
RTVSPost2010Prop41ColorRGB
 90
        0
102
RTVSPost2010PropOp41
 70
     1
102
RTVSPost2010Prop42
 90
       50
102
RTVSPost2010PropOp42
 70
     1
102
RTVSPost2010Prop43
 90
        3
102
RTVSPost2010PropOp43
 70
     1
102
RTVSPost2010Prop44ColorIndex
 90
        5
102
RTVSPost2010Prop44ColorRGB
 90
      255
102
RTVSPost2010PropOp44
 70
     1
102
RTVSPost2010Prop45
280
     0
102
RTVSPost2010PropOp45
 70
     1
102
RTVSPost2010Prop46
 90
       50
102
RTVSPost2010PropOp46
 70
     1
102
RTVSPost2010Prop47
 90
       50
102
RTVSPost2010PropOp47
 70
     1
102
RTVSPost2010Prop48
 90
       50
102
RTVSPost2010PropOp48
 70
     1
102
RTVSPost2010Prop49
280
     0
102
RTVSPost2010PropOp49
 70
     1
102
RTVSPost2010Prop50
 90
       50
102
RTVSPost2010PropOp50
 70
     1
102
RTVSPost2010Prop51ColorIndex
 90
      256
102
RTVSPost2010Prop51ColorRGB
 90
-16777216
102
RTVSPost2010PropOp51
 70
     0
102
RTVSPost2010Prop52
140
1.0
102
RTVSPost2010PropOp52
 70
     0
102
RTVSPost2010Prop53
 90
        2
102
RTVSPost2010PropOp53
 70
     1
102
RTVSPost2010Prop54
  1
strokes_ogs.tif
102
RTVSPost2010PropOp54
 70
     1
102
RTVSPost2010Prop55
280
     0
102
RTVSPost2010PropOp55
 70
     1
102
RTVSPost2010Prop56
140
1.0
102
RTVSPost2010PropOp56
 70
     1
102
RTVSPost2010Prop57
140
1.0
102
RTVSPost2010PropOp57
 70
     1
  0
XRECORD
  5
4AF
102
{ACAD_REACTORS
330
4AE
102
}
330
4AE
100
AcDbXrecord
280
     1
102
RTVSPropertyOp0
 70
     1
102
RTVSPropertyOp1
 70
     1
102
RTVSPropertyOp2
 70
     1
102
RTVSPropertyOp3
 70
     1
102
RTVSPropertyOp4
 70
     1
102
RTVSPropertyOp5
 70
     1
102
RTVSPropertyOp6
 70
     1
102
RTVSPropertyOp7
 70
     1
102
RTVSPropertyOp8
 70
     1
102
RTVSPropertyOp9
 70
     1
102
RTVSPropertyOp10
 70
     1
102
RTVSPropertyOp11
 70
     1
102
RTVSPropertyOp12
 70
     1
102
RTVSPropertyOp13
 70
     1
102
RTVSPropertyOp14
 70
     1
102
RTVSPropertyOp15
 70
     1
102
RTVSPropertyOp16
 70
     1
102
RTVSPropertyOp17
 70
     1
102
RTVSPropertyOp18
 70
     1
102
RTVSPropertyOp19
 70
     1
102
RTVSPropertyOp20
 70
     1
102
RTVSPropertyOp21
 70
     1
102
RTVSPropertyOp22
 70
     1
102
RTVSPropertyOp23
 70
     1
102
RTVSPropertyOp24
 70
     1
102
RTVSPropertyOp25
 70
     1
102
RTVSPropertyOp26
 70
     1
102
RTVSPropertyOp27
 70
     1
102
RTVSPropertyOp28
 70
     1
102
RTVSPropertyOp29
 70
     1
102
RTVSPropertyOp30
 70
     1
102
RTVSPropertyOp31
 70
     1
102
RTVSPropertyOp32
 70
     1
102
RTVSPropertyOp33
 70
     1
102
RTVSPropertyOp34
 70
     1
102
RTVSPropertyOp35
 70
     1
102
RTVSPropertyOp36
 70
     1
102
RTVSPropertyOp37
 70
     1
102
RTVSPropertyOp38
 70
     1
102
RTVSPropertyOp39
 70
     1
102
RTVSPropertyOp40
 70
     1
102
RTVSPropertyOp41
 70
     1
102
RTVSPropertyOp42
 70
     1
102
RTVSPropertyOp43
 70
     1
102
RTVSPropertyOp44
 70
     1
102
RTVSPropertyOp45
 70
     1
102
RTVSPropertyOp46
 70
     1
102
RTVSPropertyOp47
 70
     1
102
RTVSPropertyOp48
 70
     1
102
RTVSPropertyOp49
 70
     1
102
RTVSPropertyOp50
 70
     1
102
RTVSPropertyOp51
 70
     0
102
RTVSPropertyOp52
 70
     0
102
RTVSPropertyOp53
 70
     1
102
RTVSPropertyOp54
 70
     1
102
RTVSPropertyOp55
 70
     1
102
RTVSPropertyOp56
 70
     1
102
RTVSPropertyOp57
 70
     1
102
RTVSPost2010Prop28
280
     0
102
RTVSPost2010PropOp28
 70
     1
102
RTVSPost2010Prop29
280
     1
102
RTVSPost2010PropOp29
 70
     1
102
RTVSPost2010Prop30
280
     1
102
RTVSPost2010PropOp30
 70
     1
102
RTVSPost2010Prop31
280
     0
102
RTVSPost2010PropOp31
 70
     1
102
RTVSPost2010Prop32
280
     0
102
RTVSPost2010PropOp32
 70
     1
102
RTVSPost2010Prop33
280
     0
102
RTVSPost2010PropOp33
 70
     1
102
RTVSPost2010Prop34
280
     0
102
RTVSPost2010PropOp34
 70
     1
102
RTVSPost2010Prop35
280
     0
102
RTVSPost2010PropOp35
 70
     1
102
RTVSPost2010Prop36
280
     0
102
RTVSPost2010PropOp36
 70
     1
102
RTVSPost2010Prop37
 90
       50
102
RTVSPost2010PropOp37
 70
     1
102
RTVSPost2010Prop38
140
0.0
102
RTVSPost2010PropOp38
 70
     1
102
RTVSPost2010Prop39
140
1.0
102
RTVSPost2010PropOp39
 70
     1
102
RTVSPost2010Prop40
 90
        0
102
RTVSPost2010PropOp40
 70
     1
102
RTVSPost2010Prop41ColorIndex
 90
       18
102
RTVSPost2010Prop41ColorRGB
 90
        0
102
RTVSPost2010PropOp41
 70
     1
102
RTVSPost2010Prop42
 90
       50
102
RTVSPost2010PropOp42
 70
     1
102
RTVSPost2010Prop43
 90
        3
102
RTVSPost2010PropOp43
 70
     1
102
RTVSPost2010Prop44ColorIndex
 90
        5
102
RTVSPost2010Prop44ColorRGB
 90
      255
102
RTVSPost2010PropOp44
 70
     1
102
RTVSPost2010Prop45
280
     0
102
RTVSPost2010PropOp45
 70
     1
102
RTVSPost2010Prop46
 90
       50
102
RTVSPost2010PropOp46
 70
     1
102
RTVSPost2010Prop47
 90
       50
102
RTVSPost2010PropOp47
 70
     1
102
RTVSPost2010Prop48
 90
       50
102
RTVSPost2010PropOp48
 70
     1
102
RTVSPost2010Prop49
280
     0
102
RTVSPost2010PropOp49
 70
     1
102
RTVSPost2010Prop50
 90
       50
102
RTVSPost2010PropOp50
 70
     1
102
RTVSPost2010Prop51ColorIndex
 90
      256
102
RTVSPost2010Prop51ColorRGB
 90
-16777216
102
RTVSPost2010PropOp51
 70
     0
102
RTVSPost2010Prop52
140
1.0
102
RTVSPost2010PropOp52
 70
     0
102
RTVSPost2010Prop53
 90
        2
102
RTVSPost2010PropOp53
 70
     1
102
RTVSPost2010Prop54
  1
strokes_ogs.tif
102
RTVSPost2010PropOp54
 70
     1
102
RTVSPost2010Prop55
280
     0
102
RTVSPost2010PropOp55
 70
     1
102
RTVSPost2010Prop56
140
1.0
102
RTVSPost2010PropOp56
 70
     1
102
RTVSPost2010Prop57
140
1.0
102
RTVSPost2010PropOp57
 70
     1
  0
XRECORD
  5
4AD
102
{ACAD_REACTORS
330
4AC
102
}
330
4AC
100
AcDbXrecord
280
     1
102
RTVSPropertyOp0
 70
     1
102
RTVSPropertyOp1
 70
     1
102
RTVSPropertyOp2
 70
     1
102
RTVSPropertyOp3
 70
     1
102
RTVSPropertyOp4
 70
     1
102
RTVSPropertyOp5
 70
     1
102
RTVSPropertyOp6
 70
     1
102
RTVSPropertyOp7
 70
     1
102
RTVSPropertyOp8
 70
     1
102
RTVSPropertyOp9
 70
     1
102
RTVSPropertyOp10
 70
     1
102
RTVSPropertyOp11
 70
     1
102
RTVSPropertyOp12
 70
     1
102
RTVSPropertyOp13
 70
     1
102
RTVSPropertyOp14
 70
     1
102
RTVSPropertyOp15
 70
     1
102
RTVSPropertyOp16
 70
     1
102
RTVSPropertyOp17
 70
     1
102
RTVSPropertyOp18
 70
     1
102
RTVSPropertyOp19
 70
     1
102
RTVSPropertyOp20
 70
     1
102
RTVSPropertyOp21
 70
     1
102
RTVSPropertyOp22
 70
     1
102
RTVSPropertyOp23
 70
     1
102
RTVSPropertyOp24
 70
     1
102
RTVSPropertyOp25
 70
     1
102
RTVSPropertyOp26
 70
     1
102
RTVSPropertyOp27
 70
     1
102
RTVSPropertyOp28
 70
     1
102
RTVSPropertyOp29
 70
     1
102
RTVSPropertyOp30
 70
     1
102
RTVSPropertyOp31
 70
     1
102
RTVSPropertyOp32
 70
     1
102
RTVSPropertyOp33
 70
     1
102
RTVSPropertyOp34
 70
     1
102
RTVSPropertyOp35
 70
     1
102
RTVSPropertyOp36
 70
     1
102
RTVSPropertyOp37
 70
     1
102
RTVSPropertyOp38
 70
     1
102
RTVSPropertyOp39
 70
     1
102
RTVSPropertyOp40
 70
     1
102
RTVSPropertyOp41
 70
     1
102
RTVSPropertyOp42
 70
     1
102
RTVSPropertyOp43
 70
     1
102
RTVSPropertyOp44
 70
     1
102
RTVSPropertyOp45
 70
     1
102
RTVSPropertyOp46
 70
     1
102
RTVSPropertyOp47
 70
     1
102
RTVSPropertyOp48
 70
     1
102
RTVSPropertyOp49
 70
     1
102
RTVSPropertyOp50
 70
     1
102
RTVSPropertyOp51
 70
     0
102
RTVSPropertyOp52
 70
     0
102
RTVSPropertyOp53
 70
     1
102
RTVSPropertyOp54
 70
     1
102
RTVSPropertyOp55
 70
     1
102
RTVSPropertyOp56
 70
     1
102
RTVSPropertyOp57
 70
     1
102
RTVSPost2010Prop28
280
     0
102
RTVSPost2010PropOp28
 70
     1
102
RTVSPost2010Prop29
280
     1
102
RTVSPost2010PropOp29
 70
     1
102
RTVSPost2010Prop30
280
     1
102
RTVSPost2010PropOp30
 70
     1
102
RTVSPost2010Prop31
280
     0
102
RTVSPost2010PropOp31
 70
     1
102
RTVSPost2010Prop32
280
     0
102
RTVSPost2010PropOp32
 70
     1
102
RTVSPost2010Prop33
280
     0
102
RTVSPost2010PropOp33
 70
     1
102
RTVSPost2010Prop34
280
     0
102
RTVSPost2010PropOp34
 70
     1
102
RTVSPost2010Prop35
280
     0
102
RTVSPost2010PropOp35
 70
     1
102
RTVSPost2010Prop36
280
     0
102
RTVSPost2010PropOp36
 70
     1
102
RTVSPost2010Prop37
 90
       50
102
RTVSPost2010PropOp37
 70
     1
102
RTVSPost2010Prop38
140
0.0
102
RTVSPost2010PropOp38
 70
     1
102
RTVSPost2010Prop39
140
1.0
102
RTVSPost2010PropOp39
 70
     1
102
RTVSPost2010Prop40
 90
        0
102
RTVSPost2010PropOp40
 70
     1
102
RTVSPost2010Prop41ColorIndex
 90
       18
102
RTVSPost2010Prop41ColorRGB
 90
        0
102
RTVSPost2010PropOp41
 70
     1
102
RTVSPost2010Prop42
 90
       50
102
RTVSPost2010PropOp42
 70
     1
102
RTVSPost2010Prop43
 90
        3
102
RTVSPost2010PropOp43
 70
     1
102
RTVSPost2010Prop44ColorIndex
 90
        5
102
RTVSPost2010Prop44ColorRGB
 90
      255
102
RTVSPost2010PropOp44
 70
     1
102
RTVSPost2010Prop45
280
     0
102
RTVSPost2010PropOp45
 70
     1
102
RTVSPost2010Prop46
 90
       50
102
RTVSPost2010PropOp46
 70
     1
102
RTVSPost2010Prop47
 90
       50
102
RTVSPost2010PropOp47
 70
     1
102
RTVSPost2010Prop48
 90
       50
102
RTVSPost2010PropOp48
 70
     1
102
RTVSPost2010Prop49
280
     0
102
RTVSPost2010PropOp49
 70
     1
102
RTVSPost2010Prop50
 90
       50
102
RTVSPost2010PropOp50
 70
     1
102
RTVSPost2010Prop51ColorIndex
 90
      256
102
RTVSPost2010Prop51ColorRGB
 90
-16777216
102
RTVSPost2010PropOp51
 70
     0
102
RTVSPost2010Prop52
140
1.0
102
RTVSPost2010PropOp52
 70
     0
102
RTVSPost2010Prop53
 90
        2
102
RTVSPost2010PropOp53
 70
     1
102
RTVSPost2010Prop54
  1
strokes_ogs.tif
102
RTVSPost2010PropOp54
 70
     1
102
RTVSPost2010Prop55
280
     0
102
RTVSPost2010PropOp55
 70
     1
102
RTVSPost2010Prop56
140
1.0
102
RTVSPost2010PropOp56
 70
     1
102
RTVSPost2010Prop57
140
1.0
102
RTVSPost2010PropOp57
 70
     1
  0
XRECORD
  5
4A7
102
{ACAD_REACTORS
330
4A6
102
}
330
4A6
100
AcDbXrecord
280
     1
102
RTVSPropertyOp0
 70
     1
102
RTVSPropertyOp1
 70
     1
102
RTVSPropertyOp2
 70
     1
102
RTVSPropertyOp3
 70
     1
102
RTVSPropertyOp4
 70
     1
102
RTVSPropertyOp5
 70
     1
102
RTVSPropertyOp6
 70
     1
102
RTVSPropertyOp7
 70
     1
102
RTVSPropertyOp8
 70
     1
102
RTVSPropertyOp9
 70
     1
102
RTVSPropertyOp10
 70
     1
102
RTVSPropertyOp11
 70
     1
102
RTVSPropertyOp12
 70
     1
102
RTVSPropertyOp13
 70
     1
102
RTVSPropertyOp14
 70
     1
102
RTVSPropertyOp15
 70
     1
102
RTVSPropertyOp16
 70
     1
102
RTVSPropertyOp17
 70
     1
102
RTVSPropertyOp18
 70
     1
102
RTVSPropertyOp19
 70
     1
102
RTVSPropertyOp20
 70
     1
102
RTVSPropertyOp21
 70
     1
102
RTVSPropertyOp22
 70
     1
102
RTVSPropertyOp23
 70
     1
102
RTVSPropertyOp24
 70
     1
102
RTVSPropertyOp25
 70
     1
102
RTVSPropertyOp26
 70
     1
102
RTVSPropertyOp27
 70
     1
102
RTVSPropertyOp28
 70
     1
102
RTVSPropertyOp29
 70
     1
102
RTVSPropertyOp30
 70
     1
102
RTVSPropertyOp31
 70
     1
102
RTVSPropertyOp32
 70
     1
102
RTVSPropertyOp33
 70
     1
102
RTVSPropertyOp34
 70
     1
102
RTVSPropertyOp35
 70
     1
102
RTVSPropertyOp36
 70
     1
102
RTVSPropertyOp37
 70
     1
102
RTVSPropertyOp38
 70
     1
102
RTVSPropertyOp39
 70
     1
102
RTVSPropertyOp40
 70
     1
102
RTVSPropertyOp41
 70
     1
102
RTVSPropertyOp42
 70
     1
102
RTVSPropertyOp43
 70
     1
102
RTVSPropertyOp44
 70
     1
102
RTVSPropertyOp45
 70
     1
102
RTVSPropertyOp46
 70
     1
102
RTVSPropertyOp47
 70
     1
102
RTVSPropertyOp48
 70
     1
102
RTVSPropertyOp49
 70
     1
102
RTVSPropertyOp50
 70
     1
102
RTVSPropertyOp51
 70
     0
102
RTVSPropertyOp52
 70
     0
102
RTVSPropertyOp53
 70
     1
102
RTVSPropertyOp54
 70
     1
102
RTVSPropertyOp55
 70
     1
102
RTVSPropertyOp56
 70
     1
102
RTVSPropertyOp57
 70
     1
102
RTVSPost2010Prop28
280
     0
102
RTVSPost2010PropOp28
 70
     1
102
RTVSPost2010Prop29
280
     1
102
RTVSPost2010PropOp29
 70
     1
102
RTVSPost2010Prop30
280
     1
102
RTVSPost2010PropOp30
 70
     1
102
RTVSPost2010Prop31
280
     0
102
RTVSPost2010PropOp31
 70
     1
102
RTVSPost2010Prop32
280
     0
102
RTVSPost2010PropOp32
 70
     1
102
RTVSPost2010Prop33
280
     0
102
RTVSPost2010PropOp33
 70
     1
102
RTVSPost2010Prop34
280
     0
102
RTVSPost2010PropOp34
 70
     1
102
RTVSPost2010Prop35
280
     0
102
RTVSPost2010PropOp35
 70
     1
102
RTVSPost2010Prop36
280
     0
102
RTVSPost2010PropOp36
 70
     1
102
RTVSPost2010Prop37
 90
       50
102
RTVSPost2010PropOp37
 70
     1
102
RTVSPost2010Prop38
140
0.0
102
RTVSPost2010PropOp38
 70
     1
102
RTVSPost2010Prop39
140
1.0
102
RTVSPost2010PropOp39
 70
     1
102
RTVSPost2010Prop40
 90
        0
102
RTVSPost2010PropOp40
 70
     1
102
RTVSPost2010Prop41ColorIndex
 90
       18
102
RTVSPost2010Prop41ColorRGB
 90
        0
102
RTVSPost2010PropOp41
 70
     1
102
RTVSPost2010Prop42
 90
       50
102
RTVSPost2010PropOp42
 70
     1
102
RTVSPost2010Prop43
 90
        3
102
RTVSPost2010PropOp43
 70
     1
102
RTVSPost2010Prop44ColorIndex
 90
        5
102
RTVSPost2010Prop44ColorRGB
 90
      255
102
RTVSPost2010PropOp44
 70
     1
102
RTVSPost2010Prop45
280
     0
102
RTVSPost2010PropOp45
 70
     1
102
RTVSPost2010Prop46
 90
       50
102
RTVSPost2010PropOp46
 70
     1
102
RTVSPost2010Prop47
 90
       50
102
RTVSPost2010PropOp47
 70
     1
102
RTVSPost2010Prop48
 90
       50
102
RTVSPost2010PropOp48
 70
     1
102
RTVSPost2010Prop49
280
     0
102
RTVSPost2010PropOp49
 70
     1
102
RTVSPost2010Prop50
 90
       50
102
RTVSPost2010PropOp50
 70
     1
102
RTVSPost2010Prop51ColorIndex
 90
      256
102
RTVSPost2010Prop51ColorRGB
 90
-16777216
102
RTVSPost2010PropOp51
 70
     0
102
RTVSPost2010Prop52
140
1.0
102
RTVSPost2010PropOp52
 70
     0
102
RTVSPost2010Prop53
 90
        2
102
RTVSPost2010PropOp53
 70
     1
102
RTVSPost2010Prop54
  1
strokes_ogs.tif
102
RTVSPost2010PropOp54
 70
     1
102
RTVSPost2010Prop55
280
     0
102
RTVSPost2010PropOp55
 70
     1
102
RTVSPost2010Prop56
140
1.0
102
RTVSPost2010PropOp56
 70
     1
102
RTVSPost2010Prop57
140
1.0
102
RTVSPost2010PropOp57
 70
     1
  0
XRECORD
  5
4A9
102
{ACAD_REACTORS
330
4A8
102
}
330
4A8
100
AcDbXrecord
280
     1
102
RTVSPropertyOp0
 70
     1
102
RTVSPropertyOp1
 70
     1
102
RTVSPropertyOp2
 70
     1
102
RTVSPropertyOp3
 70
     1
102
RTVSPropertyOp4
 70
     1
102
RTVSPropertyOp5
 70
     1
102
RTVSPropertyOp6
 70
     1
102
RTVSPropertyOp7
 70
     1
102
RTVSPropertyOp8
 70
     1
102
RTVSPropertyOp9
 70
     1
102
RTVSPropertyOp10
 70
     1
102
RTVSPropertyOp11
 70
     1
102
RTVSPropertyOp12
 70
     1
102
RTVSPropertyOp13
 70
     1
102
RTVSPropertyOp14
 70
     1
102
RTVSPropertyOp15
 70
     1
102
RTVSPropertyOp16
 70
     1
102
RTVSPropertyOp17
 70
     1
102
RTVSPropertyOp18
 70
     1
102
RTVSPropertyOp19
 70
     1
102
RTVSPropertyOp20
 70
     1
102
RTVSPropertyOp21
 70
     1
102
RTVSPropertyOp22
 70
     1
102
RTVSPropertyOp23
 70
     1
102
RTVSPropertyOp24
 70
     1
102
RTVSPropertyOp25
 70
     1
102
RTVSPropertyOp26
 70
     1
102
RTVSPropertyOp27
 70
     1
102
RTVSPropertyOp28
 70
     1
102
RTVSPropertyOp29
 70
     1
102
RTVSPropertyOp30
 70
     1
102
RTVSPropertyOp31
 70
     1
102
RTVSPropertyOp32
 70
     1
102
RTVSPropertyOp33
 70
     1
102
RTVSPropertyOp34
 70
     1
102
RTVSPropertyOp35
 70
     1
102
RTVSPropertyOp36
 70
     1
102
RTVSPropertyOp37
 70
     1
102
RTVSPropertyOp38
 70
     1
102
RTVSPropertyOp39
 70
     1
102
RTVSPropertyOp40
 70
     1
102
RTVSPropertyOp41
 70
     1
102
RTVSPropertyOp42
 70
     1
102
RTVSPropertyOp43
 70
     1
102
RTVSPropertyOp44
 70
     1
102
RTVSPropertyOp45
 70
     1
102
RTVSPropertyOp46
 70
     1
102
RTVSPropertyOp47
 70
     1
102
RTVSPropertyOp48
 70
     1
102
RTVSPropertyOp49
 70
     1
102
RTVSPropertyOp50
 70
     1
102
RTVSPropertyOp51
 70
     0
102
RTVSPropertyOp52
 70
     0
102
RTVSPropertyOp53
 70
     1
102
RTVSPropertyOp54
 70
     1
102
RTVSPropertyOp55
 70
     1
102
RTVSPropertyOp56
 70
     1
102
RTVSPropertyOp57
 70
     1
102
RTVSPost2010Prop28
280
     0
102
RTVSPost2010PropOp28
 70
     1
102
RTVSPost2010Prop29
280
     1
102
RTVSPost2010PropOp29
 70
     1
102
RTVSPost2010Prop30
280
     1
102
RTVSPost2010PropOp30
 70
     1
102
RTVSPost2010Prop31
280
     0
102
RTVSPost2010PropOp31
 70
     1
102
RTVSPost2010Prop32
280
     0
102
RTVSPost2010PropOp32
 70
     1
102
RTVSPost2010Prop33
280
     0
102
RTVSPost2010PropOp33
 70
     1
102
RTVSPost2010Prop34
280
     0
102
RTVSPost2010PropOp34
 70
     1
102
RTVSPost2010Prop35
280
     0
102
RTVSPost2010PropOp35
 70
     1
102
RTVSPost2010Prop36
280
     0
102
RTVSPost2010PropOp36
 70
     1
102
RTVSPost2010Prop37
 90
       50
102
RTVSPost2010PropOp37
 70
     1
102
RTVSPost2010Prop38
140
0.0
102
RTVSPost2010PropOp38
 70
     1
102
RTVSPost2010Prop39
140
1.0
102
RTVSPost2010PropOp39
 70
     1
102
RTVSPost2010Prop40
 90
        0
102
RTVSPost2010PropOp40
 70
     1
102
RTVSPost2010Prop41ColorIndex
 90
       18
102
RTVSPost2010Prop41ColorRGB
 90
        0
102
RTVSPost2010PropOp41
 70
     1
102
RTVSPost2010Prop42
 90
       50
102
RTVSPost2010PropOp42
 70
     1
102
RTVSPost2010Prop43
 90
        3
102
RTVSPost2010PropOp43
 70
     1
102
RTVSPost2010Prop44ColorIndex
 90
        5
102
RTVSPost2010Prop44ColorRGB
 90
      255
102
RTVSPost2010PropOp44
 70
     1
102
RTVSPost2010Prop45
280
     0
102
RTVSPost2010PropOp45
 70
     1
102
RTVSPost2010Prop46
 90
       50
102
RTVSPost2010PropOp46
 70
     1
102
RTVSPost2010Prop47
 90
       50
102
RTVSPost2010PropOp47
 70
     1
102
RTVSPost2010Prop48
 90
       50
102
RTVSPost2010PropOp48
 70
     1
102
RTVSPost2010Prop49
280
     0
102
RTVSPost2010PropOp49
 70
     1
102
RTVSPost2010Prop50
 90
       50
102
RTVSPost2010PropOp50
 70
     1
102
RTVSPost2010Prop51ColorIndex
 90
      256
102
RTVSPost2010Prop51ColorRGB
 90
-16777216
102
RTVSPost2010PropOp51
 70
     0
102
RTVSPost2010Prop52
140
1.0
102
RTVSPost2010PropOp52
 70
     0
102
RTVSPost2010Prop53
 90
        2
102
RTVSPost2010PropOp53
 70
     1
102
RTVSPost2010Prop54
  1
strokes_ogs.tif
102
RTVSPost2010PropOp54
 70
     1
102
RTVSPost2010Prop55
280
     0
102
RTVSPost2010PropOp55
 70
     1
102
RTVSPost2010Prop56
140
1.0
102
RTVSPost2010PropOp56
 70
     1
102
RTVSPost2010Prop57
140
1.0
102
RTVSPost2010PropOp57
 70
     1
  0
XRECORD
  5
499
102
{ACAD_REACTORS
330
498
102
}
330
498
100
AcDbXrecord
280
     1
102
RTVSPropertyOp0
 70
     1
102
RTVSPropertyOp1
 70
     1
102
RTVSPropertyOp2
 70
     1
102
RTVSPropertyOp3
 70
     1
102
RTVSPropertyOp4
 70
     1
102
RTVSPropertyOp5
 70
     1
102
RTVSPropertyOp6
 70
     1
102
RTVSPropertyOp7
 70
     1
102
RTVSPropertyOp8
 70
     1
102
RTVSPropertyOp9
 70
     1
102
RTVSPropertyOp10
 70
     1
102
RTVSPropertyOp11
 70
     1
102
RTVSPropertyOp12
 70
     1
102
RTVSPropertyOp13
 70
     1
102
RTVSPropertyOp14
 70
     1
102
RTVSPropertyOp15
 70
     1
102
RTVSPropertyOp16
 70
     1
102
RTVSPropertyOp17
 70
     1
102
RTVSPropertyOp18
 70
     1
102
RTVSPropertyOp19
 70
     1
102
RTVSPropertyOp20
 70
     1
102
RTVSPropertyOp21
 70
     1
102
RTVSPropertyOp22
 70
     1
102
RTVSPropertyOp23
 70
     1
102
RTVSPropertyOp24
 70
     1
102
RTVSPropertyOp25
 70
     1
102
RTVSPropertyOp26
 70
     1
102
RTVSPropertyOp27
 70
     1
102
RTVSPropertyOp28
 70
     1
102
RTVSPropertyOp29
 70
     1
102
RTVSPropertyOp30
 70
     1
102
RTVSPropertyOp31
 70
     1
102
RTVSPropertyOp32
 70
     1
102
RTVSPropertyOp33
 70
     1
102
RTVSPropertyOp34
 70
     1
102
RTVSPropertyOp35
 70
     1
102
RTVSPropertyOp36
 70
     1
102
RTVSPropertyOp37
 70
     1
102
RTVSPropertyOp38
 70
     1
102
RTVSPropertyOp39
 70
     1
102
RTVSPropertyOp40
 70
     1
102
RTVSPropertyOp41
 70
     1
102
RTVSPropertyOp42
 70
     1
102
RTVSPropertyOp43
 70
     1
102
RTVSPropertyOp44
 70
     1
102
RTVSPropertyOp45
 70
     1
102
RTVSPropertyOp46
 70
     1
102
RTVSPropertyOp47
 70
     1
102
RTVSPropertyOp48
 70
     1
102
RTVSPropertyOp49
 70
     1
102
RTVSPropertyOp50
 70
     1
102
RTVSPropertyOp51
 70
     0
102
RTVSPropertyOp52
 70
     0
102
RTVSPropertyOp53
 70
     1
102
RTVSPropertyOp54
 70
     1
102
RTVSPropertyOp55
 70
     1
102
RTVSPropertyOp56
 70
     1
102
RTVSPropertyOp57
 70
     1
102
RTVSPost2010Prop28
280
     0
102
RTVSPost2010PropOp28
 70
     1
102
RTVSPost2010Prop29
280
     1
102
RTVSPost2010PropOp29
 70
     1
102
RTVSPost2010Prop30
280
     1
102
RTVSPost2010PropOp30
 70
     1
102
RTVSPost2010Prop31
280
     0
102
RTVSPost2010PropOp31
 70
     1
102
RTVSPost2010Prop32
280
     0
102
RTVSPost2010PropOp32
 70
     1
102
RTVSPost2010Prop33
280
     0
102
RTVSPost2010PropOp33
 70
     1
102
RTVSPost2010Prop34
280
     0
102
RTVSPost2010PropOp34
 70
     1
102
RTVSPost2010Prop35
280
     0
102
RTVSPost2010PropOp35
 70
     1
102
RTVSPost2010Prop36
280
     0
102
RTVSPost2010PropOp36
 70
     1
102
RTVSPost2010Prop37
 90
       50
102
RTVSPost2010PropOp37
 70
     1
102
RTVSPost2010Prop38
140
0.0
102
RTVSPost2010PropOp38
 70
     1
102
RTVSPost2010Prop39
140
1.0
102
RTVSPost2010PropOp39
 70
     1
102
RTVSPost2010Prop40
 90
        0
102
RTVSPost2010PropOp40
 70
     1
102
RTVSPost2010Prop41ColorIndex
 90
       18
102
RTVSPost2010Prop41ColorRGB
 90
        0
102
RTVSPost2010PropOp41
 70
     1
102
RTVSPost2010Prop42
 90
       50
102
RTVSPost2010PropOp42
 70
     1
102
RTVSPost2010Prop43
 90
        3
102
RTVSPost2010PropOp43
 70
     1
102
RTVSPost2010Prop44ColorIndex
 90
        5
102
RTVSPost2010Prop44ColorRGB
 90
      255
102
RTVSPost2010PropOp44
 70
     1
102
RTVSPost2010Prop45
280
     0
102
RTVSPost2010PropOp45
 70
     1
102
RTVSPost2010Prop46
 90
       50
102
RTVSPost2010PropOp46
 70
     1
102
RTVSPost2010Prop47
 90
       50
102
RTVSPost2010PropOp47
 70
     1
102
RTVSPost2010Prop48
 90
       50
102
RTVSPost2010PropOp48
 70
     1
102
RTVSPost2010Prop49
280
     0
102
RTVSPost2010PropOp49
 70
     1
102
RTVSPost2010Prop50
 90
       50
102
RTVSPost2010PropOp50
 70
     1
102
RTVSPost2010Prop51ColorIndex
 90
      256
102
RTVSPost2010Prop51ColorRGB
 90
-16777216
102
RTVSPost2010PropOp51
 70
     0
102
RTVSPost2010Prop52
140
1.0
102
RTVSPost2010PropOp52
 70
     0
102
RTVSPost2010Prop53
 90
        2
102
RTVSPost2010PropOp53
 70
     1
102
RTVSPost2010Prop54
  1
strokes_ogs.tif
102
RTVSPost2010PropOp54
 70
     1
102
RTVSPost2010Prop55
280
     0
102
RTVSPost2010PropOp55
 70
     1
102
RTVSPost2010Prop56
140
1.0
102
RTVSPost2010PropOp56
 70
     1
102
RTVSPost2010Prop57
140
1.0
102
RTVSPost2010PropOp57
 70
     1
  0
XRECORD
  5
48B
102
{ACAD_REACTORS
330
48A
102
}
330
48A
100
AcDbXrecord
280
     1
102
RTVSPropertyOp0
 70
     1
102
RTVSPropertyOp1
 70
     1
102
RTVSPropertyOp2
 70
     1
102
RTVSPropertyOp3
 70
     1
102
RTVSPropertyOp4
 70
     1
102
RTVSPropertyOp5
 70
     1
102
RTVSPropertyOp6
 70
     1
102
RTVSPropertyOp7
 70
     1
102
RTVSPropertyOp8
 70
     1
102
RTVSPropertyOp9
 70
     1
102
RTVSPropertyOp10
 70
     1
102
RTVSPropertyOp11
 70
     1
102
RTVSPropertyOp12
 70
     1
102
RTVSPropertyOp13
 70
     1
102
RTVSPropertyOp14
 70
     1
102
RTVSPropertyOp15
 70
     1
102
RTVSPropertyOp16
 70
     1
102
RTVSPropertyOp17
 70
     1
102
RTVSPropertyOp18
 70
     1
102
RTVSPropertyOp19
 70
     1
102
RTVSPropertyOp20
 70
     1
102
RTVSPropertyOp21
 70
     1
102
RTVSPropertyOp22
 70
     1
102
RTVSPropertyOp23
 70
     1
102
RTVSPropertyOp24
 70
     1
102
RTVSPropertyOp25
 70
     1
102
RTVSPropertyOp26
 70
     1
102
RTVSPropertyOp27
 70
     1
102
RTVSPropertyOp28
 70
     1
102
RTVSPropertyOp29
 70
     1
102
RTVSPropertyOp30
 70
     1
102
RTVSPropertyOp31
 70
     1
102
RTVSPropertyOp32
 70
     1
102
RTVSPropertyOp33
 70
     1
102
RTVSPropertyOp34
 70
     1
102
RTVSPropertyOp35
 70
     1
102
RTVSPropertyOp36
 70
     1
102
RTVSPropertyOp37
 70
     1
102
RTVSPropertyOp38
 70
     1
102
RTVSPropertyOp39
 70
     1
102
RTVSPropertyOp40
 70
     1
102
RTVSPropertyOp41
 70
     1
102
RTVSPropertyOp42
 70
     1
102
RTVSPropertyOp43
 70
     1
102
RTVSPropertyOp44
 70
     1
102
RTVSPropertyOp45
 70
     1
102
RTVSPropertyOp46
 70
     1
102
RTVSPropertyOp47
 70
     1
102
RTVSPropertyOp48
 70
     1
102
RTVSPropertyOp49
 70
     1
102
RTVSPropertyOp50
 70
     1
102
RTVSPropertyOp51
 70
     0
102
RTVSPropertyOp52
 70
     0
102
RTVSPropertyOp53
 70
     1
102
RTVSPropertyOp54
 70
     1
102
RTVSPropertyOp55
 70
     1
102
RTVSPropertyOp56
 70
     1
102
RTVSPropertyOp57
 70
     1
102
RTVSPost2010Prop28
280
     0
102
RTVSPost2010PropOp28
 70
     1
102
RTVSPost2010Prop29
280
     1
102
RTVSPost2010PropOp29
 70
     1
102
RTVSPost2010Prop30
280
     1
102
RTVSPost2010PropOp30
 70
     1
102
RTVSPost2010Prop31
280
     0
102
RTVSPost2010PropOp31
 70
     1
102
RTVSPost2010Prop32
280
     0
102
RTVSPost2010PropOp32
 70
     1
102
RTVSPost2010Prop33
280
     0
102
RTVSPost2010PropOp33
 70
     1
102
RTVSPost2010Prop34
280
     0
102
RTVSPost2010PropOp34
 70
     1
102
RTVSPost2010Prop35
280
     0
102
RTVSPost2010PropOp35
 70
     1
102
RTVSPost2010Prop36
280
     0
102
RTVSPost2010PropOp36
 70
     1
102
RTVSPost2010Prop37
 90
       50
102
RTVSPost2010PropOp37
 70
     1
102
RTVSPost2010Prop38
140
0.0
102
RTVSPost2010PropOp38
 70
     1
102
RTVSPost2010Prop39
140
1.0
102
RTVSPost2010PropOp39
 70
     1
102
RTVSPost2010Prop40
 90
        0
102
RTVSPost2010PropOp40
 70
     1
102
RTVSPost2010Prop41ColorIndex
 90
       18
102
RTVSPost2010Prop41ColorRGB
 90
        0
102
RTVSPost2010PropOp41
 70
     1
102
RTVSPost2010Prop42
 90
       50
102
RTVSPost2010PropOp42
 70
     1
102
RTVSPost2010Prop43
 90
        3
102
RTVSPost2010PropOp43
 70
     1
102
RTVSPost2010Prop44ColorIndex
 90
        5
102
RTVSPost2010Prop44ColorRGB
 90
      255
102
RTVSPost2010PropOp44
 70
     1
102
RTVSPost2010Prop45
280
     0
102
RTVSPost2010PropOp45
 70
     1
102
RTVSPost2010Prop46
 90
       50
102
RTVSPost2010PropOp46
 70
     1
102
RTVSPost2010Prop47
 90
       50
102
RTVSPost2010PropOp47
 70
     1
102
RTVSPost2010Prop48
 90
       50
102
RTVSPost2010PropOp48
 70
     1
102
RTVSPost2010Prop49
280
     0
102
RTVSPost2010PropOp49
 70
     1
102
RTVSPost2010Prop50
 90
       50
102
RTVSPost2010PropOp50
 70
     1
102
RTVSPost2010Prop51ColorIndex
 90
      256
102
RTVSPost2010Prop51ColorRGB
 90
-16777216
102
RTVSPost2010PropOp51
 70
     0
102
RTVSPost2010Prop52
140
1.0
102
RTVSPost2010PropOp52
 70
     0
102
RTVSPost2010Prop53
 90
        2
102
RTVSPost2010PropOp53
 70
     1
102
RTVSPost2010Prop54
  1
strokes_ogs.tif
102
RTVSPost2010PropOp54
 70
     1
102
RTVSPost2010Prop55
280
     0
102
RTVSPost2010PropOp55
 70
     1
102
RTVSPost2010Prop56
140
1.0
102
RTVSPost2010PropOp56
 70
     1
102
RTVSPost2010Prop57
140
1.0
102
RTVSPost2010PropOp57
 70
     1
  0
XRECORD
  5
4AB
102
{ACAD_REACTORS
330
4AA
102
}
330
4AA
100
AcDbXrecord
280
     1
102
RTVSPropertyOp0
 70
     1
102
RTVSPropertyOp1
 70
     1
102
RTVSPropertyOp2
 70
     1
102
RTVSPropertyOp3
 70
     1
102
RTVSPropertyOp4
 70
     1
102
RTVSPropertyOp5
 70
     1
102
RTVSPropertyOp6
 70
     1
102
RTVSPropertyOp7
 70
     1
102
RTVSPropertyOp8
 70
     1
102
RTVSPropertyOp9
 70
     1
102
RTVSPropertyOp10
 70
     1
102
RTVSPropertyOp11
 70
     1
102
RTVSPropertyOp12
 70
     1
102
RTVSPropertyOp13
 70
     1
102
RTVSPropertyOp14
 70
     1
102
RTVSPropertyOp15
 70
     1
102
RTVSPropertyOp16
 70
     1
102
RTVSPropertyOp17
 70
     1
102
RTVSPropertyOp18
 70
     1
102
RTVSPropertyOp19
 70
     1
102
RTVSPropertyOp20
 70
     1
102
RTVSPropertyOp21
 70
     1
102
RTVSPropertyOp22
 70
     1
102
RTVSPropertyOp23
 70
     1
102
RTVSPropertyOp24
 70
     1
102
RTVSPropertyOp25
 70
     1
102
RTVSPropertyOp26
 70
     1
102
RTVSPropertyOp27
 70
     1
102
RTVSPropertyOp28
 70
     1
102
RTVSPropertyOp29
 70
     1
102
RTVSPropertyOp30
 70
     1
102
RTVSPropertyOp31
 70
     1
102
RTVSPropertyOp32
 70
     1
102
RTVSPropertyOp33
 70
     1
102
RTVSPropertyOp34
 70
     1
102
RTVSPropertyOp35
 70
     1
102
RTVSPropertyOp36
 70
     1
102
RTVSPropertyOp37
 70
     1
102
RTVSPropertyOp38
 70
     1
102
RTVSPropertyOp39
 70
     1
102
RTVSPropertyOp40
 70
     1
102
RTVSPropertyOp41
 70
     1
102
RTVSPropertyOp42
 70
     1
102
RTVSPropertyOp43
 70
     1
102
RTVSPropertyOp44
 70
     1
102
RTVSPropertyOp45
 70
     1
102
RTVSPropertyOp46
 70
     1
102
RTVSPropertyOp47
 70
     1
102
RTVSPropertyOp48
 70
     1
102
RTVSPropertyOp49
 70
     1
102
RTVSPropertyOp50
 70
     1
102
RTVSPropertyOp51
 70
     0
102
RTVSPropertyOp52
 70
     0
102
RTVSPropertyOp53
 70
     1
102
RTVSPropertyOp54
 70
     1
102
RTVSPropertyOp55
 70
     1
102
RTVSPropertyOp56
 70
     1
102
RTVSPropertyOp57
 70
     1
102
RTVSPost2010Prop28
280
     0
102
RTVSPost2010PropOp28
 70
     1
102
RTVSPost2010Prop29
280
     1
102
RTVSPost2010PropOp29
 70
     1
102
RTVSPost2010Prop30
280
     1
102
RTVSPost2010PropOp30
 70
     1
102
RTVSPost2010Prop31
280
     0
102
RTVSPost2010PropOp31
 70
     1
102
RTVSPost2010Prop32
280
     0
102
RTVSPost2010PropOp32
 70
     1
102
RTVSPost2010Prop33
280
     0
102
RTVSPost2010PropOp33
 70
     1
102
RTVSPost2010Prop34
280
     0
102
RTVSPost2010PropOp34
 70
     1
102
RTVSPost2010Prop35
280
     0
102
RTVSPost2010PropOp35
 70
     1
102
RTVSPost2010Prop36
280
     0
102
RTVSPost2010PropOp36
 70
     1
102
RTVSPost2010Prop37
 90
       50
102
RTVSPost2010PropOp37
 70
     1
102
RTVSPost2010Prop38
140
0.0
102
RTVSPost2010PropOp38
 70
     1
102
RTVSPost2010Prop39
140
1.0
102
RTVSPost2010PropOp39
 70
     1
102
RTVSPost2010Prop40
 90
        0
102
RTVSPost2010PropOp40
 70
     1
102
RTVSPost2010Prop41ColorIndex
 90
       18
102
RTVSPost2010Prop41ColorRGB
 90
        0
102
RTVSPost2010PropOp41
 70
     1
102
RTVSPost2010Prop42
 90
       50
102
RTVSPost2010PropOp42
 70
     1
102
RTVSPost2010Prop43
 90
        3
102
RTVSPost2010PropOp43
 70
     1
102
RTVSPost2010Prop44ColorIndex
 90
        5
102
RTVSPost2010Prop44ColorRGB
 90
      255
102
RTVSPost2010PropOp44
 70
     1
102
RTVSPost2010Prop45
280
     0
102
RTVSPost2010PropOp45
 70
     1
102
RTVSPost2010Prop46
 90
       50
102
RTVSPost2010PropOp46
 70
     1
102
RTVSPost2010Prop47
 90
       50
102
RTVSPost2010PropOp47
 70
     1
102
RTVSPost2010Prop48
 90
       50
102
RTVSPost2010PropOp48
 70
     1
102
RTVSPost2010Prop49
280
     0
102
RTVSPost2010PropOp49
 70
     1
102
RTVSPost2010Prop50
 90
       50
102
RTVSPost2010PropOp50
 70
     1
102
RTVSPost2010Prop51ColorIndex
 90
      256
102
RTVSPost2010Prop51ColorRGB
 90
-16777216
102
RTVSPost2010PropOp51
 70
     0
102
RTVSPost2010Prop52
140
1.0
102
RTVSPost2010PropOp52
 70
     0
102
RTVSPost2010Prop53
 90
        2
102
RTVSPost2010PropOp53
 70
     1
102
RTVSPost2010Prop54
  1
strokes_ogs.tif
102
RTVSPost2010PropOp54
 70
     1
102
RTVSPost2010Prop55
280
     0
102
RTVSPost2010PropOp55
 70
     1
102
RTVSPost2010Prop56
140
1.0
102
RTVSPost2010PropOp56
 70
     1
102
RTVSPost2010Prop57
140
1.0
102
RTVSPost2010PropOp57
 70
     1
  0
ENDSEC
  0
SECTION
  2
THUMBNAILIMAGE
 90
    16364
310
28000000B40000005500000001000800000000000000000000000000000000000000000000000000FFFFFF00FF000000FFFF000000FF000000FFFF000000FF00FF00FF000000000080808000C0C0C000FF000000FF7F7F00A5000000A55252007F0000007F3F3F004C0000004C2626002600000026131300FF3F0000FF9F7F
310
00A5290000A56752007F1F00007F4F3F004C1300004C2F26002609000026171300FF7F0000FFBF7F00A5520000A57C52007F3F00007F5F3F004C2600004C39260026130000261C1300FFBF0000FFDF7F00A57C0000A59152007F5F00007F6F3F004C3900004C422600261C000026211300FFFF0000FFFF7F00A5A50000A5A5
310
52007F7F00007F7F3F004C4C00004C4C26002626000026261300BFFF0000DFFF7F007CA5000091A552005F7F00006F7F3F00394C0000424C26001C260000212613007FFF0000BFFF7F0052A500007CA552003F7F00005F7F3F00264C0000394C2600132600001C2613003FFF00009FFF7F0029A5000067A552001F7F00004F
310
7F3F00134C00002F4C2600092600001726130000FF00007FFF7F0000A5000052A55200007F00003F7F3F00004C0000264C2600002600001326130000FF3F007FFF9F0000A5290052A56700007F1F003F7F4F00004C1300264C2F00002609001326170000FF7F007FFFBF0000A5520052A57C00007F3F003F7F5F00004C2600
310
264C39000026130013261C0000FFBF007FFFDF0000A57C0052A59100007F5F003F7F6F00004C3900264C420000261C001326210000FFFF007FFFFF0000A5A50052A5A500007F7F003F7F7F00004C4C00264C4C00002626001326260000BFFF007FDFFF00007CA5005291A500005F7F003F6F7F0000394C0026424C00001C26
310
0013212600007FFF007FBFFF000052A500527CA500003F7F003F5F7F0000264C0026394C0000132600131C2600003FFF007F9FFF000029A5005267A500001F7F003F4F7F0000134C00262F4C0000092600131726000000FF007F7FFF000000A5005252A50000007F003F3F7F0000004C0026264C0000002600131326003F00
310
FF009F7FFF002900A5006752A5001F007F004F3F7F0013004C002F264C0009002600171326007F00FF00BF7FFF005200A5007C52A5003F007F005F3F7F0026004C0039264C00130026001C132600BF00FF00DF7FFF007C00A5009152A5005F007F006F3F7F0039004C0042264C001C00260021132600FF00FF00FF7FFF00A5
310
00A500A552A5007F007F007F3F7F004C004C004C264C002600260026132600FF00BF00FF7FDF00A5007C00A55291007F005F007F3F6F004C0039004C26420026001C0026132100FF007F00FF7FBF00A5005200A5527C007F003F007F3F5F004C0026004C2639002600130026131C00FF003F00FF7F9F00A5002900A5526700
310
7F001F007F3F4F004C0013004C262F002600090026131700000000002D2D2D005B5B5B0089898900B7B7B700B3B3B30000000000000000000000000000000000000000000000000000000000000000000000000000000000000000000000000000000000000000000000000000000000000000000000000000000000000000
310
00000000000000000000000000000000000000000000000000000000000000000000000000000000000000000000000000000000000000000000000000000000000000000000000000000000000000000000000000000000000000000000000000000000000000000000000000000000000000000000000000000000000000
310
00000000000000000000000000000000000000000000000000000000000000000000000000000000000000000000000000000000000000000000000000000000000000000000000000000000000000000000000000000000000000000000000000000000000000000000000000000000000000000000000000000000000000
310
00000000000000000000000000000000000000000000000000000000000000000000000000000000000000000000000000000000000000000000000000000000000000000000000000000000000000000000000000000000000000000000000000000000000000000000000000000000000000000000000000000000000000
310
00000000000000000000000000000000000000000000000000000000000000000000000000000000000000000000000000000000000000000000000000000000000000000000000000000000000000000000000000000000000000000000000000000000000000000000000000000000000000000000000000000000000000
310
00000000000000000000000000000000000000000000000000000000000000000000000000000000000000000000000000000000000000000000000000000000000000000000000000000000000000000000000000000000000000000000000000000000000000000000000000000000000000000000000000000000000000
310
00000000000000000000000000000000000000000000000000000000000000000000000000000000000000000000000000000000000000000000000000000000000000000000000000000000000000000000000000000000000000000000000000000000000000000000000000000000000000000000000000000000000000
310
00000000000000000000000000000000000000000000000000000000000000000000000000000000000000000000000000000000000000000000000000000000000000000000000000000000000000000000000000000000000000000000000000000000000000000000000000000000000000000000000000000000000000
310
00000000000000000000000000000000000000000000000000000000000000000000000000000000000000000000000000000000000000000000000000000000000000000000000000000000000000000000000000000000000000000000000000000000000000000000000000000000000000000000000000000000000000
310
00000000000000000000000000000000000000000000000700000000000000000000000000000000000000000000000000000000000000000000000000000000000000000000000000000000000000000000000000000000000000000000000000000000000000000000000000000000000000000000000000000000000000
310
07000000000000000000000000000000000000000000000000000000000000000000000000000000000000000000000000000000000000000000000000000000000000000000000000000000000000000000000000000000000000000000000000000000000000000000000000000000000000000000000000000000000000
310
00000000000000000000030300000303000000030300030303030303030303000300030000000000000000000000000000000000000000000000000000000000000000000000000000000000000000000000000000000000000000000000000000000000000000000000000000000000000000000000000000000000000000
310
00000000000000070707070707070707070707070707070707070707070707070707070707070707070707070707070707070707070707070707070707070703030303030303030303030303030303030303030307070707070707030303030303070707070707070700000000000000000000000000000000000000000000
310
00000000000000000000000000000000000000000000000000000000000000000000000000000000000000000000000000000000000000000000000007000000000000000000000000000000000000000000000000000000000000000000000000000000000000000000000000000000000000000303030303030303030303
310
03030300000000000007030303030303000303030303030000000000000007000000000000000000000000000000000000000000000000000000000000000000000000000000000000000000000000000000000000000000000000000000000000000000000000000000000000000000000700000000000000000000000000
310
00000000000000000000000000000000000000000000000000000000000000000000000000000000000003030303030303030303030303030303070707070703030303030307070307030303030303030303030300000000000000000000000000000000000000000000000000000000000000000000000000000000000000
310
00000000000000000000000000000000000000000000000000000000000000000000000000000007000000000000000000000000000000000000000000000000000000000000000000000000000000000000000000000000000000000000000303030303030303030303030303030303030303070303030303030707030303
310
03000003000003000307000000000000000000000000000000000000000000000000000000000000000000000000000000000000000000000000000000000000000000000000000000000000000000000000000000000000000000000700000000000000000000000000000000000000000000000000000000000000000000
310
00000000000000000000000000000000000000000003030303030303030303030303030703030303030703070303030307070707070707030303030707070700000000000000000000000000000000000000000000000000000000000000000000000000000000000000000000000000000000000000000000000000000000
310
00000000000000000000000000000000000007000000000000000000000000000000000000000000000000000000000000000000000000000000000000000000000000000000000000000303030303030303030303030303030303030303000003030300000303030303030003030303000000070000000000000000000000
310
00000000000000000000000000000000000000000000000000000000000000000000000000000000000000000000000000000000000000000000000000000000000000000000000700000000000000000000000000000000000000000000000000000000000000000000000000000000000000000000000000000000000000
310
03030303030303030303030303030707070707070707070707070707070707070707070707070707070700000000000000000000000000000000000000000000000000000000000000000000000000000000000000000000000000000000000000000000000000000000000000000000000000000000000000000000070000
310
00000000000000000000000000000000000000000000000000000000000000000000000000000000000000000000000000000000000000000000000000000000000000000000000000000000000000000000000000000000000000000000070000000000000000000000000000000000000000000000000000000000000000
310
00000000000000000000000000000000000000000000000000000000000000000000000000000000000000000000000000000700000000000000000000000000000000000000000000000000000000000000000000000000000000000000000000000000000000000000000000000000000000000000000000000000000000
310
00000000000000000000000000000000000000000700000000000000000000000000000000000000000000000000000000000000000000000000000000000000000000000000000000000000000000000000000000000000000000000000000000000000000000070000000000000000000000000000000000000000000000
310
00000000000000000000000000000000000000000000000000000000000000000000000000000000000000000000000000000000000000000000000000000000000000000000000000070000000000000000000000000000000000000000000000000000000000000000000000000000000000000000000000000000000000
310
00000000000000000000000000000000000000000000000000000000000700000000000000000000000000000000000000000000000000000000000000000000000000000000000000000000000000000000000000000000000000000000000000000000000000000000000000000000000000000000000000000000000007
310
00000000000000000000000000000000000000000000000000000000000000000000000000000000000000000000000000000000000000000000000000000000000000000000000000000000000000000000070000000000000000000000000000000000000000000000000000000000000000000000000000000000000000
310
00000000000000000000000000000000000000000000000000000000000000000000000000000000000000000000000000000000070000000000000000000000000000000000000000000000000000000000000000000000000000000000000000000000000000000000000000000000000000000000000000000000000000
310
00000000000000000700000000000000000000000000000000000000000000000000000000000000000000000000000000000000000000000000000000000000000000000000000000000000000000000000000000000000000000000000000000000000000000000007000000000000000000000000000000000000000000
310
00000000000000000000000000000000000000000000000000000000000000000000000000000000000000000000000000000000000000000000000000070000000000000000000000000000000000000000000000000000000000000000000000000000000000000000000000000000000000000000000000000000000000
310
00000000000000000000000000000000000000000000000000000000000000070000000000000000000000000000000000000000000000000000000000000000000000000000000000000000000000000000000000000000000000000000000000000000000000000000000000000000000007000000000000000000000000
310
00000000000000000000000000000000000000000000000000000000000000000000000000000000000000000000000000000000000000000000000000000000000000000000000000000000000000000000000007000000000000000000000000000000000000000000000000000000000000000000000000000000000000
310
00000000000000000000000000000000000000000000000000000000000000000000000000000000070000000000000000000000000000000000000000000000000303030303030300000000000000000000000000000000000000000000000000000000000000000000000000000000000000000000000000000000000000
310
00000000000000000000070000000000000000000000000000000000000000000000000000000000000000000000000000000000000000000000000000000000000000000000000000000000000000000000000000000000000000000007000000000000000000000000000000000000000000000000030202020203030000
310
00000000000000000000000000000000000000000000000000000000000000000000000000000000000000000000000000000000000000000000000000000007000000000000000000000000000000000000000000000000000000000000000000000000000000000000000000000000000000000000000000000000000000
310
00000000000000000000000000000000000000070000000000000000000000000000000000000000000000000002020200000300000000000000000000000000000000000000000000000000000000000000000000000000000000000000000000000000000000000000000000000000000000000700000000000000000000
310
00000000000000000000000000000000000000000000000000000000000000000000000000000000000000000000000000000000000000000000000000000000000000000000000007000000000000000000000000000000000000000000000000000000000000000300000000000000000000000000000000000000000000
310
00000000000000000000000000000000000000000000000000000000000000000000000000000000000007000000000000000000000000000000000000000000000000000000000000000000000000000000000000000000000000000000000000000000000000000000000000000000000000000000000000000000000700
310
00000000000000000000000000000303030303030303030303030303030303030303030303030303030303030303030303030303030303030000000000000000000000000000000000000000000000000000000000000000000000000000000700000000000000000000000000000000000000000000000000000000000000
310
00000000000000000000000000000000000000000000000000000000000000000000000000000000000000000000000000000007000000000000000000000000000000030303030000030000030000000000000303000000000300030000000300000003030000000000000003000000000000000000000000000000000000
310
00000000000000000000000000000000000000000007000000000000000000000000000000000000000000000000000000000000000000000000000000000000000000000000000000000000000000000000000000000000000000000000000000000000000000000700000000000000000000000000000003000003000000
310
00000300000000000000000000000003030303030303000000000000000000000000030000000000000000000000000000000000000000000000000000000000000000000000000000000700000000000000000000000000000000000000000000000000000000000000000000000000000000000000000000000000000000
310
00000000000000000000000000000000000000000000000000000000000007000000000000000000000000000000030000030000000000030000000000000000000000000300030000000300000000000000000000000003000000000000000000000000000000000000000000000000000000000000000000000000000000
310
07000000000000000000000000000000000000000000000000000000000000000000000000000000000000000000000000000000000000000000000000000000000000000000000000000000000000000000000700000000000000000000000000000003000003000000000003000000000000000000000000030003000000
310
03000000000000000000000000030000000000000000000000000000000000000000000000000000000000000000000000000000000700000000000000000000000000000000000000000000000000000000000000000000000000000000000000000000000000000000000000000000000000000000000000000000000000
310
00000000000000000007000000000000000000000000000000030000030000000000030000000000000000000000000300030000000300000000000000000000000003000000000000000000000000000000000000000000000000000000000000000000000000000000070000000000000000000000000000000000000000
310
00000000000000000000000000000000000000000000000000000000000000000000000000000000000000000000000000000000000000000000000000000700000000000000000000030303030003000003000000000003000000000000000000000000030003000000030000000000000000000000000300000000000000
310
00000000000000000000000000000000000000000000000000000000000000000700000000000000000000000000000000000000000000000000000000000000000000000000000000000000000000000000000000000000000000000000000000000000000000000000000000000000000000070000000000000000000003
310
03030303030000030000000000030000000000000000000000000300030000000300000000000000000000000003000000000000000000000000000000000000000003000000000000000000000000000000000000070000000000000000000000000000000000000000000000000000000000000000000000000000000000
310
00000000000000000000000000000000000000000000000000000000000000000000000000000000000700000000000000000000000000000303000003000000000003000000000000000000000000030003000000030000000000000000000000000300000000000000000000000000000000000000000300000000000000
310
00000000000000000000000700000000000000000000000000000000000000000000000000000000000000000000000000000000000000000000000000000000000000000000000000000000000000000000000000000000000000000000070000000000000303030303030303030303030303030303030303030303030303
310
03030303030303030707070300000000000000000000000003000000000000000000000000000000000007070703070707070000000000000000000000000000070000000000000000000000000000000000000000000000000000000000000000000000000000000000000000000000000000000000000000000000000000
310
00000000000000000000000000000000000000000700000000000003000000000000000003030003000000000003000000000000000000000000030007000000070000000000000000000000000300000000000000000000000000000000070000000707000000070000000000000000000000000007000000000000000000
310
00000000000000000000000000000000000000000000000000000000000000000000000000000000000000000000000000000000000000000000000000000000000000000000000000070000000000000300000000000000000300030300000000000300000000000000000000000003000700000007000000000000000000
310
00000003000000000000000000000000000007070000000303030300000007070000000000000000000000070000000000000000000000000000000000000000000000000000000000000000000000000000000000000000000000000000000000000000000000000000000000000000000000000000000000000000000007
310
00000000000003000303030303030303030303030303030303030303030303030303030303030307000000070000000000000000000000000300000000000000000000000000070000000000000707000000000000070000000000000000000007000000000000000000000000000000000000000000000000000000000000
310
00000000000000000000000000000000000000000000000000000000000000000000000000000000000000000000000000000000070000000000000300030000000000000300000300000000000300000000000000000000000003070700000007070707070707070707070703030303030303000000000000000700030000
310
00000003070000000000000007000000000000000000070000000000000000000000000000000000000000000000000000000000000000000000000000000000000000000000000000000000000000000000000000000000000000000000000000000000000000000007000000000000030003000000000000030000030300
310
00000003000000000000000000000000070007000000000000000000000000000000070700000000030000000000000007070300000007070300070700000003070300000000000000000007000000000000000000000000000000000000000000000000000000000000000000000000000000000000000000000000000000
310
00000000000000000000000000000000000000000000000000000000000000070000000000000300030000000000000300000300030000000300000000000000000000000007000707070707000000000000000000000707070000000003000000000000070703070007070000070700000707070303070700000000000000
310
00070000000000000000000000000000000000000000000000000000000000000000000000000000000000000000000000000000000000000000000000000000000000000000000000000000000000000000000007000000000000030003030303030303030303030303030303030303030707070700000000000700070703
310
03070707070707070707070700000700000000030000000000000707030703000007070707070700070307030007000000000000000007000000000000000000000000000000000000000000000000000000000000000000000000000000000000000000000000000000000000000000000000000000000000000000000000
310
00000000000000000000070000000000000300030300000000000300000300000300000700000707070307030707070707000707070707070707070707070700000000070000000003000000000000070303030700070700070703070307000003000700000000000000000700000000000000000000000000000000000000
310
00000000000000000000000000000000000000000000000000000000000000000000000000000000000000000000000000000000000000000000000000000007000000000003030303030303030303030307030303030303030303030307070707070000070707070707070707030303030300070707070707000000030300
310
00000000070000000703030303070307030307000700000000070000000000000007000000000000000000000000000000000000000000000000000000000000000000000000000000000000000000000000000000000000000000000000000000000000000000000000000000000000000000000700000000000303030303
310
03030000000303030303030303030303030303030303030303030303030303030303030303030303030307030307030000000303000000000303030303030303030303030303030303030303030303000000000000000700000000000000000000000000000000000000000000000000000000000000000000000000000000
310
00000000000000000000000000000000000000000000000000000000000000000000000000000000000007000000000003030303030303030303030307070707070707070707070307070707070000070707070703030307030303030300070707070707000000030300000000000700000000070007070703070703030303
310
00000000070000000000000007000000000000000000000000000000000000000000000000000000000000000000000000000000000000000000000000000000000000000000000000000000000000000000000000000000000000000000000700000000000003000303000000000000000000000000000007000007070303
310
03030707070707070707070707070703070307070700000000070000000003000000000000070003000700070700030000070703030303000700000000000000000700000000000000000000000000000000000000000000000000000000000000000000000000000000000000000000000000000000000000000000000000
310
00000000000000000000000000000000000000000007000000000000030003030303030303030303030303030303030303030707070707070707070707070703030307070307030707070707000007000000000300000000000007070707030700070007070707000703070300070000000000000000070000000000000000
310
00000000000000000000000000000000000000000000000000000000000000000000000000000000000000000000000000000000000000000000000000000000000000000000000000000700000000000003000300000000000000000000000000000000000000000000000000000000070007030307030703030003000000
310
00000707030000000003000000000000070707070007000007070700000707070303070700000000000000000700000000000000000000000000000000000000000000000000000000000000000000000000000000000000000000000000000000000000000000000000000000000000000000000000000000000000000000
310
07000000000000030003000000000000000000000000000000000000000000000000000000000700070303000307030300030000000000000703000000000300000000000000070707000007070003000707000000030703000000000000000000070000000000000000000000000000000000000000000000000000000000
310
00000000000000000000000000000000000000000000000000000000000000000000000000000000000000000000000000000000000700000000000003000300000000000000000000000000000000000000000000000000000000070707030300030707030703070707070707030303030303030000000000000007000000
310
00000007030700000000000000070000000000000000000700000000000000000000000000000000000000000000000000000000000000000000000000000000000000000000000000000000000000000000000000000000000000000000000000000000000000000000070000000000000300030303030303030303030303
310
03030303030303030303030303030303030303030303070303000300000000000000000003000000000000000000000000000700000000000007070000000000000700000000000000000000070000000000000000000000000000000000000000000000000000000000000000000000000000000000000000000000000000
310
00000000000000000000000000000000000000000000000000000000000000000700000000000003000000000000000000000000000000000000000000000000000000000000000003030307030300030000000000000000000300000000000000000000000000000707000000030303030000000707000000000000000000
310
00000700000000000000000000000000000000000000000000000000000000000000000000000000000000000000000000000000000000000000000000000000000000000000000000000000000000000000000000070000000000000300000000000000000000000000000000000000000000000000000000000000030703
310
03070300000300000000000000000003000000000000000000000000000000000700000007030000000700000000000000000000000000070000000000000000000000000000000000000000000000000000000000000000000000000000000000000000000000000000000000000000000000000000000000000000000000
310
00000000000000000000000700000000000003030303030303030303030303030303030303030303030303030303030303030303030307030000030000000000000000000300000000000000000000000000000000000707070303070707000000000000000000000000000007000000000000000000000000000000000000
310
00000000000000000000000000000000000000000000000000000000000000000000000000000000000000000000000000000000000000000000000000000000070000000000000000000000000000000000000000000000000000000000000000000000000003000003030003000003000000000000000000030000000000
310
00000000000000000000000000000003000300000000000000000000000000000000070000000000000000000000000000000000000000000000000000000000000000000000000000000000000000000000000000000000000000000000000000000000000000000000000000000000000000000007000000000000000000
310
00000000000000000000000000000000000000000000000000000000030000030300030000030000000000000000000300000000000000000000000000000000000000000300030303030303030303000000000000000007000000000000000000000000000000000000000000000000000000000000000000000000000000
310
00000000000000000000000000000000000000000000000000000000000000000000000000000000000000070000000000000000000000000000000000000000000000000000000000000000000303030300000003030003000003000000000000000000030000000000000000000000000000000000000000000000020202
310
02020203030000000000000000070000000000000000000000000000000000000000000000000000000000000000000000000000000000000000000000000000000000000000000000000000000000000000000000000000000000000000000007000000000000000000000000000000000000000000000000000000000000
310
00000003030303000000030300030000030000000000000000000300000000000000000000000000000000000000000000000202020200000000000000000000000007000000000000000000000000000000000000000000000000000000000000000000000000000000000000000000000000000000000000000000000000
310
00000000000000000000000000000000000000000000070000000000000000000000000000000000000000000000000000000000000000000000000000000003030003000003000000000000000000030000000000000000000000000000000000000000000000000000000000000000000000000000000700000000000000
310
00000000000000000000000000000000000000000000000000000000000000000000000000000000000000000000000000000000000000000000000000000000000000000000000000000007000000000000000000000000000000000000000000000000000000000000000000000000000000000303030303030303030303
310
03030303030300000000000000000000000000000000000000000000000000000000000000000000000000000007000000000000000000000000000000000000000000000000000000000000000000000000000000000000000000000000000000000000000000000000000000000000000000000000000000000000000000
310
00070000000000000000000000000000000000000000000000000000000000000000000000000000000003030303030303030303030303030303030000000000000000000000000000000000000000000000000000000000000000000000000000000700000000000000000000000000000000000000000000000000000000
310
00000000000000000000000000000000000000000000000000000000000000000000000000000000000000000000000000000000000007000000000000000000000000000000000000000000000000000000000000000000000000000000000300000000000003030000000000000003000000000000000000000000000000
310
00000000000000000000000000000000000000000000000007000000000000000000000000000000000000000000000000000000000000000000000000000000000000000000000000000000000000000000000000000000000000000000000000000000000000000000000700000000000000000000000000000000000000
310
00000000000000000000000000000000000000000000000000000000000000000000000000000000000000000000000000000000000000000000000000000000000000000000000000000000000700000000000000000000000000000000000000000000000000000000000000000000000000000000000000000000000000
310
00000000000000000000000000000000000000000000000000000000000000000007000000000000000000000000000000000000000000000000000000000000000000000000000000000000000000000000000000000000000000000000000000000000000000000000000000000000000000000000000000000000000000
310
00000007000000000000000000000000000000000000000000000000000000000000000000000000000000000000000000000000000000000000000000000000000000000000000000000000000000000000000000000700000000000000000000000000000000000000000000000000000000000000000000000000000000
310
00000000000000000000000000000000000000000000000000000000000000000000000000000000000000000000000000000000000000000700000000000000000000000000000000000000000000000000000000000000000000000000000000000000000000000000000000000000000000000000000000000000000000
310
00000000000000000000000007000000000000000000000000000000000000000000000000000000000000000000000000000000000000000000000000000000000000000000000000000000000000000000000000000000000000000000000000000000000000000000000000070000000000000000000000000000000000
310
00000000000000000000000000000000000000000000000000000000000000000000000000000000000000000000000000000000000000000000000000000000000700000000000000000000000000000000000000000000000000000000000000000000000000000000000000000000000000000000000000000000000000
310
00000000000000000000000000000000000000000000000000000000000000000000000700000000000000000000000000000000000000000000000000000000000000000000000000000000000000000000000000000000000000000000000000000000000000000000000000000000000000000000070000000000000000
310
00000000000000000000000000000000000000000000000000000000000000000000000000000000000000000000000000000000000000000000000000000000000000000000000000000000000000000000000000000000070000000000000000000000000000000000000000000000000000000000000000000000000000
310
00000000000000000000000000000000000000000000000000000000000000000000000000000000000000000700000000000000000000000000000000000000000000000000000000000000000000000000000000000000000000000000000000000000000000000000000000000000000000000000000000000000000000
310
00000000000000000000000000000700000000000000000000000000000000000000000000000000000000000000000000000000000000000000000000000000000000000000000000000000000000000000000000000000000000000000000000070000000000000000000000000000000000000000000000000000000000
310
00000000000000000000000000000000000000000000000000000000000000000000000000000000000000000000000000000000000000000000000000000000000000070000000000000000000000000000000000000000000000000000000000000000000000000000000000000000000000000000000000000000000000
310
00000000000000000000000000000000000000000000000700000000000000000000000000000000000000000000000000000000000000000000000000000000000000000000000000000000000000000000000000000000000000000000000000000000000000000000000000000000000000000000000007000000000000
310
00000000000000000000000000000000000000000000000000000000000000000000000000000000000000000000000000000000000000000000000000000000000000000000000000000000070000000000000000000000000000000000000000000000000000000000000000000000000000000000000000000000000000
310
00000000000000000000000000000000000000000000000000000000000000000000000000000000000000000000070000000000000000000000000000000000000000000000000000000000000000000000000000000000000000000000000000000000000000000000000000000000000000000000000000000000000000
310
00000700000000000000000000000000000000000000000000000000000000000000000000000000000000000000000000000000000000000000000000000000000000000000000000000000000000000000000000000000000000000000000000000007000000000000000000000000000000000000000000000000000000
310
00000000000000000000000000000000000000000000000000000000000000000000000000000000000000000000000000000000000000070000000000000000000000000000000000000000000000000000000000000000000000000000000000000000000000000000000000000000000000000000000000000000000000
310
00000000000000000000000000000000000000000000000000070000000000000000000000000000000000000000000000000000000000000000000000000000000000000000000000000000000000000000000000000000000000000000000000000000000000000000000007070707070707070707070707070707070707
310
07070707070707070707070707070707070707070707070707070707070707070707070707070707070707070707070707070707070707070707070707070707070707070707070707070707070707000000000000000000000000000000000000000000000000000000000000000000000000000000000000000000000000
310
00000000000000000000000000000000000000000000000000000000000000000000000000000000000000000000000000000000000000000000000000000000000000000000000000000000000000000000000000000000000000000000000000000000000000000000000000000000000000000000000000000000000000
310
00000000000000000000000000000000000000000000000000000000000000000000000000000000000000000000000000000000000000000000000000000000000000000000000000000000000000000000070000000000000000000000000000000000000000000000000000000000000000000000000000000000000000
310
00000000000000000000000000000000000000000000000000000000000000000000000000000000000000000000000000000000000000000000000700000000000000000000000000000000000000000000000000000000000000000000000000000000000000000000000000000000000000000000000000000000000000
310
00000000000000000000000000000000000000000000000000000000000000000000000000000000000000000000000000000000000000000000000000000000000000000000000000000000000000000000000000000000000000000000000000000000000000000000000000000000000000000000000000000000000000
310
00000000000000000000000000000000000000000000000000000000000000000000000000000000000000000000000000000000000000000000000000000000000000000000000000000000000000000000000000000000000000000000000000000000000000000000000000000000000000000000000000000000000000
310
00000000000000000000000000000000000000000000000000000000000000000000000000000000000000000000000000000000000000000000000000000000000000000000000000000000000000000000000000000000000000000000000000000000000000000000000000000000000000000000000000000000000000
310
00000000000000000000000000000000000000000000000000000000000000000000000000000000000000000000000000000000000000000000000000000000000000000000000000000000000000000000000000000000000000000000000000000000000000000000000000000000000000000000000000000000000000
310
00000000000000000000000000000000000000000000000000000000000000000000000000000000000000000000000000000000000000000000000000000000000000000000000000000000000000000000000000000000000000000000000000000000000000000000000000000000000000000000000000000000000000
310
00000000000000000000000000000000000000000000000000000000000000000000000000000000000000000000000000000000000000000000000000000000000000000000000000000000000000000000000000000000000000000000000000000000000000000000000000000000000000000000000000000000000000
310
000000000000000000000000000000000000000000000000000000000000000000000000000000000000000000000000000000000000000000000000000000000000000000000000000000000000000000000000000000000000000000000000000000000000000000000000
  0
ENDSEC
  0
EOF
