  0
SECTION
  2
HEADER
  9
$ACADVER
  1
AC1015
  9
$ACADMAINTVER
 70
     6
  9
$DWGCODEPAGE
  3
DOS932
  9
$INSBASE
 10
0.0
 20
0.0
 30
0.0
  9
$EXTMIN
 10
83.363037
 20
84.047577
 30
0.0
  9
$EXTMAX
 10
541.967163
 20
348.703766
 30
0.0
  9
$LIMMIN
 10
0.0
 20
0.0
  9
$LIMMAX
 10
12.0
 20
9.0
  9
$ORTHOMODE
 70
     0
  9
$REGENMODE
 70
     1
  9
$FILLMODE
 70
     1
  9
$QTEXTMODE
 70
     0
  9
$MIRRTEXT
 70
     1
  9
$LTSCALE
 40
7.643402
  9
$ATTMODE
 70
     1
  9
$TEXTSIZE
 40
3.2
  9
$TRACEWID
 40
0.05
  9
$TEXTSTYLE
  7
Standard
  9
$CLAYER
  8
0
  9
$CELTYPE
  6
ByLayer
  9
$CECOLOR
 62
   256
  9
$CELTSCALE
 40
1.0
  9
$DISPSILH
 70
     0
  9
$DIMSCALE
 40
1.0
  9
$DIMASZ
 40
0.18
  9
$DIMEXO
 40
0.0625
  9
$DIMDLI
 40
0.38
  9
$DIMRND
 40
0.0
  9
$DIMDLE
 40
0.0
  9
$DIMEXE
 40
0.18
  9
$DIMTP
 40
0.0
  9
$DIMTM
 40
0.0
  9
$DIMTXT
 40
0.18
  9
$DIMCEN
 40
0.09
  9
$DIMTSZ
 40
0.0
  9
$DIMTOL
 70
     0
  9
$DIMLIM
 70
     0
  9
$DIMTIH
 70
     1
  9
$DIMTOH
 70
     1
  9
$DIMSE1
 70
     0
  9
$DIMSE2
 70
     0
  9
$DIMTAD
 70
     0
  9
$DIMZIN
 70
     0
  9
$DIMBLK
  1

  9
$DIMASO
 70
     1
  9
$DIMSHO
 70
     1
  9
$DIMPOST
  1

  9
$DIMAPOST
  1

  9
$DIMALT
 70
     0
  9
$DIMALTD
 70
     2
  9
$DIMALTF
 40
25.4
  9
$DIMLFAC
 40
1.0
  9
$DIMTOFL
 70
     0
  9
$DIMTVP
 40
0.0
  9
$DIMTIX
 70
     0
  9
$DIMSOXD
 70
     0
  9
$DIMSAH
 70
     0
  9
$DIMBLK1
  1

  9
$DIMBLK2
  1

  9
$DIMSTYLE
  2
Standard
  9
$DIMCLRD
 70
     0
  9
$DIMCLRE
 70
     0
  9
$DIMCLRT
 70
     0
  9
$DIMTFAC
 40
1.0
  9
$DIMGAP
 40
0.09
  9
$DIMJUST
 70
     0
  9
$DIMSD1
 70
     0
  9
$DIMSD2
 70
     0
  9
$DIMTOLJ
 70
     1
  9
$DIMTZIN
 70
     0
  9
$DIMALTZ
 70
     0
  9
$DIMALTTZ
 70
     0
  9
$DIMUPT
 70
     0
  9
$DIMDEC
 70
     4
  9
$DIMTDEC
 70
     4
  9
$DIMALTU
 70
     2
  9
$DIMALTTD
 70
     2
  9
$DIMTXSTY
  7
Standard
  9
$DIMAUNIT
 70
     0
  9
$DIMADEC
 70
     0
  9
$DIMALTRND
 40
0.0
  9
$DIMAZIN
 70
     0
  9
$DIMDSEP
 70
    46
  9
$DIMATFIT
 70
     3
  9
$DIMFRAC
 70
     0
  9
$DIMLDRBLK
  1

  9
$DIMLUNIT
 70
     2
  9
$DIMLWD
 70
    -2
  9
$DIMLWE
 70
    -2
  9
$DIMTMOVE
 70
     0
  9
$LUNITS
 70
     2
  9
$LUPREC
 70
     4
  9
$SKETCHINC
 40
0.1
  9
$FILLETRAD
 40
0.0
  9
$AUNITS
 70
     0
  9
$AUPREC
 70
     0
  9
$MENU
  1
.
  9
$ELEVATION
 40
0.0
  9
$PELEVATION
 40
0.0
  9
$THICKNESS
 40
0.0
  9
$LIMCHECK
 70
     0
  9
$CHAMFERA
 40
0.5
  9
$CHAMFERB
 40
0.5
  9
$CHAMFERC
 40
1.0
  9
$CHAMFERD
 40
0.0
  9
$SKPOLY
 70
     0
  9
$TDCREATE
 40
2453718.466334259
  9
$TDUCREATE
 40
2453718.091334259
  9
$TDUPDATE
 40
2453718.466334271
  9
$TDUUPDATE
 40
2453718.091334271
  9
$TDINDWG
 40
0.0000000116
  9
$TDUSRTIMER
 40
0.0000000116
  9
$USRTIMER
 70
     1
  9
$ANGBASE
 50
0.0
  9
$ANGDIR
 70
     0
  9
$PDMODE
 70
     0
  9
$PDSIZE
 40
0.0
  9
$PLINEWID
 40
0.0
  9
$SPLFRAME
 70
     0
  9
$SPLINETYPE
 70
     6
  9
$SPLINESEGS
 70
     8
  9
$HANDSEED
  5
310
  9
$SURFTAB1
 70
     6
  9
$SURFTAB2
 70
     6
  9
$SURFTYPE
 70
     6
  9
$SURFU
 70
     6
  9
$SURFV
 70
     6
  9
$UCSBASE
  2

  9
$UCSNAME
  2

  9
$UCSORG
 10
0.0
 20
0.0
 30
0.0
  9
$UCSXDIR
 10
1.0
 20
0.0
 30
0.0
  9
$UCSYDIR
 10
0.0
 20
1.0
 30
0.0
  9
$UCSORTHOREF
  2

  9
$UCSORTHOVIEW
 70
     0
  9
$UCSORGTOP
 10
0.0
 20
0.0
 30
0.0
  9
$UCSORGBOTTOM
 10
0.0
 20
0.0
 30
0.0
  9
$UCSORGLEFT
 10
0.0
 20
0.0
 30
0.0
  9
$UCSORGRIGHT
 10
0.0
 20
0.0
 30
0.0
  9
$UCSORGFRONT
 10
0.0
 20
0.0
 30
0.0
  9
$UCSORGBACK
 10
0.0
 20
0.0
 30
0.0
  9
$PUCSBASE
  2

  9
$PUCSNAME
  2

  9
$PUCSORG
 10
0.0
 20
0.0
 30
0.0
  9
$PUCSXDIR
 10
1.0
 20
0.0
 30
0.0
  9
$PUCSYDIR
 10
0.0
 20
1.0
 30
0.0
  9
$PUCSORTHOREF
  2

  9
$PUCSORTHOVIEW
 70
     0
  9
$PUCSORGTOP
 10
0.0
 20
0.0
 30
0.0
  9
$PUCSORGBOTTOM
 10
0.0
 20
0.0
 30
0.0
  9
$PUCSORGLEFT
 10
0.0
 20
0.0
 30
0.0
  9
$PUCSORGRIGHT
 10
0.0
 20
0.0
 30
0.0
  9
$PUCSORGFRONT
 10
0.0
 20
0.0
 30
0.0
  9
$PUCSORGBACK
 10
0.0
 20
0.0
 30
0.0
  9
$USERI1
 70
     0
  9
$USERI2
 70
     0
  9
$USERI3
 70
     0
  9
$USERI4
 70
     0
  9
$USERI5
 70
     0
  9
$USERR1
 40
0.0
  9
$USERR2
 40
0.0
  9
$USERR3
 40
0.0
  9
$USERR4
 40
0.0
  9
$USERR5
 40
0.0
  9
$WORLDVIEW
 70
     1
  9
$SHADEDGE
 70
     3
  9
$SHADEDIF
 70
    70
  9
$TILEMODE
 70
     1
  9
$MAXACTVP
 70
    64
  9
$PINSBASE
 10
0.0
 20
0.0
 30
0.0
  9
$PLIMCHECK
 70
     0
  9
$PEXTMIN
 10
1.000000E+20
 20
1.000000E+20
 30
0.0
  9
$PEXTMAX
 10
-1.000000E+20
 20
-1.000000E+20
 30
0.0
  9
$PLIMMIN
 10
0.0
 20
0.0
  9
$PLIMMAX
 10
12.0
 20
9.0
  9
$UNITMODE
 70
     0
  9
$VISRETAIN
 70
     1
  9
$PLINEGEN
 70
     0
  9
$PSLTSCALE
 70
     1
  9
$TREEDEPTH
 70
  3020
  9
$CMLSTYLE
  2
Standard
  9
$CMLJUST
 70
     0
  9
$CMLSCALE
 40
1.0
  9
$PROXYGRAPHICS
 70
     1
  9
$MEASUREMENT
 70
     0
  9
$CELWEIGHT
370
    -1
  9
$ENDCAPS
280
     0
  9
$JOINSTYLE
280
     0
  9
$LWDISPLAY
290
     0
  9
$INSUNITS
 70
     1
  9
$HYPERLINKBASE
  1

  9
$STYLESHEET
  1

  9
$XEDIT
290
     1
  9
$CEPSNTYPE
380
     0
  9
$PSTYLEMODE
290
     1
  9
$FINGERPRINTGUID
  2
{3834C847-E6DB-412C-8294-89206361FF99}
  9
$VERSIONGUID
  2
{FAEB1C32-E019-11D5-929B-00C0DF256EC4}
  9
$EXTNAMES
290
     1
  9
$PSVPSCALE
 40
0.0
  9
$OLESTARTUP
290
     0
  0
ENDSEC
  0
SECTION
  2
CLASSES
  0
CLASS
  1
ACDBDICTIONARYWDFLT
  2
AcDbDictionaryWithDefault
  3
ObjectDBX Classes
 90
        0
280
     0
281
     0
  0
CLASS
  1
ACDBPLACEHOLDER
  2
AcDbPlaceHolder
  3
ObjectDBX Classes
 90
        0
280
     0
281
     0
  0
CLASS
  1
LAYOUT
  2
AcDbLayout
  3
ObjectDBX Classes
 90
        0
280
     0
281
     0
  0
ENDSEC
  0
SECTION
  2
TABLES
  0
TABLE
  2
VPORT
  5
8
330
0
100
AcDbSymbolTable
 70
     1
  0
VPORT
  5
29
330
8
100
AcDbSymbolTableRecord
100
AcDbViewportTableRecord
  2
*Active
 70
     0
 10
0.0
 20
0.0
 11
1.0
 21
1.0
 12
312.6651
 22
216.375671
 13
0.0
 23
0.0
 14
1.0
 24
1.0
 15
0.0
 25
0.0
 16
0.0
 26
0.0
 36
1.0
 17
0.0
 27
0.0
 37
0.0
 40
273.868299
 41
1.691288
 42
50.0
 43
0.0
 44
0.0
 50
0.0
 51
0.0
 71
     0
 72
   100
 73
     1
 74
     3
 75
     0
 76
     0
 77
     0
 78
     0
281
     0
 65
     1
110
0.0
120
0.0
130
0.0
111
1.0
121
0.0
131
0.0
112
0.0
122
1.0
132
0.0
 79
     0
146
0.0
  0
ENDTAB
  0
TABLE
  2
LTYPE
  5
5
330
0
100
AcDbSymbolTable
 70
     5
  0
LTYPE
  5
14
330
5
100
AcDbSymbolTableRecord
100
AcDbLinetypeTableRecord
  2
ByBlock
 70
     0
  3

 72
    65
 73
     0
 40
0.0
  0
LTYPE
  5
15
330
5
100
AcDbSymbolTableRecord
100
AcDbLinetypeTableRecord
  2
ByLayer
 70
     0
  3

 72
    65
 73
     0
 40
0.0
  0
LTYPE
  5
16
330
5
100
AcDbSymbolTableRecord
100
AcDbLinetypeTableRecord
  2
Continuous
 70
     0
  3
Solid line
 72
    65
 73
     0
 40
0.0
  0
LTYPE
  5
2A
330
5
100
AcDbSymbolTableRecord
100
AcDbLinetypeTableRecord
  2
DASHED
 70
     0
  3
DASHED
 72
    83
 73
     2
 40
0.75
 49
0.5
 74
     0
 49
-0.25
 74
     0
  0
LTYPE
  5
2B
330
5
100
AcDbSymbolTableRecord
100
AcDbLinetypeTableRecord
  2
HIDDEN
 70
     0
  3
HIDDEN
 72
    83
 73
     2
 40
0.375
 49
0.25
 74
     0
 49
-0.125
 74
     0
  0
LTYPE
  5
2C
330
5
100
AcDbSymbolTableRecord
100
AcDbLinetypeTableRecord
  2
CENTER
 70
     0
  3
CENTER
 72
    83
 73
     4
 40
2.0
 49
1.25
 74
     0
 49
-0.25
 74
     0
 49
0.25
 74
     0
 49
-0.25
 74
     0
  0
LTYPE
  5
2D
330
5
100
AcDbSymbolTableRecord
100
AcDbLinetypeTableRecord
  2
PHANTOM
 70
     0
  3
PHANTOM
 72
    83
 73
     6
 40
2.5
 49
1.25
 74
     0
 49
-0.25
 74
     0
 49
0.25
 74
     0
 49
-0.25
 74
     0
 49
0.25
 74
     0
 49
-0.25
 74
     0
  0
ENDTAB
  0
TABLE
  2
LAYER
  5
2
330
0
100
AcDbSymbolTable
 70
     2
  0
LAYER
  5
10
330
2
100
AcDbSymbolTableRecord
100
AcDbLayerTableRecord
  2
0
 70
     0
 62
     7
  6
Continuous
370
    -3
390
F
  0
LAYER
  5
2E
330
2
100
AcDbSymbolTableRecord
100
AcDbLayerTableRecord
  2
001
 70
     0
 62
     7
  6
Continuous
370
    -3
390
F
  0
ENDTAB
  0
TABLE
  2
STYLE
  5
3
330
0
100
AcDbSymbolTable
 70
     2
  0
STYLE
  5
11
330
3
100
AcDbSymbolTableRecord
100
AcDbTextStyleTableRecord
  2
Standard
 70
     0
 40
0.0
 41
1.0
 50
0.0
 71
     0
 42
0.2
  3
TXT
  4
BIGFONT
  0
STYLE
  5
2F
330
3
100
AcDbSymbolTableRecord
100
AcDbTextStyleTableRecord
  2
TATEGAKI
 70
     4
 40
1.0
 41
1.0
 50
0.0
 71
     0
 42
0.2
  3
TXT
  4
BIGFONT
  0
ENDTAB
  0
TABLE
  2
VIEW
  5
6
330
0
100
AcDbSymbolTable
 70
     0
  0
ENDTAB
  0
TABLE
  2
UCS
  5
7
330
0
100
AcDbSymbolTable
 70
     0
  0
ENDTAB
  0
TABLE
  2
APPID
  5
9
330
0
100
AcDbSymbolTable
 70
     1
  0
APPID
  5
12
330
9
100
AcDbSymbolTableRecord
100
AcDbRegAppTableRecord
  2
ACAD
 70
     0
  0
ENDTAB
  0
TABLE
  2
DIMSTYLE
  5
A
330
0
100
AcDbSymbolTable
 70
     1
100
AcDbDimStyleTable
  0
DIMSTYLE
105
27
330
A
100
AcDbSymbolTableRecord
100
AcDbDimStyleTableRecord
  2
Standard
 70
     0
340
11
  0
ENDTAB
  0
TABLE
  2
BLOCK_RECORD
  5
1
330
0
100
AcDbSymbolTable
 70
    17
  0
BLOCK_RECORD
  5
1F
330
1
100
AcDbSymbolTableRecord
100
AcDbBlockTableRecord
  2
*Model_Space
340
22
  0
BLOCK_RECORD
  5
1B
330
1
100
AcDbSymbolTableRecord
100
AcDbBlockTableRecord
  2
*Paper_Space
340
1E
  0
BLOCK_RECORD
  5
23
330
1
100
AcDbSymbolTableRecord
100
AcDbBlockTableRecord
  2
*Paper_Space0
340
26
  0
BLOCK_RECORD
  5
30
330
1
100
AcDbSymbolTableRecord
100
AcDbBlockTableRecord
  2
DIM-1
340
0
102
{BLKREFS
331
185
102
}
  0
BLOCK_RECORD
  5
40
330
1
100
AcDbSymbolTableRecord
100
AcDbBlockTableRecord
  2
*D2
340
0
  0
BLOCK_RECORD
  5
53
330
1
100
AcDbSymbolTableRecord
100
AcDbBlockTableRecord
  2
*D3
340
0
  0
BLOCK_RECORD
  5
66
330
1
100
AcDbSymbolTableRecord
100
AcDbBlockTableRecord
  2
DIM-2
340
0
102
{BLKREFS
331
188
102
}
  0
BLOCK_RECORD
  5
7D
330
1
100
AcDbSymbolTableRecord
100
AcDbBlockTableRecord
  2
DIM-3
340
0
102
{BLKREFS
331
189
102
}
  0
BLOCK_RECORD
  5
93
330
1
100
AcDbSymbolTableRecord
100
AcDbBlockTableRecord
  2
*D6
340
0
  0
BLOCK_RECORD
  5
A9
330
1
100
AcDbSymbolTableRecord
100
AcDbBlockTableRecord
  2
*D7
340
0
  0
BLOCK_RECORD
  5
BF
330
1
100
AcDbSymbolTableRecord
100
AcDbBlockTableRecord
  2
*D8
340
0
  0
BLOCK_RECORD
  5
D5
330
1
100
AcDbSymbolTableRecord
100
AcDbBlockTableRecord
  2
*D9
340
0
  0
BLOCK_RECORD
  5
EB
330
1
100
AcDbSymbolTableRecord
100
AcDbBlockTableRecord
  2
*D10
340
0
  0
BLOCK_RECORD
  5
101
330
1
100
AcDbSymbolTableRecord
100
AcDbBlockTableRecord
  2
*D11
340
0
  0
BLOCK_RECORD
  5
117
330
1
100
AcDbSymbolTableRecord
100
AcDbBlockTableRecord
  2
*D12
340
0
  0
BLOCK_RECORD
  5
12D
330
1
100
AcDbSymbolTableRecord
100
AcDbBlockTableRecord
  2
*D13
340
0
  0
BLOCK_RECORD
  5
143
330
1
100
AcDbSymbolTableRecord
100
AcDbBlockTableRecord
  2
*D14
340
0
  0
BLOCK_RECORD
  5
159
330
1
100
AcDbSymbolTableRecord
100
AcDbBlockTableRecord
  2
*D15
340
0
  0
BLOCK_RECORD
  5
16F
330
1
100
AcDbSymbolTableRecord
100
AcDbBlockTableRecord
  2
DIM-4
340
0
102
{BLKREFS
331
1C3
102
}
  0
ENDTAB
  0
ENDSEC
  0
SECTION
  2
BLOCKS
  0
BLOCK
  5
20
330
1F
100
AcDbEntity
  8
0
100
AcDbBlockBegin
  2
*Model_Space
 70
     0
 71
     0
 10
0.0
 20
0.0
 30
0.0
  3
*Model_Space
  1

  0
ENDBLK
  5
21
330
1F
100
AcDbEntity
  8
0
100
AcDbBlockEnd
  0
BLOCK
  5
1C
330
1B
100
AcDbEntity
 67
     1
  8
0
100
AcDbBlockBegin
  2
*Paper_Space
 70
     0
 71
     0
 10
0.0
 20
0.0
 30
0.0
  3
*Paper_Space
  1

  0
ENDBLK
  5
1D
330
1B
100
AcDbEntity
 67
     1
  8
0
100
AcDbBlockEnd
  0
BLOCK
  5
24
330
23
100
AcDbEntity
  8
0
100
AcDbBlockBegin
  2
*Paper_Space0
 70
     0
 71
     0
 10
0.0
 20
0.0
 30
0.0
  3
*Paper_Space0
  1

  0
ENDBLK
  5
25
330
23
100
AcDbEntity
  8
0
100
AcDbBlockEnd
  0
BLOCK
  5
31
330
30
100
AcDbEntity
  8
0
100
AcDbBlockBegin
  2
DIM-1
 70
     0
 71
     0
 10
0.0
 20
0.0
 30
0.0
  3
DIM-1
  1

  0
TEXT
  5
33
330
30
100
AcDbEntity
  8
001
 62
     4
370
    30
100
AcDbText
 10
101.742848
 20
281.127873
 30
0.0
 40
4.0
  1
Ｍ５０×Ｐ１．５
 41
0.833333
100
AcDbText
  0
POLYLINE
  5
34
330
30
100
AcDbEntity
  8
001
 62
     3
370
     9
100
AcDb2dPolyline
 66
     1
 10
0.0
 20
0.0
 30
0.0
  0
VERTEX
  5
36
330
34
100
AcDbEntity
  8
001
 62
     3
370
     9
100
AcDbVertex
100
AcDb2dVertex
 10
164.335227
 20
260.645409
 30
0.0
  0
VERTEX
  5
37
330
34
100
AcDbEntity
  8
001
 62
     3
370
     9
100
AcDbVertex
100
AcDb2dVertex
 10
165.687457
 20
259.077397
 30
0.0
  0
VERTEX
  5
38
330
34
100
AcDbEntity
  8
001
 62
     3
370
     9
100
AcDbVertex
100
AcDb2dVertex
 10
163.732386
 20
259.75922
 30
0.0
  0
SEQEND
  5
35
330
34
100
AcDbEntity
  8
001
370
     9
  0
POLYLINE
  5
3A
330
30
100
AcDbEntity
  8
001
 62
     3
370
     9
100
AcDb2dPolyline
 66
     1
 10
0.0
 20
0.0
 30
0.0
  0
VERTEX
  5
3C
330
3A
100
AcDbEntity
  8
001
 62
     3
370
     9
100
AcDbVertex
100
AcDb2dVertex
 10
165.687457
 20
259.077397
 30
0.0
  0
VERTEX
  5
3D
330
3A
100
AcDbEntity
  8
001
 62
     3
370
     9
100
AcDbVertex
100
AcDb2dVertex
 10
134.742848
 20
280.127873
 30
0.0
  0
VERTEX
  5
3E
330
3A
100
AcDbEntity
  8
001
 62
     3
370
     9
100
AcDbVertex
100
AcDb2dVertex
 10
100.742848
 20
280.127873
 30
0.0
  0
SEQEND
  5
3B
330
3A
100
AcDbEntity
  8
001
370
     9
  0
ENDBLK
  5
32
330
30
100
AcDbEntity
  8
0
100
AcDbBlockEnd
  0
BLOCK
  5
41
330
40
100
AcDbEntity
  8
0
100
AcDbBlockBegin
  2
*D2
 70
     1
 71
     0
 10
0.0
 20
0.0
 30
0.0
  3
*D2
  1

  0
LINE
  5
43
330
40
100
AcDbEntity
  8
001
 62
     3
370
     9
100
AcDbLine
 10
498.598669
 20
249.206644
 30
0.0
 11
403.286427
 21
218.94815
 31
0.0
  0
POLYLINE
  5
44
330
40
100
AcDbEntity
  8
001
 62
     3
370
     9
100
AcDb2dPolyline
 66
     1
 10
0.0
 20
0.0
 30
0.0
  0
VERTEX
  5
46
330
44
100
AcDbEntity
  8
001
 62
     3
370
     9
100
AcDbVertex
100
AcDb2dVertex
 10
496.53027
 20
249.112251
 30
0.0
  0
VERTEX
  5
47
330
44
100
AcDbEntity
  8
001
 62
     3
370
     9
100
AcDbVertex
100
AcDb2dVertex
 10
498.598669
 20
249.206644
 30
0.0
  0
VERTEX
  5
48
330
44
100
AcDbEntity
  8
001
 62
     3
370
     9
100
AcDbVertex
100
AcDb2dVertex
 10
496.854579
 20
248.090697
 30
0.0
  0
SEQEND
  5
45
330
44
100
AcDbEntity
  8
001
370
     9
  0
POLYLINE
  5
4A
330
40
100
AcDbEntity
  8
001
 62
     3
370
     9
100
AcDb2dPolyline
 66
     1
 10
0.0
 20
0.0
 30
0.0
  0
VERTEX
  5
4C
330
4A
100
AcDbEntity
  8
001
 62
     3
370
     9
100
AcDbVertex
100
AcDb2dVertex
 10
405.354826
 20
219.042543
 30
0.0
  0
VERTEX
  5
4D
330
4A
100
AcDbEntity
  8
001
 62
     3
370
     9
100
AcDbVertex
100
AcDb2dVertex
 10
403.286427
 20
218.94815
 30
0.0
  0
VERTEX
  5
4E
330
4A
100
AcDbEntity
  8
001
 62
     3
370
     9
100
AcDbVertex
100
AcDb2dVertex
 10
405.030517
 20
220.064096
 30
0.0
  0
SEQEND
  5
4B
330
4A
100
AcDbEntity
  8
001
370
     9
  0
TEXT
  5
50
330
40
100
AcDbEntity
  8
001
 62
     3
370
     9
100
AcDbText
 10
479.466788
 20
244.182085
 30
0.0
 40
4.0
  1
%%c１００
 50
17.612927
 41
0.695652
100
AcDbText
  0
POINT
  5
51
330
40
100
AcDbEntity
  8
001
 62
     3
370
     9
100
AcDbPoint
 10
498.598669
 20
249.206644
 30
0.0
  0
POINT
  5
52
330
40
100
AcDbEntity
  8
001
 62
     3
370
     9
100
AcDbPoint
 10
403.286427
 20
218.94815
 30
0.0
  0
ENDBLK
  5
42
330
40
100
AcDbEntity
  8
0
100
AcDbBlockEnd
  0
BLOCK
  5
54
330
53
100
AcDbEntity
  8
0
100
AcDbBlockBegin
  2
*D3
 70
     1
 71
     0
 10
0.0
 20
0.0
 30
0.0
  3
*D3
  1

  0
LINE
  5
56
330
53
100
AcDbEntity
  8
001
 62
     3
370
     9
100
AcDbLine
 10
401.220944
 20
279.728378
 30
0.0
 11
500.664152
 21
188.426415
 31
0.0
  0
POLYLINE
  5
57
330
53
100
AcDbEntity
  8
001
 62
     3
370
     9
100
AcDb2dPolyline
 66
     1
 10
0.0
 20
0.0
 30
0.0
  0
VERTEX
  5
59
330
57
100
AcDbEntity
  8
001
 62
     3
370
     9
100
AcDbVertex
100
AcDb2dVertex
 10
402.331743
 20
277.981005
 30
0.0
  0
VERTEX
  5
5A
330
57
100
AcDbEntity
  8
001
 62
     3
370
     9
100
AcDbVertex
100
AcDb2dVertex
 10
401.220944
 20
279.728378
 30
0.0
  0
VERTEX
  5
5B
330
57
100
AcDbEntity
  8
001
 62
     3
370
     9
100
AcDbVertex
100
AcDb2dVertex
 10
403.056611
 20
278.770508
 30
0.0
  0
SEQEND
  5
58
330
57
100
AcDbEntity
  8
001
370
     9
  0
POLYLINE
  5
5D
330
53
100
AcDbEntity
  8
001
 62
     3
370
     9
100
AcDb2dPolyline
 66
     1
 10
0.0
 20
0.0
 30
0.0
  0
VERTEX
  5
5F
330
5D
100
AcDbEntity
  8
001
 62
     3
370
     9
100
AcDbVertex
100
AcDb2dVertex
 10
499.553353
 20
190.173788
 30
0.0
  0
VERTEX
  5
60
330
5D
100
AcDbEntity
  8
001
 62
     3
370
     9
100
AcDbVertex
100
AcDb2dVertex
 10
500.664152
 20
188.426415
 30
0.0
  0
VERTEX
  5
61
330
5D
100
AcDbEntity
  8
001
 62
     3
370
     9
100
AcDbVertex
100
AcDb2dVertex
 10
498.828485
 20
189.384285
 30
0.0
  0
SEQEND
  5
5E
330
5D
100
AcDbEntity
  8
001
370
     9
  0
TEXT
  5
63
330
53
100
AcDbEntity
  8
001
 62
     3
370
     9
100
AcDbText
 10
412.18287
 20
271.021446
 30
0.0
 40
4.0
  1
%%c１３５
 50
317.44397
 41
0.695652
100
AcDbText
  0
POINT
  5
64
330
53
100
AcDbEntity
  8
001
 62
     3
370
     9
100
AcDbPoint
 10
401.220944
 20
279.728378
 30
0.0
  0
POINT
  5
65
330
53
100
AcDbEntity
  8
001
 62
     3
370
     9
100
AcDbPoint
 10
500.664152
 20
188.426415
 30
0.0
  0
ENDBLK
  5
55
330
53
100
AcDbEntity
  8
0
100
AcDbBlockEnd
  0
BLOCK
  5
67
330
66
100
AcDbEntity
  8
0
100
AcDbBlockBegin
  2
DIM-2
 70
     0
 71
     0
 10
0.0
 20
0.0
 30
0.0
  3
DIM-2
  1

  0
TEXT
  5
69
330
66
100
AcDbEntity
  8
001
 62
     4
370
    30
100
AcDbText
 10
488.967186
 20
333.185747
 30
0.0
 40
4.0
  1
３－Ｍ４タップ，深サ７
 41
0.833333
100
AcDbText
  0
POLYLINE
  5
6A
330
66
100
AcDbEntity
  8
001
 62
     3
370
     9
100
AcDb2dPolyline
 66
     1
 10
0.0
 20
0.0
 30
0.0
  0
VERTEX
  5
6C
330
6A
100
AcDbEntity
  8
001
 62
     3
370
     9
100
AcDbVertex
100
AcDb2dVertex
 10
474.489578
 20
280.76962
 30
0.0
  0
VERTEX
  5
6D
330
6A
100
AcDbEntity
  8
001
 62
     3
370
     9
100
AcDbVertex
100
AcDb2dVertex
 10
475.079273
 20
278.784816
 30
0.0
  0
VERTEX
  5
6E
330
6A
100
AcDbEntity
  8
001
 62
     3
370
     9
100
AcDbVertex
100
AcDb2dVertex
 10
473.57618
 20
280.20886
 30
0.0
  0
SEQEND
  5
6B
330
6A
100
AcDbEntity
  8
001
370
     9
  0
POLYLINE
  5
70
330
66
100
AcDbEntity
  8
001
 62
     3
370
     9
100
AcDb2dPolyline
 66
     1
 10
0.0
 20
0.0
 30
0.0
  0
VERTEX
  5
72
330
70
100
AcDbEntity
  8
001
 62
     3
370
     9
100
AcDbVertex
100
AcDb2dVertex
 10
475.079273
 20
278.784816
 30
0.0
  0
VERTEX
  5
73
330
70
100
AcDbEntity
  8
001
 62
     3
370
     9
100
AcDbVertex
100
AcDb2dVertex
 10
465.66489
 20
294.119481
 30
0.0
  0
VERTEX
  5
74
330
70
100
AcDbEntity
  8
001
 62
     3
370
     9
100
AcDbVertex
100
AcDb2dVertex
 10
487.967186
 20
332.185747
 30
0.0
  0
VERTEX
  5
75
330
70
100
AcDbEntity
  8
001
 62
     3
370
     9
100
AcDbVertex
100
AcDb2dVertex
 10
541.967186
 20
332.185747
 30
0.0
  0
SEQEND
  5
71
330
70
100
AcDbEntity
  8
001
370
     9
  0
TEXT
  5
77
330
66
100
AcDbEntity
  8
001
 62
     4
370
    30
100
AcDbText
 10
488.967186
 20
327.185747
 30
0.0
 40
4.0
  1
口元%%c６．５×９０゜ザグリ
 41
0.844156
100
AcDbText
  0
POLYLINE
  5
78
330
66
100
AcDbEntity
  8
001
 62
     3
370
     9
100
AcDb2dPolyline
 66
     1
 10
0.0
 20
0.0
 30
0.0
  0
VERTEX
  5
7A
330
78
100
AcDbEntity
  8
001
 62
     3
370
     9
100
AcDbVertex
100
AcDb2dVertex
 10
487.967186
 20
326.185747
 30
0.0
  0
VERTEX
  5
7B
330
78
100
AcDbEntity
  8
001
 62
     3
370
     9
100
AcDbVertex
100
AcDb2dVertex
 10
541.967186
 20
326.185747
 30
0.0
  0
SEQEND
  5
79
330
78
100
AcDbEntity
  8
001
370
     9
  0
ENDBLK
  5
68
330
66
100
AcDbEntity
  8
0
100
AcDbBlockEnd
  0
BLOCK
  5
7E
330
7D
100
AcDbEntity
  8
0
100
AcDbBlockBegin
  2
DIM-3
 70
     0
 71
     0
 10
0.0
 20
0.0
 30
0.0
  3
DIM-3
  1

  0
TEXT
  5
80
330
7D
100
AcDbEntity
  8
001
 62
     4
370
    30
100
AcDbText
 10
476.740392
 20
138.451721
 30
0.0
 40
4.0
  1
６－１３キリ通シ
 41
0.833333
100
AcDbText
  0
POLYLINE
  5
81
330
7D
100
AcDbEntity
  8
001
 62
     3
370
     9
100
AcDb2dPolyline
 66
     1
 10
0.0
 20
0.0
 30
0.0
  0
VERTEX
  5
83
330
81
100
AcDbEntity
  8
001
 62
     3
370
     9
100
AcDbVertex
100
AcDb2dVertex
 10
456.044811
 20
159.758005
 30
0.0
  0
VERTEX
  5
84
330
81
100
AcDbEntity
  8
001
 62
     3
370
     9
100
AcDbVertex
100
AcDb2dVertex
 10
455.156308
 20
161.628232
 30
0.0
  0
VERTEX
  5
85
330
81
100
AcDbEntity
  8
001
 62
     3
370
     9
100
AcDbVertex
100
AcDb2dVertex
 10
456.860888
 20
160.45282
 30
0.0
  0
SEQEND
  5
82
330
81
100
AcDbEntity
  8
001
370
     9
  0
POLYLINE
  5
87
330
7D
100
AcDbEntity
  8
001
 62
     3
370
     9
100
AcDb2dPolyline
 66
     1
 10
0.0
 20
0.0
 30
0.0
  0
VERTEX
  5
89
330
87
100
AcDbEntity
  8
001
 62
     3
370
     9
100
AcDbVertex
100
AcDb2dVertex
 10
455.156308
 20
161.628232
 30
0.0
  0
VERTEX
  5
8A
330
87
100
AcDbEntity
  8
001
 62
     3
370
     9
100
AcDbVertex
100
AcDb2dVertex
 10
475.740392
 20
137.451721
 30
0.0
  0
VERTEX
  5
8B
330
87
100
AcDbEntity
  8
001
 62
     3
370
     9
100
AcDbVertex
100
AcDb2dVertex
 10
521.740392
 20
137.451721
 30
0.0
  0
SEQEND
  5
88
330
87
100
AcDbEntity
  8
001
370
     9
  0
TEXT
  5
8D
330
7D
100
AcDbEntity
  8
001
 62
     4
370
    30
100
AcDbText
 10
476.740392
 20
132.451721
 30
0.0
 40
4.0
  1
１９深ザグリ，深サ別記
 41
0.833333
100
AcDbText
  0
POLYLINE
  5
8E
330
7D
100
AcDbEntity
  8
001
 62
     3
370
     9
100
AcDb2dPolyline
 66
     1
 10
0.0
 20
0.0
 30
0.0
  0
VERTEX
  5
90
330
8E
100
AcDbEntity
  8
001
 62
     3
370
     9
100
AcDbVertex
100
AcDb2dVertex
 10
475.740392
 20
131.451721
 30
0.0
  0
VERTEX
  5
91
330
8E
100
AcDbEntity
  8
001
 62
     3
370
     9
100
AcDbVertex
100
AcDb2dVertex
 10
521.740392
 20
131.451721
 30
0.0
  0
SEQEND
  5
8F
330
8E
100
AcDbEntity
  8
001
370
     9
  0
ENDBLK
  5
7F
330
7D
100
AcDbEntity
  8
0
100
AcDbBlockEnd
  0
BLOCK
  5
94
330
93
100
AcDbEntity
  8
0
100
AcDbBlockBegin
  2
*D6
 70
     1
 71
     0
 10
0.0
 20
0.0
 30
0.0
  3
*D6
  1

  0
LINE
  5
96
330
93
100
AcDbEntity
  8
001
 62
     3
370
     9
100
AcDbLine
 10
158.972958
 20
201.577397
 30
0.0
 11
107.163041
 21
201.577397
 31
0.0
  0
LINE
  5
97
330
93
100
AcDbEntity
  8
001
 62
     3
370
     9
100
AcDbLine
 10
158.972958
 20
266.577397
 30
0.0
 11
107.163041
 21
266.577397
 31
0.0
  0
LINE
  5
98
330
93
100
AcDbEntity
  8
001
 62
     3
370
     9
100
AcDbLine
 10
108.363041
 20
201.577397
 30
0.0
 11
108.363041
 21
266.577397
 31
0.0
  0
POLYLINE
  5
99
330
93
100
AcDbEntity
  8
001
 62
     3
370
     9
100
AcDb2dPolyline
 66
     1
 10
0.0
 20
0.0
 30
0.0
  0
VERTEX
  5
9B
330
99
100
AcDbEntity
  8
001
 62
     3
370
     9
100
AcDbVertex
100
AcDb2dVertex
 10
108.89894
 20
203.577397
 30
0.0
  0
VERTEX
  5
9C
330
99
100
AcDbEntity
  8
001
 62
     3
370
     9
100
AcDbVertex
100
AcDb2dVertex
 10
108.363041
 20
201.577397
 30
0.0
  0
VERTEX
  5
9D
330
99
100
AcDbEntity
  8
001
 62
     3
370
     9
100
AcDbVertex
100
AcDb2dVertex
 10
107.827143
 20
203.577397
 30
0.0
  0
SEQEND
  5
9A
330
99
100
AcDbEntity
  8
001
370
     9
  0
POLYLINE
  5
9F
330
93
100
AcDbEntity
  8
001
 62
     3
370
     9
100
AcDb2dPolyline
 66
     1
 10
0.0
 20
0.0
 30
0.0
  0
VERTEX
  5
A1
330
9F
100
AcDbEntity
  8
001
 62
     3
370
     9
100
AcDbVertex
100
AcDb2dVertex
 10
107.827143
 20
264.577397
 30
0.0
  0
VERTEX
  5
A2
330
9F
100
AcDbEntity
  8
001
 62
     3
370
     9
100
AcDbVertex
100
AcDb2dVertex
 10
108.363041
 20
266.577397
 30
0.0
  0
VERTEX
  5
A3
330
9F
100
AcDbEntity
  8
001
 62
     3
370
     9
100
AcDbVertex
100
AcDb2dVertex
 10
108.89894
 20
264.577397
 30
0.0
  0
SEQEND
  5
A0
330
9F
100
AcDbEntity
  8
001
370
     9
  0
TEXT
  5
A5
330
93
100
AcDbEntity
  8
001
 62
     3
370
     9
100
AcDbText
 10
107.363041
 20
229.277397
 30
0.0
 40
4.0
  1
%%c６５
 50
90.000003
 41
0.705882
100
AcDbText
  0
POINT
  5
A6
330
93
100
AcDbEntity
  8
001
 62
     3
370
     9
100
AcDbPoint
 10
158.972958
 20
201.577397
 30
0.0
  0
POINT
  5
A7
330
93
100
AcDbEntity
  8
001
 62
     3
370
     9
100
AcDbPoint
 10
158.972958
 20
266.577397
 30
0.0
  0
POINT
  5
A8
330
93
100
AcDbEntity
  8
001
 62
     3
370
     9
100
AcDbPoint
 10
108.363041
 20
266.577397
 30
0.0
  0
ENDBLK
  5
95
330
93
100
AcDbEntity
  8
0
100
AcDbBlockEnd
  0
BLOCK
  5
AA
330
A9
100
AcDbEntity
  8
0
100
AcDbBlockBegin
  2
*D7
 70
     1
 71
     0
 10
0.0
 20
0.0
 30
0.0
  3
*D7
  1

  0
LINE
  5
AC
330
A9
100
AcDbEntity
  8
001
 62
     3
370
     9
100
AcDbLine
 10
178.472958
 20
212.827397
 30
0.0
 11
118.163041
 21
212.827397
 31
0.0
  0
LINE
  5
AD
330
A9
100
AcDbEntity
  8
001
 62
     3
370
     9
100
AcDbLine
 10
178.472958
 20
255.327397
 30
0.0
 11
118.163041
 21
255.327397
 31
0.0
  0
LINE
  5
AE
330
A9
100
AcDbEntity
  8
001
 62
     3
370
     9
100
AcDbLine
 10
119.363041
 20
212.827397
 30
0.0
 11
119.363041
 21
255.327397
 31
0.0
  0
POLYLINE
  5
AF
330
A9
100
AcDbEntity
  8
001
 62
     3
370
     9
100
AcDb2dPolyline
 66
     1
 10
0.0
 20
0.0
 30
0.0
  0
VERTEX
  5
B1
330
AF
100
AcDbEntity
  8
001
 62
     3
370
     9
100
AcDbVertex
100
AcDb2dVertex
 10
119.89894
 20
214.827397
 30
0.0
  0
VERTEX
  5
B2
330
AF
100
AcDbEntity
  8
001
 62
     3
370
     9
100
AcDbVertex
100
AcDb2dVertex
 10
119.363041
 20
212.827397
 30
0.0
  0
VERTEX
  5
B3
330
AF
100
AcDbEntity
  8
001
 62
     3
370
     9
100
AcDbVertex
100
AcDb2dVertex
 10
118.827143
 20
214.827397
 30
0.0
  0
SEQEND
  5
B0
330
AF
100
AcDbEntity
  8
001
370
     9
  0
POLYLINE
  5
B5
330
A9
100
AcDbEntity
  8
001
 62
     3
370
     9
100
AcDb2dPolyline
 66
     1
 10
0.0
 20
0.0
 30
0.0
  0
VERTEX
  5
B7
330
B5
100
AcDbEntity
  8
001
 62
     3
370
     9
100
AcDbVertex
100
AcDb2dVertex
 10
118.827143
 20
253.327397
 30
0.0
  0
VERTEX
  5
B8
330
B5
100
AcDbEntity
  8
001
 62
     3
370
     9
100
AcDbVertex
100
AcDb2dVertex
 10
119.363041
 20
255.327397
 30
0.0
  0
VERTEX
  5
B9
330
B5
100
AcDbEntity
  8
001
 62
     3
370
     9
100
AcDbVertex
100
AcDb2dVertex
 10
119.89894
 20
253.327397
 30
0.0
  0
SEQEND
  5
B6
330
B5
100
AcDbEntity
  8
001
370
     9
  0
TEXT
  5
BB
330
A9
100
AcDbEntity
  8
001
 62
     3
370
     9
100
AcDbText
 10
118.363041
 20
226.077397
 30
0.0
 40
4.0
  1
%%c４２．５
 50
90.000003
 41
0.689655
100
AcDbText
  0
POINT
  5
BC
330
A9
100
AcDbEntity
  8
001
 62
     3
370
     9
100
AcDbPoint
 10
178.472958
 20
212.827397
 30
0.0
  0
POINT
  5
BD
330
A9
100
AcDbEntity
  8
001
 62
     3
370
     9
100
AcDbPoint
 10
178.472958
 20
255.327397
 30
0.0
  0
POINT
  5
BE
330
A9
100
AcDbEntity
  8
001
 62
     3
370
     9
100
AcDbPoint
 10
119.363041
 20
255.327397
 30
0.0
  0
ENDBLK
  5
AB
330
A9
100
AcDbEntity
  8
0
100
AcDbBlockEnd
  0
BLOCK
  5
C0
330
BF
100
AcDbEntity
  8
0
100
AcDbBlockBegin
  2
*D8
 70
     1
 71
     0
 10
0.0
 20
0.0
 30
0.0
  3
*D8
  1

  0
LINE
  5
C2
330
BF
100
AcDbEntity
  8
001
 62
     3
370
     9
100
AcDbLine
 10
278.972971
 20
299.077397
 30
0.0
 11
323.242083
 21
299.077397
 31
0.0
  0
LINE
  5
C3
330
BF
100
AcDbEntity
  8
001
 62
     3
370
     9
100
AcDbLine
 10
278.972971
 20
169.077397
 30
0.0
 11
323.242083
 21
169.077397
 31
0.0
  0
LINE
  5
C4
330
BF
100
AcDbEntity
  8
001
 62
     3
370
     9
100
AcDbLine
 10
322.042083
 20
299.077397
 30
0.0
 11
322.042083
 21
169.077397
 31
0.0
  0
POLYLINE
  5
C5
330
BF
100
AcDbEntity
  8
001
 62
     3
370
     9
100
AcDb2dPolyline
 66
     1
 10
0.0
 20
0.0
 30
0.0
  0
VERTEX
  5
C7
330
C5
100
AcDbEntity
  8
001
 62
     3
370
     9
100
AcDbVertex
100
AcDb2dVertex
 10
321.506185
 20
297.077397
 30
0.0
  0
VERTEX
  5
C8
330
C5
100
AcDbEntity
  8
001
 62
     3
370
     9
100
AcDbVertex
100
AcDb2dVertex
 10
322.042083
 20
299.077397
 30
0.0
  0
VERTEX
  5
C9
330
C5
100
AcDbEntity
  8
001
 62
     3
370
     9
100
AcDbVertex
100
AcDb2dVertex
 10
322.577981
 20
297.077397
 30
0.0
  0
SEQEND
  5
C6
330
C5
100
AcDbEntity
  8
001
370
     9
  0
POLYLINE
  5
CB
330
BF
100
AcDbEntity
  8
001
 62
     3
370
     9
100
AcDb2dPolyline
 66
     1
 10
0.0
 20
0.0
 30
0.0
  0
VERTEX
  5
CD
330
CB
100
AcDbEntity
  8
001
 62
     3
370
     9
100
AcDbVertex
100
AcDb2dVertex
 10
322.577981
 20
171.077397
 30
0.0
  0
VERTEX
  5
CE
330
CB
100
AcDbEntity
  8
001
 62
     3
370
     9
100
AcDbVertex
100
AcDb2dVertex
 10
322.042083
 20
169.077397
 30
0.0
  0
VERTEX
  5
CF
330
CB
100
AcDbEntity
  8
001
 62
     3
370
     9
100
AcDbVertex
100
AcDb2dVertex
 10
321.506185
 20
171.077397
 30
0.0
  0
SEQEND
  5
CC
330
CB
100
AcDbEntity
  8
001
370
     9
  0
TEXT
  5
D1
330
BF
100
AcDbEntity
  8
001
 62
     3
370
     9
100
AcDbText
 10
321.042083
 20
227.677397
 30
0.0
 40
4.0
  1
%%c１３０
 50
90.000003
 41
0.695652
100
AcDbText
  0
POINT
  5
D2
330
BF
100
AcDbEntity
  8
001
 62
     3
370
     9
100
AcDbPoint
 10
278.972971
 20
299.077397
 30
0.0
  0
POINT
  5
D3
330
BF
100
AcDbEntity
  8
001
 62
     3
370
     9
100
AcDbPoint
 10
278.972971
 20
169.077397
 30
0.0
  0
POINT
  5
D4
330
BF
100
AcDbEntity
  8
001
 62
     3
370
     9
100
AcDbPoint
 10
322.042083
 20
169.077397
 30
0.0
  0
ENDBLK
  5
C1
330
BF
100
AcDbEntity
  8
0
100
AcDbBlockEnd
  0
BLOCK
  5
D6
330
D5
100
AcDbEntity
  8
0
100
AcDbBlockBegin
  2
*D9
 70
     1
 71
     0
 10
0.0
 20
0.0
 30
0.0
  3
*D9
  1

  0
LINE
  5
D8
330
D5
100
AcDbEntity
  8
001
 62
     3
370
     9
100
AcDbLine
 10
172.972958
 20
155.077397
 30
0.0
 11
172.972958
 21
105.97065
 31
0.0
  0
LINE
  5
D9
330
D5
100
AcDbEntity
  8
001
 62
     3
370
     9
100
AcDbLine
 10
282.972971
 20
173.077397
 30
0.0
 11
282.972971
 21
105.97065
 31
0.0
  0
LINE
  5
DA
330
D5
100
AcDbEntity
  8
001
 62
     3
370
     9
100
AcDbLine
 10
172.972958
 20
107.17065
 30
0.0
 11
282.972971
 21
107.17065
 31
0.0
  0
POLYLINE
  5
DB
330
D5
100
AcDbEntity
  8
001
 62
     3
370
     9
100
AcDb2dPolyline
 66
     1
 10
0.0
 20
0.0
 30
0.0
  0
VERTEX
  5
DD
330
DB
100
AcDbEntity
  8
001
 62
     3
370
     9
100
AcDbVertex
100
AcDb2dVertex
 10
174.972958
 20
106.634752
 30
0.0
  0
VERTEX
  5
DE
330
DB
100
AcDbEntity
  8
001
 62
     3
370
     9
100
AcDbVertex
100
AcDb2dVertex
 10
172.972958
 20
107.17065
 30
0.0
  0
VERTEX
  5
DF
330
DB
100
AcDbEntity
  8
001
 62
     3
370
     9
100
AcDbVertex
100
AcDb2dVertex
 10
174.972958
 20
107.706548
 30
0.0
  0
SEQEND
  5
DC
330
DB
100
AcDbEntity
  8
001
370
     9
  0
POLYLINE
  5
E1
330
D5
100
AcDbEntity
  8
001
 62
     3
370
     9
100
AcDb2dPolyline
 66
     1
 10
0.0
 20
0.0
 30
0.0
  0
VERTEX
  5
E3
330
E1
100
AcDbEntity
  8
001
 62
     3
370
     9
100
AcDbVertex
100
AcDb2dVertex
 10
280.972971
 20
107.706548
 30
0.0
  0
VERTEX
  5
E4
330
E1
100
AcDbEntity
  8
001
 62
     3
370
     9
100
AcDbVertex
100
AcDb2dVertex
 10
282.972971
 20
107.17065
 30
0.0
  0
VERTEX
  5
E5
330
E1
100
AcDbEntity
  8
001
 62
     3
370
     9
100
AcDbVertex
100
AcDb2dVertex
 10
280.972971
 20
106.634752
 30
0.0
  0
SEQEND
  5
E2
330
E1
100
AcDbEntity
  8
001
370
     9
  0
TEXT
  5
E7
330
D5
100
AcDbEntity
  8
001
 62
     3
370
     9
100
AcDbText
 10
223.172964
 20
108.17065
 30
0.0
 40
4.0
  1
１１０
 41
0.666667
100
AcDbText
  0
POINT
  5
E8
330
D5
100
AcDbEntity
  8
001
 62
     3
370
     9
100
AcDbPoint
 10
172.972958
 20
155.077397
 30
0.0
  0
POINT
  5
E9
330
D5
100
AcDbEntity
  8
001
 62
     3
370
     9
100
AcDbPoint
 10
282.972971
 20
173.077397
 30
0.0
  0
POINT
  5
EA
330
D5
100
AcDbEntity
  8
001
 62
     3
370
     9
100
AcDbPoint
 10
282.972971
 20
107.17065
 30
0.0
  0
ENDBLK
  5
D7
330
D5
100
AcDbEntity
  8
0
100
AcDbBlockEnd
  0
BLOCK
  5
EC
330
EB
100
AcDbEntity
  8
0
100
AcDbBlockBegin
  2
*D10
 70
     1
 71
     0
 10
0.0
 20
0.0
 30
0.0
  3
*D10
  1

  0
LINE
  5
EE
330
EB
100
AcDbEntity
  8
001
 62
     3
370
     9
100
AcDbLine
 10
157.972958
 20
202.577397
 30
0.0
 11
157.972958
 21
105.97065
 31
0.0
  0
LINE
  5
EF
330
EB
100
AcDbEntity
  8
001
 62
     3
370
     9
100
AcDbLine
 10
172.972958
 20
155.077397
 30
0.0
 11
172.972958
 21
105.97065
 31
0.0
  0
LINE
  5
F0
330
EB
100
AcDbEntity
  8
001
 62
     3
370
     9
100
AcDbLine
 10
157.972958
 20
107.17065
 30
0.0
 11
172.972958
 21
107.17065
 31
0.0
  0
POLYLINE
  5
F1
330
EB
100
AcDbEntity
  8
001
 62
     3
370
     9
100
AcDb2dPolyline
 66
     1
 10
0.0
 20
0.0
 30
0.0
  0
VERTEX
  5
F3
330
F1
100
AcDbEntity
  8
001
 62
     3
370
     9
100
AcDbVertex
100
AcDb2dVertex
 10
159.972958
 20
106.634752
 30
0.0
  0
VERTEX
  5
F4
330
F1
100
AcDbEntity
  8
001
 62
     3
370
     9
100
AcDbVertex
100
AcDb2dVertex
 10
157.972958
 20
107.17065
 30
0.0
  0
VERTEX
  5
F5
330
F1
100
AcDbEntity
  8
001
 62
     3
370
     9
100
AcDbVertex
100
AcDb2dVertex
 10
159.972958
 20
107.706548
 30
0.0
  0
SEQEND
  5
F2
330
F1
100
AcDbEntity
  8
001
370
     9
  0
POLYLINE
  5
F7
330
EB
100
AcDbEntity
  8
001
 62
     3
370
     9
100
AcDb2dPolyline
 66
     1
 10
0.0
 20
0.0
 30
0.0
  0
VERTEX
  5
F9
330
F7
100
AcDbEntity
  8
001
 62
     3
370
     9
100
AcDbVertex
100
AcDb2dVertex
 10
170.972958
 20
107.706548
 30
0.0
  0
VERTEX
  5
FA
330
F7
100
AcDbEntity
  8
001
 62
     3
370
     9
100
AcDbVertex
100
AcDb2dVertex
 10
172.972958
 20
107.17065
 30
0.0
  0
VERTEX
  5
FB
330
F7
100
AcDbEntity
  8
001
 62
     3
370
     9
100
AcDbVertex
100
AcDb2dVertex
 10
170.972958
 20
106.634752
 30
0.0
  0
SEQEND
  5
F8
330
F7
100
AcDbEntity
  8
001
370
     9
  0
TEXT
  5
FD
330
EB
100
AcDbEntity
  8
001
 62
     3
370
     9
100
AcDbText
 10
162.272958
 20
108.17065
 30
0.0
 40
4.0
  1
１５
 41
0.666667
100
AcDbText
  0
POINT
  5
FE
330
EB
100
AcDbEntity
  8
001
 62
     3
370
     9
100
AcDbPoint
 10
157.972958
 20
202.577397
 30
0.0
  0
POINT
  5
FF
330
EB
100
AcDbEntity
  8
001
 62
     3
370
     9
100
AcDbPoint
 10
172.972958
 20
155.077397
 30
0.0
  0
POINT
  5
100
330
EB
100
AcDbEntity
  8
001
 62
     3
370
     9
100
AcDbPoint
 10
172.972958
 20
107.17065
 30
0.0
  0
ENDBLK
  5
ED
330
EB
100
AcDbEntity
  8
0
100
AcDbBlockEnd
  0
BLOCK
  5
102
330
101
100
AcDbEntity
  8
0
100
AcDbBlockBegin
  2
*D11
 70
     1
 71
     0
 10
0.0
 20
0.0
 30
0.0
  3
*D11
  1

  0
LINE
  5
104
330
101
100
AcDbEntity
  8
001
 62
     3
370
     9
100
AcDbLine
 10
202.972958
 20
155.077397
 30
0.0
 11
202.972958
 21
116.97065
 31
0.0
  0
LINE
  5
105
330
101
100
AcDbEntity
  8
001
 62
     3
370
     9
100
AcDbLine
 10
172.972958
 20
155.077397
 30
0.0
 11
172.972958
 21
116.97065
 31
0.0
  0
LINE
  5
106
330
101
100
AcDbEntity
  8
001
 62
     3
370
     9
100
AcDbLine
 10
202.972958
 20
118.17065
 30
0.0
 11
172.972958
 21
118.17065
 31
0.0
  0
POLYLINE
  5
107
330
101
100
AcDbEntity
  8
001
 62
     3
370
     9
100
AcDb2dPolyline
 66
     1
 10
0.0
 20
0.0
 30
0.0
  0
VERTEX
  5
109
330
107
100
AcDbEntity
  8
001
 62
     3
370
     9
100
AcDbVertex
100
AcDb2dVertex
 10
200.972958
 20
118.706548
 30
0.0
  0
VERTEX
  5
10A
330
107
100
AcDbEntity
  8
001
 62
     3
370
     9
100
AcDbVertex
100
AcDb2dVertex
 10
202.972958
 20
118.17065
 30
0.0
  0
VERTEX
  5
10B
330
107
100
AcDbEntity
  8
001
 62
     3
370
     9
100
AcDbVertex
100
AcDb2dVertex
 10
200.972958
 20
117.634752
 30
0.0
  0
SEQEND
  5
108
330
107
100
AcDbEntity
  8
001
370
     9
  0
POLYLINE
  5
10D
330
101
100
AcDbEntity
  8
001
 62
     3
370
     9
100
AcDb2dPolyline
 66
     1
 10
0.0
 20
0.0
 30
0.0
  0
VERTEX
  5
10F
330
10D
100
AcDbEntity
  8
001
 62
     3
370
     9
100
AcDbVertex
100
AcDb2dVertex
 10
174.972958
 20
117.634752
 30
0.0
  0
VERTEX
  5
110
330
10D
100
AcDbEntity
  8
001
 62
     3
370
     9
100
AcDbVertex
100
AcDb2dVertex
 10
172.972958
 20
118.17065
 30
0.0
  0
VERTEX
  5
111
330
10D
100
AcDbEntity
  8
001
 62
     3
370
     9
100
AcDbVertex
100
AcDb2dVertex
 10
174.972958
 20
118.706548
 30
0.0
  0
SEQEND
  5
10E
330
10D
100
AcDbEntity
  8
001
370
     9
  0
TEXT
  5
113
330
101
100
AcDbEntity
  8
001
 62
     3
370
     9
100
AcDbText
 10
184.772958
 20
119.17065
 30
0.0
 40
4.0
  1
３０
 41
0.666667
100
AcDbText
  0
POINT
  5
114
330
101
100
AcDbEntity
  8
001
 62
     3
370
     9
100
AcDbPoint
 10
202.972958
 20
155.077397
 30
0.0
  0
POINT
  5
115
330
101
100
AcDbEntity
  8
001
 62
     3
370
     9
100
AcDbPoint
 10
172.972958
 20
155.077397
 30
0.0
  0
POINT
  5
116
330
101
100
AcDbEntity
  8
001
 62
     3
370
     9
100
AcDbPoint
 10
172.972958
 20
118.17065
 30
0.0
  0
ENDBLK
  5
103
330
101
100
AcDbEntity
  8
0
100
AcDbBlockEnd
  0
BLOCK
  5
118
330
117
100
AcDbEntity
  8
0
100
AcDbBlockBegin
  2
*D12
 70
     1
 71
     0
 10
0.0
 20
0.0
 30
0.0
  3
*D12
  1

  0
LINE
  5
11A
330
117
100
AcDbEntity
  8
001
 62
     3
370
     9
100
AcDbLine
 10
198.972971
 20
257.377397
 30
0.0
 11
198.972971
 21
345.403756
 31
0.0
  0
LINE
  5
11B
330
117
100
AcDbEntity
  8
001
 62
     3
370
     9
100
AcDbLine
 10
282.972971
 20
295.077397
 30
0.0
 11
282.972971
 21
345.403756
 31
0.0
  0
LINE
  5
11C
330
117
100
AcDbEntity
  8
001
 62
     3
370
     9
100
AcDbLine
 10
198.972971
 20
344.203756
 30
0.0
 11
282.972971
 21
344.203756
 31
0.0
  0
POLYLINE
  5
11D
330
117
100
AcDbEntity
  8
001
 62
     3
370
     9
100
AcDb2dPolyline
 66
     1
 10
0.0
 20
0.0
 30
0.0
  0
VERTEX
  5
11F
330
11D
100
AcDbEntity
  8
001
 62
     3
370
     9
100
AcDbVertex
100
AcDb2dVertex
 10
200.972971
 20
343.667858
 30
0.0
  0
VERTEX
  5
120
330
11D
100
AcDbEntity
  8
001
 62
     3
370
     9
100
AcDbVertex
100
AcDb2dVertex
 10
198.972971
 20
344.203756
 30
0.0
  0
VERTEX
  5
121
330
11D
100
AcDbEntity
  8
001
 62
     3
370
     9
100
AcDbVertex
100
AcDb2dVertex
 10
200.972971
 20
344.739655
 30
0.0
  0
SEQEND
  5
11E
330
11D
100
AcDbEntity
  8
001
370
     9
  0
POLYLINE
  5
123
330
117
100
AcDbEntity
  8
001
 62
     3
370
     9
100
AcDb2dPolyline
 66
     1
 10
0.0
 20
0.0
 30
0.0
  0
VERTEX
  5
125
330
123
100
AcDbEntity
  8
001
 62
     3
370
     9
100
AcDbVertex
100
AcDb2dVertex
 10
280.972971
 20
344.739655
 30
0.0
  0
VERTEX
  5
126
330
123
100
AcDbEntity
  8
001
 62
     3
370
     9
100
AcDbVertex
100
AcDb2dVertex
 10
282.972971
 20
344.203756
 30
0.0
  0
VERTEX
  5
127
330
123
100
AcDbEntity
  8
001
 62
     3
370
     9
100
AcDbVertex
100
AcDb2dVertex
 10
280.972971
 20
343.667858
 30
0.0
  0
SEQEND
  5
124
330
123
100
AcDbEntity
  8
001
370
     9
  0
TEXT
  5
129
330
117
100
AcDbEntity
  8
001
 62
     3
370
     9
100
AcDbText
 10
238.172971
 20
345.203756
 30
0.0
 40
3.5
  1
８４
 41
0.666667
100
AcDbText
  0
POINT
  5
12A
330
117
100
AcDbEntity
  8
001
 62
     3
370
     9
100
AcDbPoint
 10
198.972971
 20
257.377397
 30
0.0
  0
POINT
  5
12B
330
117
100
AcDbEntity
  8
001
 62
     3
370
     9
100
AcDbPoint
 10
282.972971
 20
295.077397
 30
0.0
  0
POINT
  5
12C
330
117
100
AcDbEntity
  8
001
 62
     3
370
     9
100
AcDbPoint
 10
282.972971
 20
344.203756
 30
0.0
  0
ENDBLK
  5
119
330
117
100
AcDbEntity
  8
0
100
AcDbBlockEnd
  0
BLOCK
  5
12E
330
12D
100
AcDbEntity
  8
0
100
AcDbBlockBegin
  2
*D13
 70
     1
 71
     0
 10
0.0
 20
0.0
 30
0.0
  3
*D13
  1

  0
LINE
  5
130
330
12D
100
AcDbEntity
  8
001
 62
     3
370
     9
100
AcDbLine
 10
171.972958
 20
259.577397
 30
0.0
 11
171.972958
 21
345.403756
 31
0.0
  0
LINE
  5
131
330
12D
100
AcDbEntity
  8
001
 62
     3
370
     9
100
AcDbLine
 10
157.972958
 20
265.577397
 30
0.0
 11
157.972958
 21
345.403756
 31
0.0
  0
LINE
  5
132
330
12D
100
AcDbEntity
  8
001
 62
     3
370
     9
100
AcDbLine
 10
171.972958
 20
344.203756
 30
0.0
 11
157.972958
 21
344.203756
 31
0.0
  0
POLYLINE
  5
133
330
12D
100
AcDbEntity
  8
001
 62
     3
370
     9
100
AcDb2dPolyline
 66
     1
 10
0.0
 20
0.0
 30
0.0
  0
VERTEX
  5
135
330
133
100
AcDbEntity
  8
001
 62
     3
370
     9
100
AcDbVertex
100
AcDb2dVertex
 10
169.972958
 20
344.739655
 30
0.0
  0
VERTEX
  5
136
330
133
100
AcDbEntity
  8
001
 62
     3
370
     9
100
AcDbVertex
100
AcDb2dVertex
 10
171.972958
 20
344.203756
 30
0.0
  0
VERTEX
  5
137
330
133
100
AcDbEntity
  8
001
 62
     3
370
     9
100
AcDbVertex
100
AcDb2dVertex
 10
169.972958
 20
343.667858
 30
0.0
  0
SEQEND
  5
134
330
133
100
AcDbEntity
  8
001
370
     9
  0
POLYLINE
  5
139
330
12D
100
AcDbEntity
  8
001
 62
     3
370
     9
100
AcDb2dPolyline
 66
     1
 10
0.0
 20
0.0
 30
0.0
  0
VERTEX
  5
13B
330
139
100
AcDbEntity
  8
001
 62
     3
370
     9
100
AcDbVertex
100
AcDb2dVertex
 10
159.972958
 20
343.667858
 30
0.0
  0
VERTEX
  5
13C
330
139
100
AcDbEntity
  8
001
 62
     3
370
     9
100
AcDbVertex
100
AcDb2dVertex
 10
157.972958
 20
344.203756
 30
0.0
  0
VERTEX
  5
13D
330
139
100
AcDbEntity
  8
001
 62
     3
370
     9
100
AcDbVertex
100
AcDb2dVertex
 10
159.972958
 20
344.739655
 30
0.0
  0
SEQEND
  5
13A
330
139
100
AcDbEntity
  8
001
370
     9
  0
TEXT
  5
13F
330
12D
100
AcDbEntity
  8
001
 62
     3
370
     9
100
AcDbText
 10
162.172958
 20
345.203756
 30
0.0
 40
3.5
  1
１４
 41
0.666667
100
AcDbText
  0
POINT
  5
140
330
12D
100
AcDbEntity
  8
001
 62
     3
370
     9
100
AcDbPoint
 10
171.972958
 20
259.577397
 30
0.0
  0
POINT
  5
141
330
12D
100
AcDbEntity
  8
001
 62
     3
370
     9
100
AcDbPoint
 10
157.972958
 20
265.577397
 30
0.0
  0
POINT
  5
142
330
12D
100
AcDbEntity
  8
001
 62
     3
370
     9
100
AcDbPoint
 10
157.972958
 20
344.203756
 30
0.0
  0
ENDBLK
  5
12F
330
12D
100
AcDbEntity
  8
0
100
AcDbBlockEnd
  0
BLOCK
  5
144
330
143
100
AcDbEntity
  8
0
100
AcDbBlockBegin
  2
*D14
 70
     1
 71
     0
 10
0.0
 20
0.0
 30
0.0
  3
*D14
  1

  0
LINE
  5
146
330
143
100
AcDbEntity
  8
001
 62
     3
370
     9
100
AcDbLine
 10
202.972958
 20
313.077397
 30
0.0
 11
202.972958
 21
335.403756
 31
0.0
  0
LINE
  5
147
330
143
100
AcDbEntity
  8
001
 62
     3
370
     9
100
AcDbLine
 10
189.972958
 20
311.077397
 30
0.0
 11
189.972958
 21
335.403756
 31
0.0
  0
LINE
  5
148
330
143
100
AcDbEntity
  8
001
 62
     3
370
     9
100
AcDbLine
 10
202.972958
 20
334.203756
 30
0.0
 11
189.972958
 21
334.203756
 31
0.0
  0
POLYLINE
  5
149
330
143
100
AcDbEntity
  8
001
 62
     3
370
     9
100
AcDb2dPolyline
 66
     1
 10
0.0
 20
0.0
 30
0.0
  0
VERTEX
  5
14B
330
149
100
AcDbEntity
  8
001
 62
     3
370
     9
100
AcDbVertex
100
AcDb2dVertex
 10
200.972958
 20
334.739655
 30
0.0
  0
VERTEX
  5
14C
330
149
100
AcDbEntity
  8
001
 62
     3
370
     9
100
AcDbVertex
100
AcDb2dVertex
 10
202.972958
 20
334.203756
 30
0.0
  0
VERTEX
  5
14D
330
149
100
AcDbEntity
  8
001
 62
     3
370
     9
100
AcDbVertex
100
AcDb2dVertex
 10
200.972958
 20
333.667858
 30
0.0
  0
SEQEND
  5
14A
330
149
100
AcDbEntity
  8
001
370
     9
  0
POLYLINE
  5
14F
330
143
100
AcDbEntity
  8
001
 62
     3
370
     9
100
AcDb2dPolyline
 66
     1
 10
0.0
 20
0.0
 30
0.0
  0
VERTEX
  5
151
330
14F
100
AcDbEntity
  8
001
 62
     3
370
     9
100
AcDbVertex
100
AcDb2dVertex
 10
191.972958
 20
333.667858
 30
0.0
  0
VERTEX
  5
152
330
14F
100
AcDbEntity
  8
001
 62
     3
370
     9
100
AcDbVertex
100
AcDb2dVertex
 10
189.972958
 20
334.203756
 30
0.0
  0
VERTEX
  5
153
330
14F
100
AcDbEntity
  8
001
 62
     3
370
     9
100
AcDbVertex
100
AcDb2dVertex
 10
191.972958
 20
334.739655
 30
0.0
  0
SEQEND
  5
150
330
14F
100
AcDbEntity
  8
001
370
     9
  0
TEXT
  5
155
330
143
100
AcDbEntity
  8
001
 62
     3
370
     9
100
AcDbText
 10
190.202008
 20
335.203756
 30
0.0
 40
4.0
  1
１３
 41
0.666667
100
AcDbText
  0
POINT
  5
156
330
143
100
AcDbEntity
  8
001
 62
     3
370
     9
100
AcDbPoint
 10
202.972958
 20
313.077397
 30
0.0
  0
POINT
  5
157
330
143
100
AcDbEntity
  8
001
 62
     3
370
     9
100
AcDbPoint
 10
189.972958
 20
311.077397
 30
0.0
  0
POINT
  5
158
330
143
100
AcDbEntity
  8
001
 62
     3
370
     9
100
AcDbPoint
 10
189.972958
 20
334.203756
 30
0.0
  0
ENDBLK
  5
145
330
143
100
AcDbEntity
  8
0
100
AcDbBlockEnd
  0
BLOCK
  5
15A
330
159
100
AcDbEntity
  8
0
100
AcDbBlockBegin
  2
*D15
 70
     1
 71
     0
 10
0.0
 20
0.0
 30
0.0
  3
*D15
  1

  0
LINE
  5
15C
330
159
100
AcDbEntity
  8
001
 62
     3
370
     9
100
AcDbLine
 10
173.972958
 20
154.077397
 30
0.0
 11
87.163041
 21
154.077397
 31
0.0
  0
LINE
  5
15D
330
159
100
AcDbEntity
  8
001
 62
     3
370
     9
100
AcDbLine
 10
173.972958
 20
314.077397
 30
0.0
 11
87.163041
 21
314.077397
 31
0.0
  0
LINE
  5
15E
330
159
100
AcDbEntity
  8
001
 62
     3
370
     9
100
AcDbLine
 10
88.363041
 20
154.077397
 30
0.0
 11
88.363041
 21
314.077397
 31
0.0
  0
POLYLINE
  5
15F
330
159
100
AcDbEntity
  8
001
 62
     3
370
     9
100
AcDb2dPolyline
 66
     1
 10
0.0
 20
0.0
 30
0.0
  0
VERTEX
  5
161
330
15F
100
AcDbEntity
  8
001
 62
     3
370
     9
100
AcDbVertex
100
AcDb2dVertex
 10
88.89894
 20
156.077397
 30
0.0
  0
VERTEX
  5
162
330
15F
100
AcDbEntity
  8
001
 62
     3
370
     9
100
AcDbVertex
100
AcDb2dVertex
 10
88.363041
 20
154.077397
 30
0.0
  0
VERTEX
  5
163
330
15F
100
AcDbEntity
  8
001
 62
     3
370
     9
100
AcDbVertex
100
AcDb2dVertex
 10
87.827143
 20
156.077397
 30
0.0
  0
SEQEND
  5
160
330
15F
100
AcDbEntity
  8
001
370
     9
  0
POLYLINE
  5
165
330
159
100
AcDbEntity
  8
001
 62
     3
370
     9
100
AcDb2dPolyline
 66
     1
 10
0.0
 20
0.0
 30
0.0
  0
VERTEX
  5
167
330
165
100
AcDbEntity
  8
001
 62
     3
370
     9
100
AcDbVertex
100
AcDb2dVertex
 10
87.827143
 20
312.077397
 30
0.0
  0
VERTEX
  5
168
330
165
100
AcDbEntity
  8
001
 62
     3
370
     9
100
AcDbVertex
100
AcDb2dVertex
 10
88.363041
 20
314.077397
 30
0.0
  0
VERTEX
  5
169
330
165
100
AcDbEntity
  8
001
 62
     3
370
     9
100
AcDbVertex
100
AcDb2dVertex
 10
88.89894
 20
312.077397
 30
0.0
  0
SEQEND
  5
166
330
165
100
AcDbEntity
  8
001
370
     9
  0
TEXT
  5
16B
330
159
100
AcDbEntity
  8
001
 62
     3
370
     9
100
AcDbText
 10
87.363041
 20
227.677397
 30
0.0
 40
4.0
  1
%%c１６０
 50
90.000003
 41
0.695652
100
AcDbText
  0
POINT
  5
16C
330
159
100
AcDbEntity
  8
001
 62
     3
370
     9
100
AcDbPoint
 10
173.972958
 20
154.077397
 30
0.0
  0
POINT
  5
16D
330
159
100
AcDbEntity
  8
001
 62
     3
370
     9
100
AcDbPoint
 10
173.972958
 20
314.077397
 30
0.0
  0
POINT
  5
16E
330
159
100
AcDbEntity
  8
001
 62
     3
370
     9
100
AcDbPoint
 10
88.363041
 20
314.077397
 30
0.0
  0
ENDBLK
  5
15B
330
159
100
AcDbEntity
  8
0
100
AcDbBlockEnd
  0
BLOCK
  5
170
330
16F
100
AcDbEntity
  8
0
100
AcDbBlockBegin
  2
DIM-4
 70
     0
 71
     0
 10
0.0
 20
0.0
 30
0.0
  3
DIM-4
  1

  0
TEXT
  5
172
330
16F
100
AcDbEntity
  8
001
 62
     4
370
    30
100
AcDbText
 10
130.983712
 20
93.508853
 30
0.0
 40
4.0
  1
ＭＡＸ　１８
 41
0.833333
100
AcDbText
  0
POLYLINE
  5
173
330
16F
100
AcDbEntity
  8
001
 62
     3
370
     9
100
AcDb2dPolyline
 66
     1
 10
0.0
 20
0.0
 30
0.0
  0
VERTEX
  5
175
330
173
100
AcDbEntity
  8
001
 62
     3
370
     9
100
AcDbVertex
100
AcDb2dVertex
 10
163.357966
 20
104.286992
 30
0.0
  0
VERTEX
  5
176
330
173
100
AcDbEntity
  8
001
 62
     3
370
     9
100
AcDbVertex
100
AcDb2dVertex
 10
164.926795
 20
105.638273
 30
0.0
  0
VERTEX
  5
177
330
173
100
AcDbEntity
  8
001
 62
     3
370
     9
100
AcDbVertex
100
AcDb2dVertex
 10
164.24379
 20
103.683614
 30
0.0
  0
SEQEND
  5
174
330
173
100
AcDbEntity
  8
001
370
     9
  0
POLYLINE
  5
179
330
16F
100
AcDbEntity
  8
001
 62
     3
370
     9
100
AcDb2dPolyline
 66
     1
 10
0.0
 20
0.0
 30
0.0
  0
VERTEX
  5
17B
330
179
100
AcDbEntity
  8
001
 62
     3
370
     9
100
AcDbVertex
100
AcDb2dVertex
 10
164.926795
 20
105.638273
 30
0.0
  0
VERTEX
  5
17C
330
179
100
AcDbEntity
  8
001
 62
     3
370
     9
100
AcDbVertex
100
AcDb2dVertex
 10
155.983712
 20
92.508853
 30
0.0
  0
VERTEX
  5
17D
330
179
100
AcDbEntity
  8
001
 62
     3
370
     9
100
AcDbVertex
100
AcDb2dVertex
 10
129.983712
 20
92.508853
 30
0.0
  0
SEQEND
  5
17A
330
179
100
AcDbEntity
  8
001
370
     9
  0
TEXT
  5
17F
330
16F
100
AcDbEntity
  8
001
 62
     4
370
    30
100
AcDbText
 10
130.983712
 20
87.508853
 30
0.0
 40
4.0
  1
ＭＩＮ　１３
 41
0.833333
100
AcDbText
  0
POLYLINE
  5
180
330
16F
100
AcDbEntity
  8
001
 62
     3
370
     9
100
AcDb2dPolyline
 66
     1
 10
0.0
 20
0.0
 30
0.0
  0
VERTEX
  5
182
330
180
100
AcDbEntity
  8
001
 62
     3
370
     9
100
AcDbVertex
100
AcDb2dVertex
 10
155.983712
 20
86.508853
 30
0.0
  0
VERTEX
  5
183
330
180
100
AcDbEntity
  8
001
 62
     3
370
     9
100
AcDbVertex
100
AcDb2dVertex
 10
129.983712
 20
86.508853
 30
0.0
  0
SEQEND
  5
181
330
180
100
AcDbEntity
  8
001
370
     9
  0
ENDBLK
  5
171
330
16F
100
AcDbEntity
  8
0
100
AcDbBlockEnd
  0
ENDSEC
  0
SECTION
  2
ENTITIES
  0
INSERT
  5
185
330
1F
100
AcDbEntity
  8
001
  6
ByBlock
 62
     0
370
    -2
100
AcDbBlockReference
  2
DIM-1
 10
0.0
 20
0.0
 30
0.0
  0
DIMENSION
  5
186
330
1F
100
AcDbEntity
  8
001
 62
     3
370
     9
100
AcDbDimension
  2
*D2
 10
403.286427
 20
218.94815
 30
0.0
 11
479.466788
 21
244.182085
 31
0.0
 70
   163
 71
     5
 42
-1.0
100
AcDbDiametricDimension
 15
498.598669
 25
249.206644
 35
0.0
 40
0.0
  0
DIMENSION
  5
187
330
1F
100
AcDbEntity
  8
001
 62
     3
370
     9
100
AcDbDimension
  2
*D3
 10
500.664152
 20
188.426415
 30
0.0
 11
412.18287
 21
271.021446
 31
0.0
 70
   163
 71
     5
 42
-1.0
100
AcDbDiametricDimension
 15
401.220944
 25
279.728378
 35
0.0
 40
0.0
  0
INSERT
  5
188
330
1F
100
AcDbEntity
  8
001
  6
ByBlock
 62
     0
370
    -2
100
AcDbBlockReference
  2
DIM-2
 10
0.0
 20
0.0
 30
0.0
  0
INSERT
  5
189
330
1F
100
AcDbEntity
  8
001
  6
ByBlock
 62
     0
370
    -2
100
AcDbBlockReference
  2
DIM-3
 10
0.0
 20
0.0
 30
0.0
  0
DIMENSION
  5
18A
330
1F
100
AcDbEntity
  8
001
 62
     3
370
     9
100
AcDbDimension
  2
*D6
 10
108.363041
 20
266.577397
 30
0.0
 11
107.363041
 21
229.277397
 31
0.0
 70
   160
 71
     5
 42
-1.0
100
AcDbAlignedDimension
 13
158.972958
 23
201.577397
 33
0.0
 14
158.972958
 24
266.577397
 34
0.0
 50
90.0
100
AcDbRotatedDimension
  0
DIMENSION
  5
18B
330
1F
100
AcDbEntity
  8
001
 62
     3
370
     9
100
AcDbDimension
  2
*D7
 10
119.363041
 20
255.327397
 30
0.0
 11
118.363041
 21
226.077397
 31
0.0
 70
   160
 71
     5
 42
-1.0
100
AcDbAlignedDimension
 13
178.472958
 23
212.827397
 33
0.0
 14
178.472958
 24
255.327397
 34
0.0
 50
90.0
100
AcDbRotatedDimension
  0
DIMENSION
  5
18C
330
1F
100
AcDbEntity
  8
001
 62
     3
370
     9
100
AcDbDimension
  2
*D8
 10
322.042083
 20
169.077397
 30
0.0
 11
321.042083
 21
227.677397
 31
0.0
 70
   160
 71
     5
 42
-1.0
100
AcDbAlignedDimension
 13
278.972971
 23
299.077397
 33
0.0
 14
278.972971
 24
169.077397
 34
0.0
 50
270.0
100
AcDbRotatedDimension
  0
DIMENSION
  5
18D
330
1F
100
AcDbEntity
  8
001
 62
     3
370
     9
100
AcDbDimension
  2
*D9
 10
282.972971
 20
107.17065
 30
0.0
 11
223.172964
 21
108.17065
 31
0.0
 70
   160
 71
     5
 42
-1.0
100
AcDbAlignedDimension
 13
172.972958
 23
155.077397
 33
0.0
 14
282.972971
 24
173.077397
 34
0.0
100
AcDbRotatedDimension
  0
TEXT
  5
18E
330
1F
100
AcDbEntity
  8
001
 62
     3
370
     9
100
AcDbText
 10
168.872958
 20
119.17065
 30
0.0
 40
4.0
  1
５
 41
0.666667
100
AcDbText
  0
POLYLINE
  5
18F
330
1F
100
AcDbEntity
  8
001
 62
     3
370
     9
100
AcDb2dPolyline
 66
     1
 10
0.0
 20
0.0
 30
0.0
  0
VERTEX
  5
191
330
18F
100
AcDbEntity
  8
001
 62
     3
370
     9
100
AcDbVertex
100
AcDb2dVertex
 10
169.972958
 20
117.634752
 30
0.0
  0
VERTEX
  5
192
330
18F
100
AcDbEntity
  8
001
 62
     3
370
     9
100
AcDbVertex
100
AcDb2dVertex
 10
167.972958
 20
118.17065
 30
0.0
  0
VERTEX
  5
193
330
18F
100
AcDbEntity
  8
001
 62
     3
370
     9
100
AcDbVertex
100
AcDb2dVertex
 10
169.972958
 20
118.706548
 30
0.0
  0
SEQEND
  5
190
330
18F
100
AcDbEntity
  8
001
370
     9
  0
POLYLINE
  5
195
330
1F
100
AcDbEntity
  8
001
 62
     3
370
     9
100
AcDb2dPolyline
 66
     1
 10
0.0
 20
0.0
 30
0.0
  0
VERTEX
  5
197
330
195
100
AcDbEntity
  8
001
 62
     3
370
     9
100
AcDbVertex
100
AcDb2dVertex
 10
170.972958
 20
118.706548
 30
0.0
  0
VERTEX
  5
198
330
195
100
AcDbEntity
  8
001
 62
     3
370
     9
100
AcDbVertex
100
AcDb2dVertex
 10
172.972958
 20
118.17065
 30
0.0
  0
VERTEX
  5
199
330
195
100
AcDbEntity
  8
001
 62
     3
370
     9
100
AcDbVertex
100
AcDb2dVertex
 10
170.972958
 20
117.634752
 30
0.0
  0
SEQEND
  5
196
330
195
100
AcDbEntity
  8
001
370
     9
  0
LINE
  5
19B
330
1F
100
AcDbEntity
  8
001
 62
     3
370
     9
100
AcDbLine
 10
167.972958
 20
118.17065
 30
0.0
 11
172.972958
 21
118.17065
 31
0.0
  0
POLYLINE
  5
19C
330
1F
100
AcDbEntity
  8
001
 62
     3
370
     9
100
AcDb2dPolyline
 66
     1
 10
0.0
 20
0.0
 30
0.0
  0
VERTEX
  5
19E
330
19C
100
AcDbEntity
  8
001
 62
     3
370
     9
100
AcDbVertex
100
AcDb2dVertex
 10
167.972958
 20
177.077397
 30
0.0
  0
VERTEX
  5
19F
330
19C
100
AcDbEntity
  8
001
 62
     3
370
     9
100
AcDbVertex
100
AcDb2dVertex
 10
167.972958
 20
118.17065
 30
0.0
  0
VERTEX
  5
1A0
330
19C
100
AcDbEntity
  8
001
 62
     3
370
     9
100
AcDbVertex
100
AcDb2dVertex
 10
167.972958
 20
116.97065
 30
0.0
  0
SEQEND
  5
19D
330
19C
100
AcDbEntity
  8
001
370
     9
  0
DIMENSION
  5
1A2
330
1F
100
AcDbEntity
  8
001
 62
     3
370
     9
100
AcDbDimension
  2
*D10
 10
172.972958
 20
107.17065
 30
0.0
 11
162.272958
 21
108.17065
 31
0.0
 70
   160
 71
     5
 42
-1.0
100
AcDbAlignedDimension
 13
157.972958
 23
202.577397
 33
0.0
 14
172.972958
 24
155.077397
 34
0.0
100
AcDbRotatedDimension
  0
DIMENSION
  5
1A3
330
1F
100
AcDbEntity
  8
001
 62
     3
370
     9
100
AcDbDimension
  2
*D11
 10
172.972958
 20
118.17065
 30
0.0
 11
184.772958
 21
119.17065
 31
0.0
 70
   160
 71
     5
 42
-1.0
100
AcDbAlignedDimension
 13
202.972958
 23
155.077397
 33
0.0
 14
172.972958
 24
155.077397
 34
0.0
 50
180.0
100
AcDbRotatedDimension
  0
DIMENSION
  5
1A4
330
1F
100
AcDbEntity
  8
001
 62
     3
370
     9
100
AcDbDimension
  2
*D12
 10
282.972971
 20
344.203756
 30
0.0
 11
238.172971
 21
345.203756
 31
0.0
 70
   160
 71
     5
 42
-1.0
100
AcDbAlignedDimension
 13
198.972971
 23
257.377397
 33
0.0
 14
282.972971
 24
295.077397
 34
0.0
100
AcDbRotatedDimension
  0
DIMENSION
  5
1A5
330
1F
100
AcDbEntity
  8
001
 62
     3
370
     9
100
AcDbDimension
  2
*D13
 10
157.972958
 20
344.203756
 30
0.0
 11
162.172958
 21
345.203756
 31
0.0
 70
   160
 71
     5
 42
-1.0
100
AcDbAlignedDimension
 13
171.972958
 23
259.577397
 33
0.0
 14
157.972958
 24
265.577397
 34
0.0
 50
180.0
100
AcDbRotatedDimension
  0
DIMENSION
  5
1A6
330
1F
100
AcDbEntity
  8
001
 62
     3
370
     9
100
AcDbDimension
  2
*D14
 10
189.972958
 20
334.203756
 30
0.0
 11
190.202008
 21
335.203756
 31
0.0
 70
   160
 71
     5
 42
-1.0
100
AcDbAlignedDimension
 13
202.972958
 23
313.077397
 33
0.0
 14
189.972958
 24
311.077397
 34
0.0
 50
180.0
100
AcDbRotatedDimension
  0
TEXT
  5
1A7
330
1F
100
AcDbEntity
  8
001
 62
     3
370
     9
100
AcDbText
 10
97.363041
 20
224.477396
 30
0.0
 40
4.0
  1
%%c１１５
 50
90.000003
 41
0.695652
100
AcDbText
  0
TEXT
  5
1A8
330
1F
100
AcDbEntity
  8
001
 62
     3
370
     9
100
AcDbText
 10
97.363041
 20
237.277397
 30
0.0
 40
4.0
  1
ｈ７
 50
90.000003
 41
0.666667
100
AcDbText
  0
POLYLINE
  5
1A9
330
1F
100
AcDbEntity
  8
001
 62
     3
370
     9
100
AcDb2dPolyline
 66
     1
 10
0.0
 20
0.0
 30
0.0
  0
VERTEX
  5
1AB
330
1A9
100
AcDbEntity
  8
001
 62
     3
370
     9
100
AcDbVertex
100
AcDb2dVertex
 10
97.827143
 20
289.577397
 30
0.0
  0
VERTEX
  5
1AC
330
1A9
100
AcDbEntity
  8
001
 62
     3
370
     9
100
AcDbVertex
100
AcDb2dVertex
 10
98.363041
 20
291.577397
 30
0.0
  0
VERTEX
  5
1AD
330
1A9
100
AcDbEntity
  8
001
 62
     3
370
     9
100
AcDbVertex
100
AcDb2dVertex
 10
98.89894
 20
289.577397
 30
0.0
  0
SEQEND
  5
1AA
330
1A9
100
AcDbEntity
  8
001
370
     9
  0
POLYLINE
  5
1AF
330
1F
100
AcDbEntity
  8
001
 62
     3
370
     9
100
AcDb2dPolyline
 66
     1
 10
0.0
 20
0.0
 30
0.0
  0
VERTEX
  5
1B1
330
1AF
100
AcDbEntity
  8
001
 62
     3
370
     9
100
AcDbVertex
100
AcDb2dVertex
 10
98.89894
 20
178.577397
 30
0.0
  0
VERTEX
  5
1B2
330
1AF
100
AcDbEntity
  8
001
 62
     3
370
     9
100
AcDbVertex
100
AcDb2dVertex
 10
98.363041
 20
176.577397
 30
0.0
  0
VERTEX
  5
1B3
330
1AF
100
AcDbEntity
  8
001
 62
     3
370
     9
100
AcDbVertex
100
AcDb2dVertex
 10
97.827143
 20
178.577397
 30
0.0
  0
SEQEND
  5
1B0
330
1AF
100
AcDbEntity
  8
001
370
     9
  0
LINE
  5
1B5
330
1F
100
AcDbEntity
  8
001
 62
     3
370
     9
100
AcDbLine
 10
98.363041
 20
291.577397
 30
0.0
 11
98.363041
 21
176.577397
 31
0.0
  0
POLYLINE
  5
1B6
330
1F
100
AcDbEntity
  8
001
 62
     3
370
     9
100
AcDb2dPolyline
 66
     1
 10
0.0
 20
0.0
 30
0.0
  0
VERTEX
  5
1B8
330
1B6
100
AcDbEntity
  8
001
 62
     3
370
     9
100
AcDbVertex
100
AcDb2dVertex
 10
168.472958
 20
291.577397
 30
0.0
  0
VERTEX
  5
1B9
330
1B6
100
AcDbEntity
  8
001
 62
     3
370
     9
100
AcDbVertex
100
AcDb2dVertex
 10
98.363041
 20
291.577397
 30
0.0
  0
VERTEX
  5
1BA
330
1B6
100
AcDbEntity
  8
001
 62
     3
370
     9
100
AcDbVertex
100
AcDb2dVertex
 10
97.163041
 20
291.577397
 30
0.0
  0
SEQEND
  5
1B7
330
1B6
100
AcDbEntity
  8
001
370
     9
  0
POLYLINE
  5
1BC
330
1F
100
AcDbEntity
  8
001
 62
     3
370
     9
100
AcDb2dPolyline
 66
     1
 10
0.0
 20
0.0
 30
0.0
  0
VERTEX
  5
1BE
330
1BC
100
AcDbEntity
  8
001
 62
     3
370
     9
100
AcDbVertex
100
AcDb2dVertex
 10
168.472958
 20
176.577397
 30
0.0
  0
VERTEX
  5
1BF
330
1BC
100
AcDbEntity
  8
001
 62
     3
370
     9
100
AcDbVertex
100
AcDb2dVertex
 10
98.363041
 20
176.577397
 30
0.0
  0
VERTEX
  5
1C0
330
1BC
100
AcDbEntity
  8
001
 62
     3
370
     9
100
AcDbVertex
100
AcDb2dVertex
 10
97.163041
 20
176.577397
 30
0.0
  0
SEQEND
  5
1BD
330
1BC
100
AcDbEntity
  8
001
370
     9
  0
DIMENSION
  5
1C2
330
1F
100
AcDbEntity
  8
001
 62
     3
370
     9
100
AcDbDimension
  2
*D15
 10
88.363041
 20
314.077397
 30
0.0
 11
87.363041
 21
227.677397
 31
0.0
 70
   160
 71
     5
 42
-1.0
100
AcDbAlignedDimension
 13
173.972958
 23
154.077397
 33
0.0
 14
173.972958
 24
314.077397
 34
0.0
 50
90.0
100
AcDbRotatedDimension
  0
INSERT
  5
1C3
330
1F
100
AcDbEntity
  8
001
  6
ByBlock
 62
     0
370
    -2
100
AcDbBlockReference
  2
DIM-4
 10
0.0
 20
0.0
 30
0.0
  0
LINE
  5
1C4
330
1F
100
AcDbEntity
  8
001
370
    30
100
AcDbLine
 10
198.972971
 20
210.777397
 30
0.0
 11
198.972971
 21
257.377397
 31
0.0
  0
LINE
  5
1C5
330
1F
100
AcDbEntity
  8
001
370
    30
100
AcDbLine
 10
175.972958
 20
258.077397
 30
0.0
 11
215.972958
 21
258.077397
 31
0.0
  0
LINE
  5
1C6
330
1F
100
AcDbEntity
  8
001
370
    30
100
AcDbLine
 10
216.845954
 20
257.077397
 30
0.0
 11
241.923288
 21
257.077397
 31
0.0
  0
LINE
  5
1C7
330
1F
100
AcDbEntity
  8
001
370
    30
100
AcDbLine
 10
282.972971
 20
259.077397
 30
0.0
 11
282.972971
 21
209.077397
 31
0.0
  0
LINE
  5
1C8
330
1F
100
AcDbEntity
  8
001
370
    30
100
AcDbLine
 10
252.102876
 20
246.577397
 30
0.0
 11
252.102876
 21
221.577397
 31
0.0
  0
LINE
  5
1C9
330
1F
100
AcDbEntity
  8
001
370
    30
100
AcDbLine
 10
281.972971
 20
260.077397
 30
0.0
 11
277.387184
 21
260.077397
 31
0.0
  0
LINE
  5
1CA
330
1F
100
AcDbEntity
  8
001
370
    30
100
AcDbLine
 10
275.972971
 20
260.221526
 30
0.0
 11
275.972971
 21
270.077397
 31
0.0
  0
ARC
  5
1CB
330
1F
100
AcDbEntity
  8
001
370
    30
100
AcDbCircle
 10
241.923288
 20
265.077397
 30
0.0
 40
7.999999999999996
100
AcDbArc
 50
270.0
 51
319.131245
  0
LINE
  5
1CC
330
1F
100
AcDbEntity
  8
001
370
    30
100
AcDbLine
 10
274.972971
 20
267.077397
 30
0.0
 11
247.972971
 21
259.842768
 31
0.0
  0
ARC
  5
1CD
330
1F
100
AcDbEntity
  8
001
370
    30
100
AcDbCircle
 10
274.972971
 20
266.077397
 30
0.0
 40
1.0
100
AcDbArc
 50
0.0
 51
90.0
  0
ARC
  5
1CE
330
1F
100
AcDbEntity
  8
001
370
    30
100
AcDbCircle
 10
216.845954
 20
265.077397
 30
0.0
 40
8.0
100
AcDbArc
 50
241.044976
 51
270.0
  0
LINE
  5
1CF
330
1F
100
AcDbEntity
  8
001
370
    30
100
AcDbLine
 10
198.972971
 20
257.377397
 30
0.0
 11
199.672971
 21
258.077397
 31
0.0
  0
LINE
  5
1D0
330
1F
100
AcDbEntity
  8
001
370
    30
100
AcDbLine
 10
282.972971
 20
259.077397
 30
0.0
 11
281.972971
 21
260.077397
 31
0.0
  0
LINE
  5
1D1
330
1F
100
AcDbEntity
  8
001
370
    30
100
AcDbLine
 10
241.972971
 20
252.180529
 30
0.0
 11
241.972971
 21
215.595862
 31
0.0
  0
LINE
  5
1D2
330
1F
100
AcDbEntity
  8
001
370
    30
100
AcDbLine
 10
199.472971
 20
255.077397
 30
0.0
 11
240.15312
 21
255.077397
 31
0.0
  0
LINE
  5
1D3
330
1F
100
AcDbEntity
  8
001
370
    30
100
AcDbLine
 10
199.472971
 20
255.077397
 30
0.0
 11
199.472971
 21
213.077397
 31
0.0
  0
LINE
  5
1D4
330
1F
100
AcDbEntity
  8
001
370
    30
100
AcDbLine
 10
199.472971
 20
255.077397
 30
0.0
 11
198.972971
 21
255.366072
 31
0.0
  0
LINE
  5
1D5
330
1F
100
AcDbEntity
  8
001
  6
CENTER
 62
     3
370
     9
100
AcDbLine
 10
450.942548
 20
146.32234
 30
0.0
 11
450.942548
 21
321.832453
 31
0.0
  0
LINE
  5
1D6
330
1F
100
AcDbEntity
  8
001
370
    30
100
AcDbLine
 10
216.845954
 20
211.077397
 30
0.0
 11
241.923288
 21
211.077397
 31
0.0
  0
CIRCLE
  5
1D7
330
1F
100
AcDbEntity
  8
001
370
    30
100
AcDbCircle
 10
450.942548
 20
234.077397
 30
0.0
 40
27.0
  0
LINE
  5
1D8
330
1F
100
AcDbEntity
  8
001
370
    30
100
AcDbLine
 10
281.972971
 20
208.077397
 30
0.0
 11
277.387184
 21
208.077397
 31
0.0
  0
LINE
  5
1D9
330
1F
100
AcDbEntity
  8
001
370
    30
100
AcDbLine
 10
275.972971
 20
208.020186
 30
0.0
 11
275.972971
 21
198.077397
 31
0.0
  0
ARC
  5
1DA
330
1F
100
AcDbEntity
  8
001
370
    30
100
AcDbCircle
 10
241.923288
 20
203.077397
 30
0.0
 40
8.0
100
AcDbArc
 50
40.868755
 51
90.0
  0
LINE
  5
1DB
330
1F
100
AcDbEntity
  8
001
370
    30
100
AcDbLine
 10
274.972971
 20
201.077397
 30
0.0
 11
247.972971
 21
208.312025
 31
0.0
  0
ARC
  5
1DC
330
1F
100
AcDbEntity
  8
001
370
    30
100
AcDbCircle
 10
274.972971
 20
202.077397
 30
0.0
 40
1.0
100
AcDbArc
 50
270.0
 51
0.0
  0
ARC
  5
1DD
330
1F
100
AcDbEntity
  8
001
370
    30
100
AcDbCircle
 10
216.845954
 20
203.077397
 30
0.0
 40
7.999999999999996
100
AcDbArc
 50
90.0
 51
118.955024
  0
LINE
  5
1DE
330
1F
100
AcDbEntity
  8
001
370
    30
100
AcDbLine
 10
198.972971
 20
210.777397
 30
0.0
 11
199.672971
 21
210.077397
 31
0.0
  0
LINE
  5
1DF
330
1F
100
AcDbEntity
  8
001
370
    30
100
AcDbLine
 10
282.972971
 20
209.077397
 30
0.0
 11
281.972971
 21
208.077397
 31
0.0
  0
LINE
  5
1E0
330
1F
100
AcDbEntity
  8
001
370
    30
100
AcDbLine
 10
199.472971
 20
213.077397
 30
0.0
 11
240.15312
 21
213.077397
 31
0.0
  0
LINE
  5
1E1
330
1F
100
AcDbEntity
  8
001
370
    30
100
AcDbLine
 10
199.472971
 20
213.077397
 30
0.0
 11
198.972971
 21
212.788721
 31
0.0
  0
LINE
  5
1E2
330
1F
100
AcDbEntity
  8
001
  6
CENTER
 62
     3
370
     9
100
AcDbLine
 10
363.187492
 20
234.077397
 30
0.0
 11
536.322323
 21
234.077397
 31
0.0
  0
ARC
  5
1E3
330
1F
100
AcDbEntity
  8
001
370
    30
100
AcDbCircle
 10
275.972971
 20
208.077397
 30
0.0
 40
1.000000000000003
100
AcDbArc
 50
45.0
 51
225.0
  0
LINE
  5
1E4
330
1F
100
AcDbEntity
  8
001
370
    30
100
AcDbLine
 10
276.680078
 20
208.784503
 30
0.0
 11
277.387184
 21
208.077397
 31
0.0
  0
LINE
  5
1E5
330
1F
100
AcDbEntity
  8
001
370
    30
100
AcDbLine
 10
243.367058
 20
253.907619
 30
0.0
 11
252.102876
 21
246.577397
 31
0.0
  0
LINE
  5
1E6
330
1F
100
AcDbEntity
  8
001
370
    30
100
AcDbLine
 10
275.265864
 20
207.37029
 30
0.0
 11
275.972971
 21
206.663183
 31
0.0
  0
ARC
  5
1E7
330
1F
100
AcDbEntity
  8
001
370
    30
100
AcDbCircle
 10
275.972971
 20
260.077397
 30
0.0
 40
1.000000000000008
100
AcDbArc
 50
135.0
 51
315.0
  0
LINE
  5
1E8
330
1F
100
AcDbEntity
  8
001
370
    30
100
AcDbLine
 10
276.680078
 20
259.37029
 30
0.0
 11
277.387184
 21
260.077397
 31
0.0
  0
LINE
  5
1E9
330
1F
100
AcDbEntity
  8
001
370
    30
100
AcDbLine
 10
275.265864
 20
260.784503
 30
0.0
 11
275.972971
 21
261.49161
 31
0.0
  0
ARC
  5
1EA
330
1F
100
AcDbEntity
  8
001
370
    30
100
AcDbCircle
 10
240.15312
 20
250.077397
 30
0.0
 40
5.0
100
AcDbArc
 50
50.0
 51
90.0
  0
LINE
  5
1EB
330
1F
100
AcDbEntity
  8
001
370
    30
100
AcDbLine
 10
243.367058
 20
214.247174
 30
0.0
 11
252.102876
 21
221.577397
 31
0.0
  0
ARC
  5
1EC
330
1F
100
AcDbEntity
  8
001
370
    30
100
AcDbCircle
 10
240.15312
 20
218.077397
 30
0.0
 40
5.000000000000003
100
AcDbArc
 50
270.0
 51
310.0
  0
LINE
  5
1ED
330
1F
100
AcDbEntity
  8
001
370
    30
100
AcDbLine
 10
260.320487
 20
263.668914
 30
0.0
 11
268.047894
 21
265.739466
 31
0.0
  0
LINE
  5
1EE
330
1F
100
AcDbEntity
  8
001
370
    30
100
AcDbLine
 10
157.972958
 20
265.577397
 30
0.0
 11
157.972958
 21
202.577397
 31
0.0
  0
LINE
  5
1EF
330
1F
100
AcDbEntity
  8
001
370
    30
100
AcDbLine
 10
168.972958
 20
273.077397
 30
0.0
 11
179.972958
 21
273.077397
 31
0.0
  0
LINE
  5
1F0
330
1F
100
AcDbEntity
  8
001
370
    30
100
AcDbLine
 10
158.972958
 20
266.577397
 30
0.0
 11
167.172958
 21
266.577397
 31
0.0
  0
ARC
  5
1F1
330
1F
100
AcDbEntity
  8
001
370
    30
100
AcDbCircle
 10
167.172958
 20
267.377397
 30
0.0
 40
0.8000000000000114
100
AcDbArc
 50
270.0
 51
0.0
  0
LINE
  5
1F2
330
1F
100
AcDbEntity
  8
001
370
    30
100
AcDbLine
 10
168.972958
 20
273.077397
 30
0.0
 11
167.972958
 21
272.077397
 31
0.0
  0
LINE
  5
1F3
330
1F
100
AcDbEntity
  8
001
370
    30
100
AcDbLine
 10
157.972958
 20
265.577397
 30
0.0
 11
158.972958
 21
266.577397
 31
0.0
  0
LINE
  5
1F4
330
1F
100
AcDbEntity
  8
001
 62
     3
370
     9
100
AcDbLine
 10
227.472958
 20
259.077397
 30
0.0
 11
240.472958
 21
259.077397
 31
0.0
  0
LINE
  5
1F5
330
1F
100
AcDbEntity
  8
001
370
    30
100
AcDbLine
 10
227.972958
 20
258.577397
 30
0.0
 11
239.972958
 21
258.577397
 31
0.0
  0
LINE
  5
1F6
330
1F
100
AcDbEntity
  8
001
370
    30
100
AcDbLine
 10
240.972958
 20
259.577397
 30
0.0
 11
239.972958
 21
258.577397
 31
0.0
  0
LINE
  5
1F7
330
1F
100
AcDbEntity
  8
001
370
    30
100
AcDbLine
 10
226.972958
 20
259.577397
 30
0.0
 11
227.972958
 21
258.577397
 31
0.0
  0
LINE
  5
1F8
330
1F
100
AcDbEntity
  8
001
370
    30
100
AcDbLine
 10
215.972958
 20
258.077397
 30
0.0
 11
215.972958
 21
257.118102
 31
0.0
  0
LINE
  5
1F9
330
1F
100
AcDbEntity
  8
001
370
    30
100
AcDbLine
 10
176.972958
 20
259.177397
 30
0.0
 11
176.972958
 21
258.077397
 31
0.0
  0
LINE
  5
1FA
330
1F
100
AcDbEntity
  8
001
370
    30
100
AcDbLine
 10
171.972958
 20
259.577397
 30
0.0
 11
170.722958
 21
258.327397
 31
0.0
  0
LINE
  5
1FB
330
1F
100
AcDbEntity
  8
001
370
    30
100
AcDbLine
 10
219.543672
 20
259.577397
 30
0.0
 11
226.972958
 21
259.577397
 31
0.0
  0
LINE
  5
1FC
330
1F
100
AcDbEntity
  8
001
370
    30
100
AcDbLine
 10
240.972958
 20
259.577397
 30
0.0
 11
245.050738
 21
259.577397
 31
0.0
  0
LINE
  5
1FD
330
1F
100
AcDbEntity
  8
001
370
    30
100
AcDbLine
 10
240.972958
 20
259.577397
 30
0.0
 11
240.972958
 21
257.077397
 31
0.0
  0
LINE
  5
1FE
330
1F
100
AcDbEntity
  8
001
370
    30
100
AcDbLine
 10
239.972958
 20
258.577397
 30
0.0
 11
239.972958
 21
257.077397
 31
0.0
  0
LINE
  5
1FF
330
1F
100
AcDbEntity
  8
001
370
    30
100
AcDbLine
 10
226.972958
 20
259.577397
 30
0.0
 11
226.972958
 21
257.077397
 31
0.0
  0
LINE
  5
200
330
1F
100
AcDbEntity
  8
001
370
    30
100
AcDbLine
 10
227.972958
 20
258.577397
 30
0.0
 11
227.972958
 21
257.077397
 31
0.0
  0
ARC
  5
201
330
1F
100
AcDbEntity
  8
001
370
    30
100
AcDbCircle
 10
219.543672
 20
254.577397
 30
0.0
 40
5.000000000000006
100
AcDbArc
 50
90.0
 51
135.572996
  0
LINE
  5
202
330
1F
100
AcDbEntity
  8
001
370
    30
100
AcDbLine
 10
272.531217
 20
278.251045
 30
0.0
 11
273.972958
 21
270.074525
 31
0.0
  0
LINE
  5
203
330
1F
100
AcDbEntity
  8
001
370
    30
100
AcDbLine
 10
168.472958
 20
291.577397
 30
0.0
 11
171.972958
 21
291.577397
 31
0.0
  0
LINE
  5
204
330
1F
100
AcDbEntity
  8
001
370
    30
100
AcDbLine
 10
167.972958
 20
291.077397
 30
0.0
 11
168.472958
 21
291.577397
 31
0.0
  0
LINE
  5
205
330
1F
100
AcDbEntity
  8
001
370
    30
100
AcDbLine
 10
172.972958
 20
291.577397
 30
0.0
 11
172.972958
 21
313.077397
 31
0.0
  0
LINE
  5
206
330
1F
100
AcDbEntity
  8
001
370
    30
100
AcDbLine
 10
172.680065
 20
291.077397
 30
0.0
 11
172.972958
 21
291.077397
 31
0.0
  0
LINE
  5
207
330
1F
100
AcDbEntity
  8
001
370
    30
100
AcDbLine
 10
172.972958
 20
293.577397
 30
0.0
 11
173.326512
 21
293.223843
 31
0.0
  0
LINE
  5
208
330
1F
100
AcDbEntity
  8
001
370
    30
100
AcDbLine
 10
173.472958
 20
292.87029
 30
0.0
 11
173.472958
 21
291.577397
 31
0.0
  0
LINE
  5
209
330
1F
100
AcDbEntity
  8
001
370
    30
100
AcDbLine
 10
171.972958
 20
291.577397
 30
0.0
 11
172.326512
 21
291.223843
 31
0.0
  0
ARC
  5
20A
330
1F
100
AcDbEntity
  8
001
370
    30
100
AcDbCircle
 10
172.972958
 20
292.87029
 30
0.0
 40
0.500000000000004
100
AcDbArc
 50
0.0
 51
45.0
  0
ARC
  5
20B
330
1F
100
AcDbEntity
  8
001
370
    30
100
AcDbCircle
 10
172.972958
 20
291.577397
 30
0.0
 40
0.5
100
AcDbArc
 50
270.0
 51
0.0
  0
ARC
  5
20C
330
1F
100
AcDbEntity
  8
001
370
    30
100
AcDbCircle
 10
172.680065
 20
291.577397
 30
0.0
 40
0.5
100
AcDbArc
 50
225.0
 51
270.0
  0
LINE
  5
20D
330
1F
100
AcDbEntity
  8
001
370
    30
100
AcDbLine
 10
173.972958
 20
314.077397
 30
0.0
 11
201.972958
 21
314.077397
 31
0.0
  0
LINE
  5
20E
330
1F
100
AcDbEntity
  8
001
370
    30
100
AcDbLine
 10
172.972958
 20
313.077397
 30
0.0
 11
173.972958
 21
314.077397
 31
0.0
  0
LINE
  5
20F
330
1F
100
AcDbEntity
  8
001
  6
CENTER
 62
     3
370
     9
100
AcDbLine
 10
169.264328
 20
301.577397
 30
0.0
 11
205.668822
 21
301.577397
 31
0.0
  0
LINE
  5
210
330
1F
100
AcDbEntity
  8
001
370
    30
100
AcDbLine
 10
202.972958
 20
313.077397
 30
0.0
 11
202.972958
 21
300.577397
 31
0.0
  0
LINE
  5
211
330
1F
100
AcDbEntity
  8
001
370
    30
100
AcDbLine
 10
189.972958
 20
311.077397
 30
0.0
 11
189.972958
 21
292.077397
 31
0.0
  0
LINE
  5
212
330
1F
100
AcDbEntity
  8
001
370
    30
100
AcDbLine
 10
173.472958
 20
308.077397
 30
0.0
 11
189.972958
 21
308.077397
 31
0.0
  0
LINE
  5
213
330
1F
100
AcDbEntity
  8
001
370
    30
100
AcDbLine
 10
173.472958
 20
295.077397
 30
0.0
 11
189.972958
 21
295.077397
 31
0.0
  0
LINE
  5
214
330
1F
100
AcDbEntity
  8
001
370
    30
100
AcDbLine
 10
189.972958
 20
292.077397
 30
0.0
 11
254.472958
 21
292.077397
 31
0.0
  0
LINE
  5
215
330
1F
100
AcDbEntity
  8
001
370
    30
100
AcDbLine
 10
189.972958
 20
311.077397
 30
0.0
 11
201.972958
 21
311.077397
 31
0.0
  0
LINE
  5
216
330
1F
100
AcDbEntity
  8
001
370
    30
100
AcDbLine
 10
172.972958
 20
308.577397
 30
0.0
 11
173.472958
 21
308.077397
 31
0.0
  0
LINE
  5
217
330
1F
100
AcDbEntity
  8
001
370
    30
100
AcDbLine
 10
172.972958
 20
294.577397
 30
0.0
 11
173.472958
 21
295.077397
 31
0.0
  0
LINE
  5
218
330
1F
100
AcDbEntity
  8
001
370
    30
100
AcDbLine
 10
173.472958
 20
308.077397
 30
0.0
 11
173.472958
 21
295.077397
 31
0.0
  0
LINE
  5
219
330
1F
100
AcDbEntity
  8
001
370
    30
100
AcDbLine
 10
205.795834
 20
299.077397
 30
0.0
 11
252.972958
 21
299.077397
 31
0.0
  0
ARC
  5
21A
330
1F
100
AcDbEntity
  8
001
370
    30
100
AcDbCircle
 10
204.472958
 20
300.577397
 30
0.0
 40
2.000000000000003
100
AcDbArc
 50
138.590378
 51
311.409622
  0
LINE
  5
21B
330
1F
100
AcDbEntity
  8
001
370
    30
100
AcDbLine
 10
201.972958
 20
314.077397
 30
0.0
 11
202.972958
 21
313.077397
 31
0.0
  0
LINE
  5
21C
330
1F
100
AcDbEntity
  8
001
370
    30
100
AcDbLine
 10
201.972958
 20
311.077397
 30
0.0
 11
202.972958
 21
312.077397
 31
0.0
  0
LINE
  5
21D
330
1F
100
AcDbEntity
  8
001
370
    30
100
AcDbLine
 10
201.972958
 20
311.077397
 30
0.0
 11
201.972958
 21
306.01312
 31
0.0
  0
LINE
  5
21E
330
1F
100
AcDbEntity
  8
001
370
    30
100
AcDbLine
 10
254.472958
 20
292.077397
 30
0.0
 11
254.972958
 21
291.577397
 31
0.0
  0
LINE
  5
21F
330
1F
100
AcDbEntity
  8
001
370
    30
100
AcDbLine
 10
254.472958
 20
292.077397
 30
0.0
 11
254.472958
 21
298.400272
 31
0.0
  0
ARC
  5
220
330
1F
100
AcDbEntity
  8
001
370
    30
100
AcDbCircle
 10
252.972958
 20
297.077397
 30
0.0
 40
2.0
100
AcDbArc
 50
0.0
 51
90.0
  0
LINE
  5
221
330
1F
100
AcDbEntity
  8
001
370
    30
100
AcDbLine
 10
254.972958
 20
297.077397
 30
0.0
 11
254.972958
 21
289.077397
 31
0.0
  0
LINE
  5
222
330
1F
100
AcDbEntity
  8
001
370
    30
100
AcDbLine
 10
257.972971
 20
299.077397
 30
0.0
 11
278.972971
 21
299.077397
 31
0.0
  0
LINE
  5
223
330
1F
100
AcDbEntity
  8
001
370
    30
100
AcDbLine
 10
282.972971
 20
259.077397
 30
0.0
 11
282.972971
 21
295.077397
 31
0.0
  0
LINE
  5
224
330
1F
100
AcDbEntity
  8
001
370
    30
100
AcDbLine
 10
276.472971
 20
261.077397
 30
0.0
 11
280.672971
 21
261.077397
 31
0.0
  0
LINE
  5
225
330
1F
100
AcDbEntity
  8
001
370
    30
100
AcDbLine
 10
282.472971
 20
261.077397
 30
0.0
 11
282.972971
 21
261.577397
 31
0.0
  0
LINE
  5
226
330
1F
100
AcDbEntity
  8
001
370
    30
100
AcDbLine
 10
280.672971
 20
260.077397
 30
0.0
 11
280.672971
 21
263.077397
 31
0.0
  0
LINE
  5
227
330
1F
100
AcDbEntity
  8
001
370
    30
100
AcDbLine
 10
281.872971
 20
263.077397
 30
0.0
 11
281.872971
 21
260.077397
 31
0.0
  0
LINE
  5
228
330
1F
100
AcDbEntity
  8
001
370
    30
100
AcDbLine
 10
280.672971
 20
263.077397
 30
0.0
 11
281.872971
 21
263.077397
 31
0.0
  0
LINE
  5
229
330
1F
100
AcDbEntity
  8
001
370
    30
100
AcDbLine
 10
281.872971
 20
261.077397
 30
0.0
 11
282.472971
 21
261.077397
 31
0.0
  0
LINE
  5
22A
330
1F
100
AcDbEntity
  8
001
370
    30
100
AcDbLine
 10
275.972971
 20
261.577397
 30
0.0
 11
276.472971
 21
261.077397
 31
0.0
  0
LINE
  5
22B
330
1F
100
AcDbEntity
  8
001
370
    30
100
AcDbLine
 10
274.492054
 20
278.476096
 30
0.0
 11
275.972971
 21
270.077397
 31
0.0
  0
ARC
  5
22C
330
1F
100
AcDbEntity
  8
001
370
    30
100
AcDbCircle
 10
278.972971
 20
295.077397
 30
0.0
 40
4.0
100
AcDbArc
 50
0.0
 51
90.0
  0
ARC
  5
22D
330
1F
100
AcDbEntity
  8
001
370
    30
100
AcDbCircle
 10
257.972971
 20
297.077397
 30
0.0
 40
2.0
100
AcDbArc
 50
90.0
 51
180.0
  0
LINE
  5
22E
330
1F
100
AcDbEntity
  8
001
370
    30
100
AcDbLine
 10
273.972958
 20
201.345349
 30
0.0
 11
273.972958
 21
198.080268
 31
0.0
  0
ARC
  5
22F
330
1F
100
AcDbEntity
  8
001
370
    30
100
AcDbCircle
 10
272.972958
 20
200.578022
 30
0.0
 40
0.9999999999999973
100
AcDbArc
 50
0.0
 51
75.0
  0
LINE
  5
230
330
1F
100
AcDbEntity
  8
001
 62
     3
370
     9
100
AcDbLine
 10
227.472958
 20
209.077397
 30
0.0
 11
240.472958
 21
209.077397
 31
0.0
  0
LINE
  5
231
330
1F
100
AcDbEntity
  8
001
370
    30
100
AcDbLine
 10
227.972958
 20
209.577397
 30
0.0
 11
239.972958
 21
209.577397
 31
0.0
  0
LINE
  5
232
330
1F
100
AcDbEntity
  8
001
370
    30
100
AcDbLine
 10
240.972958
 20
208.577397
 30
0.0
 11
239.972958
 21
209.577397
 31
0.0
  0
LINE
  5
233
330
1F
100
AcDbEntity
  8
001
370
    30
100
AcDbLine
 10
226.972958
 20
208.577397
 30
0.0
 11
227.972958
 21
209.577397
 31
0.0
  0
LINE
  5
234
330
1F
100
AcDbEntity
  8
001
370
    30
100
AcDbLine
 10
215.972958
 20
210.077397
 30
0.0
 11
215.972958
 21
211.036691
 31
0.0
  0
LINE
  5
235
330
1F
100
AcDbEntity
  8
001
370
    30
100
AcDbLine
 10
219.543672
 20
208.577397
 30
0.0
 11
226.972958
 21
208.577397
 31
0.0
  0
LINE
  5
236
330
1F
100
AcDbEntity
  8
001
370
    30
100
AcDbLine
 10
240.972958
 20
208.577397
 30
0.0
 11
245.050738
 21
208.577397
 31
0.0
  0
LINE
  5
237
330
1F
100
AcDbEntity
  8
001
370
    30
100
AcDbLine
 10
245.050738
 20
208.577397
 30
0.0
 11
245.050738
 21
210.440755
 31
0.0
  0
LINE
  5
238
330
1F
100
AcDbEntity
  8
001
370
    30
100
AcDbLine
 10
240.972958
 20
208.577397
 30
0.0
 11
240.972958
 21
211.077397
 31
0.0
  0
LINE
  5
239
330
1F
100
AcDbEntity
  8
001
370
    30
100
AcDbLine
 10
239.972958
 20
209.577397
 30
0.0
 11
239.972958
 21
211.077397
 31
0.0
  0
LINE
  5
23A
330
1F
100
AcDbEntity
  8
001
370
    30
100
AcDbLine
 10
226.972958
 20
208.577397
 30
0.0
 11
226.972958
 21
211.077397
 31
0.0
  0
LINE
  5
23B
330
1F
100
AcDbEntity
  8
001
370
    30
100
AcDbLine
 10
227.972958
 20
209.577397
 30
0.0
 11
227.972958
 21
211.077397
 31
0.0
  0
ARC
  5
23C
330
1F
100
AcDbEntity
  8
001
370
    30
100
AcDbCircle
 10
219.543672
 20
213.577397
 30
0.0
 40
5.0
100
AcDbArc
 50
224.427004
 51
270.0
  0
LINE
  5
23D
330
1F
100
AcDbEntity
  8
001
370
    30
100
AcDbLine
 10
272.531217
 20
189.903748
 30
0.0
 11
273.972958
 21
198.080268
 31
0.0
  0
LINE
  5
23E
330
1F
100
AcDbEntity
  8
001
370
    30
100
AcDbLine
 10
257.565749
 20
205.22401
 30
0.0
 11
245.050738
 21
208.577397
 31
0.0
  0
LINE
  5
23F
330
1F
100
AcDbEntity
  8
001
370
    30
100
AcDbLine
 10
168.472958
 20
176.577397
 30
0.0
 11
171.972958
 21
176.577397
 31
0.0
  0
LINE
  5
240
330
1F
100
AcDbEntity
  8
001
370
    30
100
AcDbLine
 10
167.972958
 20
177.077397
 30
0.0
 11
168.472958
 21
176.577397
 31
0.0
  0
LINE
  5
241
330
1F
100
AcDbEntity
  8
001
370
    30
100
AcDbLine
 10
172.972958
 20
176.577397
 30
0.0
 11
172.972958
 21
155.077397
 31
0.0
  0
LINE
  5
242
330
1F
100
AcDbEntity
  8
001
370
    30
100
AcDbLine
 10
172.680065
 20
177.077397
 30
0.0
 11
172.972958
 21
177.077397
 31
0.0
  0
LINE
  5
243
330
1F
100
AcDbEntity
  8
001
370
    30
100
AcDbLine
 10
172.972958
 20
174.577397
 30
0.0
 11
173.326512
 21
174.93095
 31
0.0
  0
LINE
  5
244
330
1F
100
AcDbEntity
  8
001
370
    30
100
AcDbLine
 10
173.472958
 20
175.284503
 30
0.0
 11
173.472958
 21
176.577397
 31
0.0
  0
LINE
  5
245
330
1F
100
AcDbEntity
  8
001
370
    30
100
AcDbLine
 10
171.972958
 20
176.577397
 30
0.0
 11
172.326512
 21
176.93095
 31
0.0
  0
ARC
  5
246
330
1F
100
AcDbEntity
  8
001
370
    30
100
AcDbCircle
 10
172.972958
 20
175.284503
 30
0.0
 40
0.5
100
AcDbArc
 50
315.0
 51
0.0
  0
ARC
  5
247
330
1F
100
AcDbEntity
  8
001
370
    30
100
AcDbCircle
 10
172.972958
 20
176.577397
 30
0.0
 40
0.5
100
AcDbArc
 50
0.0
 51
90.0
  0
ARC
  5
248
330
1F
100
AcDbEntity
  8
001
370
    30
100
AcDbCircle
 10
172.680065
 20
176.577397
 30
0.0
 40
0.5000000000000016
100
AcDbArc
 50
90.0
 51
135.0
  0
LINE
  5
249
330
1F
100
AcDbEntity
  8
001
370
    30
100
AcDbLine
 10
173.972958
 20
154.077397
 30
0.0
 11
201.972958
 21
154.077397
 31
0.0
  0
LINE
  5
24A
330
1F
100
AcDbEntity
  8
001
370
    30
100
AcDbLine
 10
172.972958
 20
155.077397
 30
0.0
 11
173.972958
 21
154.077397
 31
0.0
  0
LINE
  5
24B
330
1F
100
AcDbEntity
  8
001
370
    30
100
AcDbLine
 10
202.972958
 20
155.077397
 30
0.0
 11
202.972958
 21
167.577397
 31
0.0
  0
LINE
  5
24C
330
1F
100
AcDbEntity
  8
001
370
    30
100
AcDbLine
 10
205.795834
 20
169.077397
 30
0.0
 11
252.972958
 21
169.077397
 31
0.0
  0
ARC
  5
24D
330
1F
100
AcDbEntity
  8
001
370
    30
100
AcDbCircle
 10
204.472958
 20
167.577397
 30
0.0
 40
2.000000000000003
100
AcDbArc
 50
48.590378
 51
221.409622
  0
LINE
  5
24E
330
1F
100
AcDbEntity
  8
001
370
    30
100
AcDbLine
 10
201.972958
 20
154.077397
 30
0.0
 11
202.972958
 21
155.077397
 31
0.0
  0
ARC
  5
24F
330
1F
100
AcDbEntity
  8
001
370
    30
100
AcDbCircle
 10
252.972958
 20
171.077397
 30
0.0
 40
2.0
100
AcDbArc
 50
270.0
 51
0.0
  0
LINE
  5
250
330
1F
100
AcDbEntity
  8
001
370
    30
100
AcDbLine
 10
254.972958
 20
171.077397
 30
0.0
 11
254.972958
 21
179.077397
 31
0.0
  0
LINE
  5
251
330
1F
100
AcDbEntity
  8
001
370
    30
100
AcDbLine
 10
271.972958
 20
189.077397
 30
0.0
 11
271.972958
 21
189.172932
 31
0.0
  0
LINE
  5
252
330
1F
100
AcDbEntity
  8
001
370
    30
100
AcDbLine
 10
257.972971
 20
169.077397
 30
0.0
 11
278.972971
 21
169.077397
 31
0.0
  0
LINE
  5
253
330
1F
100
AcDbEntity
  8
001
370
    30
100
AcDbLine
 10
282.972971
 20
209.077397
 30
0.0
 11
282.972971
 21
173.077397
 31
0.0
  0
LINE
  5
254
330
1F
100
AcDbEntity
  8
001
370
    30
100
AcDbLine
 10
276.472971
 20
207.077397
 30
0.0
 11
280.672971
 21
207.077397
 31
0.0
  0
LINE
  5
255
330
1F
100
AcDbEntity
  8
001
370
    30
100
AcDbLine
 10
282.472971
 20
207.077397
 30
0.0
 11
282.972971
 21
206.577397
 31
0.0
  0
LINE
  5
256
330
1F
100
AcDbEntity
  8
001
370
    30
100
AcDbLine
 10
280.672971
 20
208.077397
 30
0.0
 11
280.672971
 21
205.077397
 31
0.0
  0
LINE
  5
257
330
1F
100
AcDbEntity
  8
001
370
    30
100
AcDbLine
 10
281.872971
 20
205.077397
 30
0.0
 11
281.872971
 21
208.077397
 31
0.0
  0
LINE
  5
258
330
1F
100
AcDbEntity
  8
001
370
    30
100
AcDbLine
 10
280.672971
 20
205.077397
 30
0.0
 11
281.872971
 21
205.077397
 31
0.0
  0
LINE
  5
259
330
1F
100
AcDbEntity
  8
001
370
    30
100
AcDbLine
 10
281.872971
 20
207.077397
 30
0.0
 11
282.472971
 21
207.077397
 31
0.0
  0
LINE
  5
25A
330
1F
100
AcDbEntity
  8
001
370
    30
100
AcDbLine
 10
275.972971
 20
206.577397
 30
0.0
 11
276.472971
 21
207.077397
 31
0.0
  0
LINE
  5
25B
330
1F
100
AcDbEntity
  8
001
370
    30
100
AcDbLine
 10
274.492054
 20
189.678698
 30
0.0
 11
275.972971
 21
198.077397
 31
0.0
  0
ARC
  5
25C
330
1F
100
AcDbEntity
  8
001
370
    30
100
AcDbCircle
 10
278.972971
 20
173.077397
 30
0.0
 40
4.0
100
AcDbArc
 50
270.0
 51
0.0
  0
ARC
  5
25D
330
1F
100
AcDbEntity
  8
001
370
    30
100
AcDbCircle
 10
257.972971
 20
171.077397
 30
0.0
 40
2.0
100
AcDbArc
 50
180.0
 51
270.0
  0
LINE
  5
25E
330
1F
100
AcDbEntity
  8
001
370
    30
100
AcDbLine
 10
175.472958
 20
257.577397
 30
0.0
 11
175.472958
 21
210.577397
 31
0.0
  0
ARC
  5
25F
330
1F
100
AcDbEntity
  8
001
370
    30
100
AcDbCircle
 10
175.972958
 20
257.577397
 30
0.0
 40
0.5
100
AcDbArc
 50
90.0
 51
180.0
  0
ARC
  5
260
330
1F
100
AcDbEntity
  8
001
370
    30
100
AcDbCircle
 10
197.972958
 20
210.577397
 30
0.0
 40
0.5
100
AcDbArc
 50
270.0
 51
0.0
  0
ARC
  5
261
330
1F
100
AcDbEntity
  8
001
370
    30
100
AcDbCircle
 10
197.972958
 20
257.577397
 30
0.0
 40
0.5
100
AcDbArc
 50
0.0
 51
90.0
  0
LINE
  5
262
330
1F
100
AcDbEntity
  8
001
370
    30
100
AcDbLine
 10
178.472958
 20
255.327397
 30
0.0
 11
197.972958
 21
255.327397
 31
0.0
  0
LINE
  5
263
330
1F
100
AcDbEntity
  8
001
370
    30
100
AcDbLine
 10
197.972958
 20
255.327397
 30
0.0
 11
198.472958
 21
255.827397
 31
0.0
  0
LINE
  5
264
330
1F
100
AcDbEntity
  8
001
370
    30
100
AcDbLine
 10
198.472958
 20
257.577397
 30
0.0
 11
198.472958
 21
210.577397
 31
0.0
  0
LINE
  5
265
330
1F
100
AcDbEntity
  8
001
370
    30
100
AcDbLine
 10
197.972958
 20
255.327397
 30
0.0
 11
197.972958
 21
212.827397
 31
0.0
  0
LINE
  5
266
330
1F
100
AcDbEntity
  8
001
370
    30
100
AcDbLine
 10
178.472958
 20
212.827397
 30
0.0
 11
197.972958
 21
212.827397
 31
0.0
  0
LINE
  5
267
330
1F
100
AcDbEntity
  8
001
370
    30
100
AcDbLine
 10
197.972958
 20
212.827397
 30
0.0
 11
198.472958
 21
212.327397
 31
0.0
  0
LINE
  5
268
330
1F
100
AcDbEntity
  8
001
370
    30
100
AcDbLine
 10
168.972958
 20
195.077397
 30
0.0
 11
179.972958
 21
195.077397
 31
0.0
  0
LINE
  5
269
330
1F
100
AcDbEntity
  8
001
370
    30
100
AcDbLine
 10
158.972958
 20
201.577397
 30
0.0
 11
167.172958
 21
201.577397
 31
0.0
  0
ARC
  5
26A
330
1F
100
AcDbEntity
  8
001
370
    30
100
AcDbCircle
 10
167.172958
 20
200.777397
 30
0.0
 40
0.8000000000000007
100
AcDbArc
 50
0.0
 51
90.0
  0
LINE
  5
26B
330
1F
100
AcDbEntity
  8
001
370
    30
100
AcDbLine
 10
168.972958
 20
195.077397
 30
0.0
 11
167.972958
 21
196.077397
 31
0.0
  0
LINE
  5
26C
330
1F
100
AcDbEntity
  8
001
370
    30
100
AcDbLine
 10
157.972958
 20
202.577397
 30
0.0
 11
158.972958
 21
201.577397
 31
0.0
  0
CIRCLE
  5
26D
330
1F
100
AcDbEntity
  8
001
370
    30
100
AcDbCircle
 10
450.942548
 20
234.077397
 30
0.0
 40
65.0
  0
CIRCLE
  5
26E
330
1F
100
AcDbEntity
  8
001
370
    30
100
AcDbCircle
 10
450.942548
 20
234.077397
 30
0.0
 40
80.0
  0
LINE
  5
26F
330
1F
100
AcDbEntity
  8
001
  6
CENTER
 62
     3
370
     9
100
AcDbLine
 10
520.441087
 20
193.952397
 30
0.0
 11
498.213018
 21
206.785778
 31
0.0
  0
ARC
  5
270
330
1F
100
AcDbEntity
  8
001
  6
CENTER
 62
     3
370
     9
100
AcDbCircle
 10
450.942548
 20
234.077397
 30
0.0
 40
49.99999999999999
100
AcDbArc
 50
174.559765
 51
198.753491
  0
CIRCLE
  5
271
330
1F
100
AcDbEntity
  8
001
 62
     3
370
     9
100
AcDbCircle
 10
400.942548
 20
234.077397
 30
0.0
 40
2.0
  0
CIRCLE
  5
272
330
1F
100
AcDbEntity
  8
001
370
    30
100
AcDbCircle
 10
400.942548
 20
234.077397
 30
0.0
 40
1.650000000000006
  0
ARC
  5
273
330
1F
100
AcDbEntity
  8
001
  6
CENTER
 62
     3
370
     9
100
AcDbCircle
 10
450.942548
 20
234.077397
 30
0.0
 40
49.99999999999999
100
AcDbArc
 50
294.968733
 51
305.364738
  0
CIRCLE
  5
274
330
1F
100
AcDbEntity
  8
001
 62
     3
370
     9
100
AcDbCircle
 10
475.942548
 20
190.776126
 30
0.0
 40
2.0
  0
CIRCLE
  5
275
330
1F
100
AcDbEntity
  8
001
370
    30
100
AcDbCircle
 10
475.942548
 20
190.776126
 30
0.0
 40
1.650000000000006
  0
ARC
  5
276
330
1F
100
AcDbEntity
  8
001
  6
CENTER
 62
     3
370
     9
100
AcDbCircle
 10
450.942548
 20
234.077397
 30
0.0
 40
49.99999999999999
100
AcDbArc
 50
14.010375
 51
65.17044
  0
CIRCLE
  5
277
330
1F
100
AcDbEntity
  8
001
 62
     3
370
     9
100
AcDbCircle
 10
475.942548
 20
277.378667
 30
0.0
 40
2.0
  0
CIRCLE
  5
278
330
1F
100
AcDbEntity
  8
001
370
    30
100
AcDbCircle
 10
475.942548
 20
277.378667
 30
0.0
 40
1.650000000000006
  0
ARC
  5
279
330
1F
100
AcDbEntity
  8
001
370
    30
100
AcDbCircle
 10
509.399263
 20
200.327397
 30
0.0
 40
6.500000000000001
100
AcDbArc
 50
214.808755
 51
85.191245
  0
ARC
  5
27A
330
1F
100
AcDbEntity
  8
001
370
    30
100
AcDbCircle
 10
509.399263
 20
200.327397
 30
0.0
 40
9.499999999999998
100
AcDbArc
 50
220.812842
 51
79.187158
  0
ARC
  5
27B
330
1F
100
AcDbEntity
  8
001
370
    30
100
AcDbCircle
 10
450.942548
 20
234.077397
 30
0.0
 40
21.0
100
AcDbArc
 50
85.903956
 51
94.096044
  0
ARC
  5
27C
330
1F
100
AcDbEntity
  8
001
370
    30
100
AcDbCircle
 10
450.942548
 20
234.077397
 30
0.0
 40
23.0
100
AcDbArc
 50
86.260665
 51
93.739335
  0
ARC
  5
27D
330
1F
100
AcDbEntity
  8
001
370
    30
100
AcDbCircle
 10
450.942548
 20
234.077397
 30
0.0
 40
24.0
100
AcDbArc
 50
86.416678
 51
93.583322
  0
ARC
  5
27E
330
1F
100
AcDbEntity
  8
001
370
    30
100
AcDbCircle
 10
258.083387
 20
207.155861
 30
0.0
 40
2.0
100
AcDbArc
 50
255.0
 51
296.409622
  0
LINE
  5
27F
330
1F
100
AcDbEntity
  8
001
370
    30
100
AcDbLine
 10
245.050738
 20
259.577397
 30
0.0
 11
245.050738
 21
257.714038
 31
0.0
  0
LINE
  5
280
330
1F
100
AcDbEntity
  8
001
370
    30
100
AcDbLine
 10
257.565749
 20
262.930784
 30
0.0
 11
245.050738
 21
259.577397
 31
0.0
  0
CIRCLE
  5
281
330
1F
100
AcDbEntity
  8
001
370
    30
100
AcDbCircle
 10
475.942548
 20
190.776126
 30
0.0
 40
3.25
  0
LINE
  5
282
330
1F
100
AcDbEntity
  8
001
370
    30
100
AcDbLine
 10
159.972958
 20
258.327397
 30
0.0
 11
170.722958
 21
258.327397
 31
0.0
  0
LINE
  5
283
330
1F
100
AcDbEntity
  8
001
 62
     3
370
     9
100
AcDbLine
 10
158.67392
 20
259.077397
 30
0.0
 11
171.472958
 21
259.077397
 31
0.0
  0
LINE
  5
284
330
1F
100
AcDbEntity
  8
001
370
    30
100
AcDbLine
 10
171.972958
 20
259.577397
 30
0.0
 11
176.572958
 21
259.577397
 31
0.0
  0
LINE
  5
285
330
1F
100
AcDbEntity
  8
001
370
    30
100
AcDbLine
 10
171.972958
 20
259.577397
 30
0.0
 11
171.972958
 21
208.577397
 31
0.0
  0
LINE
  5
286
330
1F
100
AcDbEntity
  8
001
370
    30
100
AcDbLine
 10
170.722958
 20
258.327397
 30
0.0
 11
170.722958
 21
209.827397
 31
0.0
  0
ARC
  5
287
330
1F
100
AcDbEntity
  8
001
370
    30
100
AcDbCircle
 10
176.572958
 20
259.177397
 30
0.0
 40
0.4000000000000057
100
AcDbArc
 50
0.0
 51
90.0
  0
LINE
  5
288
330
1F
100
AcDbEntity
  8
001
370
    30
100
AcDbLine
 10
176.972958
 20
258.777397
 30
0.0
 11
177.672958
 21
258.077397
 31
0.0
  0
LINE
  5
289
330
1F
100
AcDbEntity
  8
001
370
    30
100
AcDbLine
 10
159.972958
 20
258.327397
 30
0.0
 11
159.972958
 21
209.827397
 31
0.0
  0
LINE
  5
28A
330
1F
100
AcDbEntity
  8
001
370
    30
100
AcDbLine
 10
159.972958
 20
258.327397
 30
0.0
 11
157.972958
 21
259.482097
 31
0.0
  0
LINE
  5
28B
330
1F
100
AcDbEntity
  8
001
370
    30
100
AcDbLine
 10
176.972958
 20
208.977397
 30
0.0
 11
176.972958
 21
210.077397
 31
0.0
  0
LINE
  5
28C
330
1F
100
AcDbEntity
  8
001
370
    30
100
AcDbLine
 10
171.972958
 20
208.577397
 30
0.0
 11
170.722958
 21
209.827397
 31
0.0
  0
ARC
  5
28D
330
1F
100
AcDbEntity
  8
001
370
    30
100
AcDbCircle
 10
175.972958
 20
210.577397
 30
0.0
 40
0.5
100
AcDbArc
 50
180.0
 51
270.0
  0
LINE
  5
28E
330
1F
100
AcDbEntity
  8
001
370
    30
100
AcDbLine
 10
159.972958
 20
209.827397
 30
0.0
 11
170.722958
 21
209.827397
 31
0.0
  0
LINE
  5
28F
330
1F
100
AcDbEntity
  8
001
 62
     3
370
     9
100
AcDbLine
 10
158.67392
 20
209.077397
 30
0.0
 11
171.472958
 21
209.077397
 31
0.0
  0
LINE
  5
290
330
1F
100
AcDbEntity
  8
001
370
    30
100
AcDbLine
 10
171.972958
 20
208.577397
 30
0.0
 11
176.572958
 21
208.577397
 31
0.0
  0
ARC
  5
291
330
1F
100
AcDbEntity
  8
001
370
    30
100
AcDbCircle
 10
176.572958
 20
208.977397
 30
0.0
 40
0.4000000000000057
100
AcDbArc
 50
270.0
 51
0.0
  0
LINE
  5
292
330
1F
100
AcDbEntity
  8
001
370
    30
100
AcDbLine
 10
176.972958
 20
209.377397
 30
0.0
 11
177.672958
 21
210.077397
 31
0.0
  0
LINE
  5
293
330
1F
100
AcDbEntity
  8
001
370
    30
100
AcDbLine
 10
159.972958
 20
209.827397
 30
0.0
 11
157.972958
 21
208.672696
 31
0.0
  0
ARC
  5
294
330
1F
100
AcDbEntity
  8
001
  6
CENTER
 62
     3
370
     9
100
AcDbCircle
 10
450.942548
 20
234.077397
 30
0.0
 40
67.5
100
AcDbArc
 50
18.970099
 51
40.566983
  0
ARC
  5
295
330
1F
100
AcDbEntity
  8
001
370
    30
100
AcDbCircle
 10
509.399263
 20
267.827397
 30
0.0
 40
6.500000000000006
100
AcDbArc
 50
274.808755
 51
145.191245
  0
ARC
  5
296
330
1F
100
AcDbEntity
  8
001
370
    30
100
AcDbCircle
 10
509.399263
 20
267.827397
 30
0.0
 40
9.499999999999995
100
AcDbArc
 50
280.812842
 51
139.187158
  0
ARC
  5
297
330
1F
100
AcDbEntity
  8
001
370
    30
100
AcDbCircle
 10
450.942548
 20
301.577397
 30
0.0
 40
6.500000000000005
100
AcDbArc
 50
334.808755
 51
205.191245
  0
ARC
  5
298
330
1F
100
AcDbEntity
  8
001
370
    30
100
AcDbCircle
 10
450.942548
 20
301.577397
 30
0.0
 40
9.500000000000009
100
AcDbArc
 50
340.812842
 51
199.187158
  0
ARC
  5
299
330
1F
100
AcDbEntity
  8
001
370
    30
100
AcDbCircle
 10
392.485833
 20
267.827397
 30
0.0
 40
6.500000000000004
100
AcDbArc
 50
34.808755
 51
265.191245
  0
ARC
  5
29A
330
1F
100
AcDbEntity
  8
001
370
    30
100
AcDbCircle
 10
392.485833
 20
267.827397
 30
0.0
 40
9.5
100
AcDbArc
 50
40.812842
 51
259.187158
  0
ARC
  5
29B
330
1F
100
AcDbEntity
  8
001
370
    30
100
AcDbCircle
 10
392.485833
 20
200.327397
 30
0.0
 40
6.499999999999999
100
AcDbArc
 50
94.808755
 51
325.191245
  0
ARC
  5
29C
330
1F
100
AcDbEntity
  8
001
370
    30
100
AcDbCircle
 10
392.485833
 20
200.327397
 30
0.0
 40
9.499999999999998
100
AcDbArc
 50
100.812842
 51
319.187158
  0
ARC
  5
29D
330
1F
100
AcDbEntity
  8
001
370
    30
100
AcDbCircle
 10
450.942548
 20
166.577397
 30
0.0
 40
6.500000000000001
100
AcDbArc
 50
154.808755
 51
25.191245
  0
ARC
  5
29E
330
1F
100
AcDbEntity
  8
001
370
    30
100
AcDbCircle
 10
450.942548
 20
166.577397
 30
0.0
 40
9.500000000000005
100
AcDbArc
 50
160.812842
 51
19.187158
  0
ARC
  5
29F
330
1F
100
AcDbEntity
  8
001
  6
CENTER
 62
     3
370
     9
100
AcDbCircle
 10
450.942548
 20
234.077397
 30
0.0
 40
67.50000000000001
100
AcDbArc
 50
315.116376
 51
340.9898
  0
ARC
  5
2A0
330
1F
100
AcDbEntity
  8
001
  6
CENTER
 62
     3
370
     9
100
AcDbCircle
 10
450.942548
 20
234.077397
 30
0.0
 40
67.5
100
AcDbArc
 50
259.091783
 51
280.40007
  0
ARC
  5
2A1
330
1F
100
AcDbEntity
  8
001
  6
CENTER
 62
     3
370
     9
100
AcDbCircle
 10
450.942548
 20
234.077397
 30
0.0
 40
67.5
100
AcDbArc
 50
199.733582
 51
219.901379
  0
ARC
  5
2A2
330
1F
100
AcDbEntity
  8
001
  6
CENTER
 62
     3
370
     9
100
AcDbCircle
 10
450.942548
 20
234.077397
 30
0.0
 40
67.5
100
AcDbArc
 50
135.337383
 51
161.525768
  0
ARC
  5
2A3
330
1F
100
AcDbEntity
  8
001
  6
CENTER
 62
     3
370
     9
100
AcDbCircle
 10
450.942548
 20
234.077397
 30
0.0
 40
67.5
100
AcDbArc
 50
79.17861
 51
101.220724
  0
LINE
  5
2A4
330
1F
100
AcDbEntity
  8
001
370
    30
100
AcDbLine
 10
273.972958
 20
266.809444
 30
0.0
 11
273.972958
 21
270.074525
 31
0.0
  0
ARC
  5
2A5
330
1F
100
AcDbEntity
  8
001
370
    30
100
AcDbCircle
 10
272.972958
 20
267.576771
 30
0.0
 40
1.0
100
AcDbArc
 50
285.0
 51
0.0
  0
LINE
  5
2A6
330
1F
100
AcDbEntity
  8
001
  6
CENTER
 62
     3
370
     9
100
AcDbLine
 10
263.444471
 20
272.270554
 30
0.0
 11
273.942001
 21
275.083359
 31
0.0
  0
LINE
  5
2A7
330
1F
100
AcDbEntity
  8
001
370
    30
100
AcDbLine
 10
265.782298
 20
274.967525
 30
0.0
 11
271.106448
 21
276.394127
 31
0.0
  0
LINE
  5
2A8
330
1F
100
AcDbEntity
  8
001
370
    30
100
AcDbLine
 10
266.817574
 20
271.103822
 30
0.0
 11
272.141725
 21
272.530424
 31
0.0
  0
LINE
  5
2A9
330
1F
100
AcDbEntity
  8
001
370
    30
100
AcDbLine
 10
272.955458
 20
273.110809
 30
0.0
 11
273.498591
 21
272.764795
 31
0.0
  0
LINE
  5
2AA
330
1F
100
AcDbEntity
  8
001
370
    30
100
AcDbLine
 10
272.955458
 20
273.110809
 30
0.0
 11
272.101355
 21
276.298365
 31
0.0
  0
LINE
  5
2AB
330
1F
100
AcDbEntity
  8
001
370
    30
100
AcDbLine
 10
272.101355
 20
276.298365
 30
0.0
 11
272.694405
 21
277.325558
 31
0.0
  0
LINE
  5
2AC
330
1F
100
AcDbEntity
  8
001
  6
CENTER
 62
     3
370
     9
100
AcDbLine
 10
260.913185
 20
276.910782
 30
0.0
 11
264.687441
 21
262.825067
 31
0.0
  0
LINE
  5
2AD
330
1F
100
AcDbEntity
  8
001
370
    30
100
AcDbLine
 10
272.246325
 20
272.920798
 30
0.0
 11
272.955458
 21
273.110809
 31
0.0
  0
LINE
  5
2AE
330
1F
100
AcDbEntity
  8
001
370
    30
100
AcDbLine
 10
263.269033
 20
275.847012
 30
0.0
 11
259.405329
 21
274.811736
 31
0.0
  0
LINE
  5
2AF
330
1F
100
AcDbEntity
  8
001
370
    30
100
AcDbLine
 10
263.881405
 20
275.493458
 30
0.0
 11
263.269033
 21
275.847012
 31
0.0
  0
LINE
  5
2B0
330
1F
100
AcDbEntity
  8
001
370
    30
100
AcDbLine
 10
259.051776
 20
274.199363
 30
0.0
 11
259.405329
 21
274.811736
 31
0.0
  0
LINE
  5
2B1
330
1F
100
AcDbEntity
  8
001
370
    30
100
AcDbLine
 10
265.782298
 20
274.967525
 30
0.0
 11
264.368084
 21
272.518035
 31
0.0
  0
LINE
  5
2B2
330
1F
100
AcDbEntity
  8
001
370
    30
100
AcDbLine
 10
264.735508
 20
272.305903
 30
0.0
 11
265.693138
 21
268.731978
 31
0.0
  0
LINE
  5
2B3
330
1F
100
AcDbEntity
  8
001
370
    30
100
AcDbLine
 10
263.881405
 20
275.493458
 30
0.0
 11
259.051776
 21
274.199363
 31
0.0
  0
LINE
  5
2B4
330
1F
100
AcDbEntity
  8
001
370
    30
100
AcDbLine
 10
266.817574
 20
271.103822
 30
0.0
 11
264.368084
 21
272.518035
 31
0.0
  0
LINE
  5
2B5
330
1F
100
AcDbEntity
  8
001
370
    30
100
AcDbLine
 10
266.817574
 20
271.103822
 30
0.0
 11
265.782298
 21
274.967525
 31
0.0
  0
LINE
  5
2B6
330
1F
100
AcDbEntity
  8
001
370
    30
100
AcDbLine
 10
271.796633
 20
275.703943
 30
0.0
 11
272.394349
 21
273.473233
 31
0.0
  0
LINE
  5
2B7
330
1F
100
AcDbEntity
  8
001
370
    30
100
AcDbLine
 10
271.106448
 20
276.394127
 30
0.0
 11
272.141725
 21
272.530424
 31
0.0
  0
LINE
  5
2B8
330
1F
100
AcDbEntity
  8
001
370
    30
100
AcDbLine
 10
271.392222
 20
276.108353
 30
0.0
 11
272.101355
 21
276.298365
 31
0.0
  0
LINE
  5
2B9
330
1F
100
AcDbEntity
  8
001
 62
     3
370
     9
100
AcDbLine
 10
271.392222
 20
276.108353
 30
0.0
 11
265.534811
 21
274.538864
 31
0.0
  0
LINE
  5
2BA
330
1F
100
AcDbEntity
  8
001
 62
     3
370
     9
100
AcDbLine
 10
272.348842
 20
276.727025
 30
0.0
 11
271.106448
 21
276.394127
 31
0.0
  0
LINE
  5
2BB
330
1F
100
AcDbEntity
  8
001
 62
     3
370
     9
100
AcDbLine
 10
272.246325
 20
272.920798
 30
0.0
 11
266.388913
 21
271.351309
 31
0.0
  0
LINE
  5
2BC
330
1F
100
AcDbEntity
  8
001
 62
     3
370
     9
100
AcDbLine
 10
273.355832
 20
272.855743
 30
0.0
 11
272.141725
 21
272.530424
 31
0.0
  0
LINE
  5
2BD
330
1F
100
AcDbEntity
  8
001
370
    30
100
AcDbLine
 10
272.394349
 20
273.473233
 30
0.0
 11
272.141725
 21
272.530424
 31
0.0
  0
LINE
  5
2BE
330
1F
100
AcDbEntity
  8
001
370
    30
100
AcDbLine
 10
271.106448
 20
276.394127
 30
0.0
 11
271.796633
 21
275.703943
 31
0.0
  0
ARC
  5
2BF
330
1F
100
AcDbEntity
  8
001
370
    30
100
AcDbCircle
 10
258.083387
 20
260.998932
 30
0.0
 40
1.999999999999999
100
AcDbArc
 50
63.590378
 51
105.0
  0
LINE
  5
2C0
330
1F
100
AcDbEntity
  8
001
370
    30
100
AcDbLine
 10
259.41462
 20
267.049654
 30
0.0
 11
260.449897
 21
263.185951
 31
0.0
  0
LINE
  5
2C1
330
1F
100
AcDbEntity
  8
001
370
    30
100
AcDbLine
 10
267.142027
 20
269.120206
 30
0.0
 11
268.177303
 21
265.256503
 31
0.0
  0
LINE
  5
2C2
330
1F
100
AcDbEntity
  8
001
370
    30
100
AcDbLine
 10
259.41462
 20
267.049654
 30
0.0
 11
267.142027
 21
269.120206
 31
0.0
  0
LINE
  5
2C3
330
1F
100
AcDbEntity
  8
001
370
    30
100
AcDbLine
 10
267.271437
 20
268.637243
 30
0.0
 11
266.659064
 21
268.990797
 31
0.0
  0
LINE
  5
2C4
330
1F
100
AcDbEntity
  8
001
370
    30
100
AcDbLine
 10
259.54403
 20
266.566691
 30
0.0
 11
259.897583
 21
267.179063
 31
0.0
  0
LINE
  5
2C5
330
1F
100
AcDbEntity
  8
001
370
    30
100
AcDbLine
 10
267.271437
 20
268.637243
 30
0.0
 11
259.54403
 21
266.566691
 31
0.0
  0
CIRCLE
  5
2C6
330
1F
100
AcDbEntity
  8
001
370
    30
100
AcDbCircle
 10
475.942548
 20
277.378667
 30
0.0
 40
3.25
  0
CIRCLE
  5
2C7
330
1F
100
AcDbEntity
  8
001
370
    30
100
AcDbCircle
 10
400.942548
 20
234.077397
 30
0.0
 40
3.25
  0
LINE
  5
2C8
330
1F
100
AcDbEntity
  8
001
370
    30
100
AcDbLine
 10
178.472958
 20
255.327397
 30
0.0
 11
178.472958
 21
234.077397
 31
0.0
  0
LINE
  5
2C9
330
1F
100
AcDbEntity
  8
001
370
    30
100
AcDbLine
 10
178.472958
 20
255.327397
 30
0.0
 11
175.472958
 21
256.131244
 31
0.0
  0
LINE
  5
2CA
330
1F
100
AcDbEntity
  8
001
370
    30
100
AcDbLine
 10
178.472958
 20
212.827397
 30
0.0
 11
178.472958
 21
234.077397
 31
0.0
  0
LINE
  5
2CB
330
1F
100
AcDbEntity
  8
001
370
    30
100
AcDbLine
 10
178.472958
 20
212.827397
 30
0.0
 11
175.472958
 21
212.023549
 31
0.0
  0
LINE
  5
2CC
330
1F
100
AcDbEntity
  8
001
370
    30
100
AcDbLine
 10
259.051776
 20
274.199363
 30
0.0
 11
260.863509
 21
267.437882
 31
0.0
  0
LINE
  5
2CD
330
1F
100
AcDbEntity
  8
001
370
    30
100
AcDbLine
 10
263.881405
 20
275.493458
 30
0.0
 11
264.580216
 21
272.885459
 31
0.0
  0
LINE
  5
2CE
330
1F
100
AcDbEntity
  8
001
370
    30
100
AcDbLine
 10
281.972971
 20
246.577397
 30
0.0
 11
252.102876
 21
246.577397
 31
0.0
  0
LINE
  5
2CF
330
1F
100
AcDbEntity
  8
001
370
    30
100
AcDbLine
 10
281.972971
 20
221.577397
 30
0.0
 11
252.102876
 21
221.577397
 31
0.0
  0
LINE
  5
2D0
330
1F
100
AcDbEntity
  8
001
370
    30
100
AcDbLine
 10
282.472971
 20
261.077397
 30
0.0
 11
282.472971
 21
260.077397
 31
0.0
  0
LINE
  5
2D1
330
1F
100
AcDbEntity
  8
001
370
    30
100
AcDbLine
 10
276.472971
 20
261.077397
 30
0.0
 11
276.472971
 21
260.077397
 31
0.0
  0
LINE
  5
2D2
330
1F
100
AcDbEntity
  8
001
370
    30
100
AcDbLine
 10
255.972971
 20
297.077397
 30
0.0
 11
255.972971
 21
289.077397
 31
0.0
  0
LINE
  5
2D3
330
1F
100
AcDbEntity
  8
001
  6
CENTER
 62
     3
370
     9
100
AcDbLine
 10
146.309623
 20
234.077397
 30
0.0
 11
294.624229
 21
234.077397
 31
0.0
  0
LINE
  5
2D4
330
1F
100
AcDbEntity
  8
001
370
    30
100
AcDbLine
 10
167.972958
 20
291.077397
 30
0.0
 11
167.972958
 21
273.077397
 31
0.0
  0
LINE
  5
2D5
330
1F
100
AcDbEntity
  8
001
370
    30
100
AcDbLine
 10
167.972958
 20
272.077397
 30
0.0
 11
167.972958
 21
267.377397
 31
0.0
  0
LINE
  5
2D6
330
1F
100
AcDbEntity
  8
001
370
    30
100
AcDbLine
 10
282.472971
 20
207.077397
 30
0.0
 11
282.472971
 21
208.077397
 31
0.0
  0
LINE
  5
2D7
330
1F
100
AcDbEntity
  8
001
370
    30
100
AcDbLine
 10
276.472971
 20
207.077397
 30
0.0
 11
276.472971
 21
208.077397
 31
0.0
  0
LINE
  5
2D8
330
1F
100
AcDbEntity
  8
001
370
    30
100
AcDbLine
 10
255.972971
 20
171.077397
 30
0.0
 11
255.972971
 21
179.077397
 31
0.0
  0
LINE
  5
2D9
330
1F
100
AcDbEntity
  8
001
370
    30
100
AcDbLine
 10
167.972958
 20
177.077397
 30
0.0
 11
167.972958
 21
195.077397
 31
0.0
  0
LINE
  5
2DA
330
1F
100
AcDbEntity
  8
001
370
    30
100
AcDbLine
 10
167.972958
 20
196.077397
 30
0.0
 11
167.972958
 21
200.777397
 31
0.0
  0
LINE
  5
2DB
330
1F
100
AcDbEntity
  8
001
370
    30
100
AcDbLine
 10
175.972958
 20
210.077397
 30
0.0
 11
215.972958
 21
210.077397
 31
0.0
  0
LINE
  5
2DC
330
1F
100
AcDbEntity
  8
001
  6
CENTER
 62
     3
370
     9
100
AcDbLine
 10
520.22458
 20
274.077397
 30
0.0
 11
502.151483
 21
263.642889
 31
0.0
  0
LINE
  5
2DD
330
1F
100
AcDbEntity
  8
001
  6
CENTER
 62
     3
370
     9
100
AcDbLine
 10
398.735077
 20
264.219394
 30
0.0
 11
381.660516
 21
274.077397
 31
0.0
  0
LINE
  5
2DE
330
1F
100
AcDbEntity
  8
001
  6
CENTER
 62
     3
370
     9
100
AcDbLine
 10
398.56247
 20
203.835744
 30
0.0
 11
381.660516
 21
194.077397
 31
0.0
  0
LINE
  5
2DF
330
1F
100
AcDbEntity
  8
001
  6
CENTER
 62
     3
370
     9
100
AcDbLine
 10
473.652994
 20
194.74175
 30
0.0
 11
478.745055
 21
185.922043
 31
0.0
  0
LINE
  5
2E0
330
1F
100
AcDbEntity
  8
001
  6
CENTER
 62
     3
370
     9
100
AcDbLine
 10
478.874559
 20
282.457059
 30
0.0
 11
473.570777
 21
273.270638
 31
0.0
  0
LINE
  5
2E1
330
1F
100
AcDbEntity
  8
001
370
    30
100
AcDbLine
 10
281.972971
 20
246.577397
 30
0.0
 11
282.972971
 21
247.154747
 31
0.0
  0
LINE
  5
2E2
330
1F
100
AcDbEntity
  8
001
370
    30
100
AcDbLine
 10
281.972971
 20
221.577397
 30
0.0
 11
282.972971
 21
221.000046
 31
0.0
  0
LINE
  5
2E3
330
1F
100
AcDbEntity
  8
001
370
    30
100
AcDbLine
 10
281.972971
 20
246.577397
 30
0.0
 11
281.972971
 21
221.577397
 31
0.0
  0
ARC
  5
2E4
330
1F
100
AcDbEntity
  8
001
370
    30
100
AcDbCircle
 10
450.942548
 20
234.077397
 30
0.0
 40
12.5
100
AcDbArc
 50
96.892103
 51
143.107897
  0
ARC
  5
2E5
330
1F
100
AcDbEntity
  8
001
370
    30
100
AcDbCircle
 10
450.942548
 20
234.077397
 30
0.0
 40
26.0
100
AcDbArc
 50
93.307362
 51
146.692638
  0
ARC
  5
2E6
330
1F
100
AcDbEntity
  8
001
370
    30
100
AcDbCircle
 10
450.942548
 20
234.077397
 30
0.0
 40
12.5
100
AcDbArc
 50
156.892103
 51
203.107897
  0
ARC
  5
2E7
330
1F
100
AcDbEntity
  8
001
370
    30
100
AcDbCircle
 10
450.942548
 20
234.077397
 30
0.0
 40
26.0
100
AcDbArc
 50
153.307362
 51
206.692638
  0
ARC
  5
2E8
330
1F
100
AcDbEntity
  8
001
370
    30
100
AcDbCircle
 10
450.942548
 20
234.077397
 30
0.0
 40
21.0
100
AcDbArc
 50
145.903956
 51
154.096044
  0
ARC
  5
2E9
330
1F
100
AcDbEntity
  8
001
370
    30
100
AcDbCircle
 10
450.942548
 20
234.077397
 30
0.0
 40
23.0
100
AcDbArc
 50
146.260665
 51
153.739335
  0
ARC
  5
2EA
330
1F
100
AcDbEntity
  8
001
370
    30
100
AcDbCircle
 10
450.942548
 20
234.077397
 30
0.0
 40
24.0
100
AcDbArc
 50
146.416678
 51
153.583322
  0
ARC
  5
2EB
330
1F
100
AcDbEntity
  8
001
370
    30
100
AcDbCircle
 10
450.942548
 20
234.077397
 30
0.0
 40
12.5
100
AcDbArc
 50
216.892103
 51
263.107897
  0
ARC
  5
2EC
330
1F
100
AcDbEntity
  8
001
370
    30
100
AcDbCircle
 10
450.942548
 20
234.077397
 30
0.0
 40
26.0
100
AcDbArc
 50
213.307362
 51
266.692638
  0
ARC
  5
2ED
330
1F
100
AcDbEntity
  8
001
370
    30
100
AcDbCircle
 10
450.942548
 20
234.077397
 30
0.0
 40
21.0
100
AcDbArc
 50
205.903956
 51
214.096044
  0
ARC
  5
2EE
330
1F
100
AcDbEntity
  8
001
370
    30
100
AcDbCircle
 10
450.942548
 20
234.077397
 30
0.0
 40
23.0
100
AcDbArc
 50
206.260665
 51
213.739335
  0
ARC
  5
2EF
330
1F
100
AcDbEntity
  8
001
370
    30
100
AcDbCircle
 10
450.942548
 20
234.077397
 30
0.0
 40
24.0
100
AcDbArc
 50
206.416678
 51
213.583322
  0
ARC
  5
2F0
330
1F
100
AcDbEntity
  8
001
370
    30
100
AcDbCircle
 10
450.942548
 20
234.077397
 30
0.0
 40
12.5
100
AcDbArc
 50
276.892103
 51
323.107897
  0
ARC
  5
2F1
330
1F
100
AcDbEntity
  8
001
370
    30
100
AcDbCircle
 10
450.942548
 20
234.077397
 30
0.0
 40
26.0
100
AcDbArc
 50
273.307362
 51
326.692638
  0
ARC
  5
2F2
330
1F
100
AcDbEntity
  8
001
370
    30
100
AcDbCircle
 10
450.942548
 20
234.077397
 30
0.0
 40
21.0
100
AcDbArc
 50
265.903956
 51
274.096044
  0
ARC
  5
2F3
330
1F
100
AcDbEntity
  8
001
370
    30
100
AcDbCircle
 10
450.942548
 20
234.077397
 30
0.0
 40
23.0
100
AcDbArc
 50
266.260665
 51
273.739335
  0
ARC
  5
2F4
330
1F
100
AcDbEntity
  8
001
370
    30
100
AcDbCircle
 10
450.942548
 20
234.077397
 30
0.0
 40
24.0
100
AcDbArc
 50
266.416678
 51
273.583322
  0
ARC
  5
2F5
330
1F
100
AcDbEntity
  8
001
370
    30
100
AcDbCircle
 10
450.942548
 20
234.077397
 30
0.0
 40
12.5
100
AcDbArc
 50
336.892103
 51
23.107897
  0
ARC
  5
2F6
330
1F
100
AcDbEntity
  8
001
370
    30
100
AcDbCircle
 10
450.942548
 20
234.077397
 30
0.0
 40
26.0
100
AcDbArc
 50
333.307362
 51
26.692638
  0
ARC
  5
2F7
330
1F
100
AcDbEntity
  8
001
370
    30
100
AcDbCircle
 10
450.942548
 20
234.077397
 30
0.0
 40
21.0
100
AcDbArc
 50
325.903956
 51
334.096044
  0
ARC
  5
2F8
330
1F
100
AcDbEntity
  8
001
370
    30
100
AcDbCircle
 10
450.942548
 20
234.077397
 30
0.0
 40
23.0
100
AcDbArc
 50
326.260665
 51
333.739335
  0
ARC
  5
2F9
330
1F
100
AcDbEntity
  8
001
370
    30
100
AcDbCircle
 10
450.942548
 20
234.077397
 30
0.0
 40
24.0
100
AcDbArc
 50
326.416678
 51
333.583322
  0
ARC
  5
2FA
330
1F
100
AcDbEntity
  8
001
370
    30
100
AcDbCircle
 10
450.942548
 20
234.077397
 30
0.0
 40
12.5
100
AcDbArc
 50
36.892103
 51
83.107897
  0
ARC
  5
2FB
330
1F
100
AcDbEntity
  8
001
370
    30
100
AcDbCircle
 10
450.942548
 20
234.077397
 30
0.0
 40
26.0
100
AcDbArc
 50
33.307362
 51
86.692638
  0
ARC
  5
2FC
330
1F
100
AcDbEntity
  8
001
370
    30
100
AcDbCircle
 10
450.942548
 20
234.077397
 30
0.0
 40
21.0
100
AcDbArc
 50
25.903956
 51
34.096044
  0
ARC
  5
2FD
330
1F
100
AcDbEntity
  8
001
370
    30
100
AcDbCircle
 10
450.942548
 20
234.077397
 30
0.0
 40
23.0
100
AcDbArc
 50
26.260665
 51
33.739335
  0
ARC
  5
2FE
330
1F
100
AcDbEntity
  8
001
370
    30
100
AcDbCircle
 10
450.942548
 20
234.077397
 30
0.0
 40
24.0
100
AcDbArc
 50
26.416678
 51
33.583322
  0
LINE
  5
2FF
330
1F
100
AcDbEntity
  8
001
  6
CENTER
 62
     3
370
     9
100
AcDbLine
 10
442.258169
 20
239.091325
 30
0.0
 11
425.864961
 21
248.555948
 31
0.0
  0
LINE
  5
300
330
1F
100
AcDbEntity
  8
001
370
    30
100
AcDbLine
 10
428.345974
 20
248.855585
 30
0.0
 11
440.945455
 21
241.581272
 31
0.0
  0
LINE
  5
301
330
1F
100
AcDbEntity
  8
001
370
    30
100
AcDbLine
 10
426.845974
 20
246.257509
 30
0.0
 11
439.445455
 21
238.983195
 31
0.0
  0
LINE
  5
302
330
1F
100
AcDbEntity
  8
001
370
    30
100
AcDbLine
 10
449.442548
 20
261.035698
 30
0.0
 11
449.442548
 21
246.48707
 31
0.0
  0
LINE
  5
303
330
1F
100
AcDbEntity
  8
001
370
    30
100
AcDbLine
 10
452.442548
 20
261.035698
 30
0.0
 11
452.442548
 21
246.48707
 31
0.0
  0
LINE
  5
304
330
1F
100
AcDbEntity
  8
001
370
    30
100
AcDbLine
 10
426.845974
 20
221.897284
 30
0.0
 11
439.445455
 21
229.171598
 31
0.0
  0
LINE
  5
305
330
1F
100
AcDbEntity
  8
001
370
    30
100
AcDbLine
 10
428.345974
 20
219.299208
 30
0.0
 11
440.945455
 21
226.573522
 31
0.0
  0
LINE
  5
306
330
1F
100
AcDbEntity
  8
001
370
    30
100
AcDbLine
 10
449.442548
 20
207.119095
 30
0.0
 11
449.442548
 21
221.667723
 31
0.0
  0
LINE
  5
307
330
1F
100
AcDbEntity
  8
001
370
    30
100
AcDbLine
 10
452.442548
 20
207.119095
 30
0.0
 11
452.442548
 21
221.667723
 31
0.0
  0
LINE
  5
308
330
1F
100
AcDbEntity
  8
001
370
    30
100
AcDbLine
 10
475.039122
 20
221.897284
 30
0.0
 11
462.439641
 21
229.171598
 31
0.0
  0
LINE
  5
309
330
1F
100
AcDbEntity
  8
001
370
    30
100
AcDbLine
 10
473.539122
 20
219.299208
 30
0.0
 11
460.939641
 21
226.573522
 31
0.0
  0
LINE
  5
30A
330
1F
100
AcDbEntity
  8
001
370
    30
100
AcDbLine
 10
475.039122
 20
246.257509
 30
0.0
 11
462.439641
 21
238.983195
 31
0.0
  0
LINE
  5
30B
330
1F
100
AcDbEntity
  8
001
370
    30
100
AcDbLine
 10
473.539122
 20
248.855585
 30
0.0
 11
460.939641
 21
241.581272
 31
0.0
  0
LINE
  5
30C
330
1F
100
AcDbEntity
  8
001
  6
CENTER
 62
     3
370
     9
100
AcDbLine
 10
442.258169
 20
229.063468
 30
0.0
 11
425.864961
 21
219.598845
 31
0.0
  0
LINE
  5
30D
330
1F
100
AcDbEntity
  8
001
  6
CENTER
 62
     3
370
     9
100
AcDbLine
 10
459.626927
 20
229.063468
 30
0.0
 11
476.020135
 21
219.598845
 31
0.0
  0
LINE
  5
30E
330
1F
100
AcDbEntity
  8
001
  6
CENTER
 62
     3
370
     9
100
AcDbLine
 10
459.626927
 20
239.091325
 30
0.0
 11
476.020135
 21
248.555948
 31
0.0
  0
TEXT
  5
30F
330
1F
100
AcDbEntity
  8
001
 62
     3
370
    30
100
AcDbText
 10
437.427616
 20
84.047585
 30
0.0
 40
4.5
  1
ＳＡＤ－４０Ｃ
 41
0.874486
100
AcDbText
  0
ENDSEC
  0
SECTION
  2
OBJECTS
  0
DICTIONARY
  5
C
330
0
100
AcDbDictionary
281
     1
  3
ACAD_GROUP
350
D
  3
ACAD_LAYOUT
350
1A
  3
ACAD_MLINESTYLE
350
17
  3
ACAD_PLOTSETTINGS
350
19
  3
ACAD_PLOTSTYLENAME
350
E
  0
DICTIONARY
  5
D
102
{ACAD_REACTORS
330
C
102
}
330
C
100
AcDbDictionary
281
     1
  0
DICTIONARY
  5
1A
102
{ACAD_REACTORS
330
C
102
}
330
C
100
AcDbDictionary
281
     1
  3
Layout1
350
1E
  3
Layout2
350
26
  3
Model
350
22
  0
DICTIONARY
  5
17
102
{ACAD_REACTORS
330
C
102
}
330
C
100
AcDbDictionary
281
     1
  3
Standard
350
18
  0
DICTIONARY
  5
19
102
{ACAD_REACTORS
330
C
102
}
330
C
100
AcDbDictionary
281
     1
  0
ACDBDICTIONARYWDFLT
  5
E
102
{ACAD_REACTORS
330
C
102
}
330
C
100
AcDbDictionary
281
     1
  3
Normal
350
F
100
AcDbDictionaryWithDefault
340
F
  0
LAYOUT
  5
1E
102
{ACAD_REACTORS
330
1A
102
}
330
1A
100
AcDbPlotSettings
  1

  2

  4

  6

 40
0.0
 41
0.0
 42
0.0
 43
0.0
 44
0.0
 45
0.0
 46
0.0
 47
0.0
 48
0.0
 49
0.0
140
0.0
141
0.0
142
1.0
143
1.0
 70
   688
 72
     0
 73
     0
 74
     5
  7

 75
    16
147
1.0
148
0.0
149
0.0
100
AcDbLayout
  1
Layout1
 70
     1
 71
     1
 10
0.0
 20
0.0
 11
12.0
 21
9.0
 12
0.0
 22
0.0
 32
0.0
 14
1.000000E+20
 24
1.000000E+20
 34
0.0
 15
-1.000000E+20
 25
-1.000000E+20
 35
0.0
146
0.0
 13
0.0
 23
0.0
 33
0.0
 16
1.0
 26
0.0
 36
0.0
 17
0.0
 27
1.0
 37
0.0
 76
     0
330
1B
  0
LAYOUT
  5
26
102
{ACAD_REACTORS
330
1A
102
}
330
1A
100
AcDbPlotSettings
  1

  2

  4

  6

 40
0.0
 41
0.0
 42
0.0
 43
0.0
 44
0.0
 45
0.0
 46
0.0
 47
0.0
 48
0.0
 49
0.0
140
0.0
141
0.0
142
1.0
143
1.0
 70
   688
 72
     0
 73
     0
 74
     5
  7

 75
    16
147
1.0
148
0.0
149
0.0
100
AcDbLayout
  1
Layout2
 70
     1
 71
     2
 10
0.0
 20
0.0
 11
0.0
 21
0.0
 12
0.0
 22
0.0
 32
0.0
 14
0.0
 24
0.0
 34
0.0
 15
0.0
 25
0.0
 35
0.0
146
0.0
 13
0.0
 23
0.0
 33
0.0
 16
1.0
 26
0.0
 36
0.0
 17
0.0
 27
1.0
 37
0.0
 76
     0
330
23
  0
LAYOUT
  5
22
102
{ACAD_REACTORS
330
1A
102
}
330
1A
100
AcDbPlotSettings
  1

  2

  4

  6

 40
0.0
 41
0.0
 42
0.0
 43
0.0
 44
0.0
 45
0.0
 46
0.0
 47
0.0
 48
0.0
 49
0.0
140
0.0
141
0.0
142
1.0
143
1.0
 70
  1712
 72
     0
 73
     0
 74
     0
  7

 75
     0
147
1.0
148
0.0
149
0.0
100
AcDbLayout
  1
Model
 70
     1
 71
     0
 10
0.0
 20
0.0
 11
12.0
 21
9.0
 12
0.0
 22
0.0
 32
0.0
 14
83.363037
 24
84.047577
 34
0.0
 15
541.967163
 25
348.703766
 35
0.0
146
0.0
 13
0.0
 23
0.0
 33
0.0
 16
1.0
 26
0.0
 36
0.0
 17
0.0
 27
1.0
 37
0.0
 76
     0
330
1F
  0
MLINESTYLE
  5
18
102
{ACAD_REACTORS
330
17
102
}
330
17
100
AcDbMlineStyle
  2
Standard
 70
     0
  3

 62
   256
 51
90.0
 52
90.0
 71
     2
 49
0.5
 62
   256
  6
BYLAYER
 49
-0.5
 62
   256
  6
BYLAYER
  0
ACDBPLACEHOLDER
  5
F
102
{ACAD_REACTORS
330
E
102
}
330
E
  0
ENDSEC
  0
EOF
