  0
SECTION
  2
HEADER
  9
$ACADVER
  1
AC1015
  9
$ACADMAINTVER
 70
     6
  9
$DWGCODEPAGE
  3
ANSI_932
  9
$INSBASE
 10
0.0
 20
0.0
 30
0.0
  9
$EXTMIN
 10
0.0
 20
0.0
 30
0.0
  9
$EXTMAX
 10
420.0
 20
297.0
 30
0.0
  9
$LIMMIN
 10
0.0
 20
0.0
  9
$LIMMAX
 10
12.0
 20
9.0
  9
$ORTHOMODE
 70
     0
  9
$REGENMODE
 70
     1
  9
$FILLMODE
 70
     1
  9
$QTEXTMODE
 70
     0
  9
$MIRRTEXT
 70
     1
  9
$LTSCALE
 40
5.144016
  9
$ATTMODE
 70
     1
  9
$TEXTSIZE
 40
3.2
  9
$TRACEWID
 40
1.0
  9
$TEXTSTYLE
  7
Standard
  9
$CLAYER
  8
0
  9
$CELTYPE
  6
ByLayer
  9
$CECOLOR
 62
   256
  9
$CELTSCALE
 40
1.0
  9
$DISPSILH
 70
     0
  9
$DIMSCALE
 40
1.0
  9
$DIMASZ
 40
2.5
  9
$DIMEXO
 40
0.625
  9
$DIMDLI
 40
3.75
  9
$DIMRND
 40
0.0
  9
$DIMDLE
 40
0.0
  9
$DIMEXE
 40
1.25
  9
$DIMTP
 40
0.0
  9
$DIMTM
 40
0.0
  9
$DIMTXT
 40
2.5
  9
$DIMCEN
 40
0.09
  9
$DIMTSZ
 40
0.0
  9
$DIMTOL
 70
     0
  9
$DIMLIM
 70
     0
  9
$DIMTIH
 70
     0
  9
$DIMTOH
 70
     0
  9
$DIMSE1
 70
     0
  9
$DIMSE2
 70
     0
  9
$DIMTAD
 70
     0
  9
$DIMZIN
 70
     8
  9
$DIMBLK
  1

  9
$DIMASO
 70
     1
  9
$DIMSHO
 70
     0
  9
$DIMPOST
  1

  9
$DIMAPOST
  1

  9
$DIMALT
 70
     0
  9
$DIMALTD
 70
     3
  9
$DIMALTF
 40
0.03937
  9
$DIMLFAC
 40
1.0
  9
$DIMTOFL
 70
     1
  9
$DIMTVP
 40
0.0
  9
$DIMTIX
 70
     0
  9
$DIMSOXD
 70
     0
  9
$DIMSAH
 70
     0
  9
$DIMBLK1
  1

  9
$DIMBLK2
  1

  9
$DIMSTYLE
  2
ISO-25
  9
$DIMCLRD
 70
     0
  9
$DIMCLRE
 70
     0
  9
$DIMCLRT
 70
     0
  9
$DIMTFAC
 40
1.0
  9
$DIMGAP
 40
0.625
  9
$DIMJUST
 70
     0
  9
$DIMSD1
 70
     0
  9
$DIMSD2
 70
     0
  9
$DIMTOLJ
 70
     0
  9
$DIMTZIN
 70
     8
  9
$DIMALTZ
 70
     0
  9
$DIMALTTZ
 70
     0
  9
$DIMUPT
 70
     0
  9
$DIMDEC
 70
     2
  9
$DIMTDEC
 70
     2
  9
$DIMALTU
 70
     2
  9
$DIMALTTD
 70
     3
  9
$DIMTXSTY
  7
Standard
  9
$DIMAUNIT
 70
     0
  9
$DIMADEC
 70
     0
  9
$DIMALTRND
 40
0.0
  9
$DIMAZIN
 70
     0
  9
$DIMDSEP
 70
    44
  9
$DIMATFIT
 70
     3
  9
$DIMFRAC
 70
     0
  9
$DIMLDRBLK
  1

  9
$DIMLUNIT
 70
     2
  9
$DIMLWD
 70
    -2
  9
$DIMLWE
 70
    -2
  9
$DIMTMOVE
 70
     0
  9
$LUNITS
 70
     2
  9
$LUPREC
 70
     4
  9
$SKETCHINC
 40
1.0
  9
$FILLETRAD
 40
0.0
  9
$AUNITS
 70
     0
  9
$AUPREC
 70
     0
  9
$MENU
  1
.
  9
$ELEVATION
 40
0.0
  9
$PELEVATION
 40
0.0
  9
$THICKNESS
 40
0.0
  9
$LIMCHECK
 70
     0
  9
$CHAMFERA
 40
10.0
  9
$CHAMFERB
 40
10.0
  9
$CHAMFERC
 40
20.0
  9
$CHAMFERD
 40
0.0
  9
$SKPOLY
 70
     0
  9
$TDCREATE
 40
2455588.677923901
  9
$TDUCREATE
 40
2455588.302923901
  9
$TDUPDATE
 40
2455588.677923912
  9
$TDUUPDATE
 40
2455588.302923912
  9
$TDINDWG
 40
0.0000000116
  9
$TDUSRTIMER
 40
0.0000000116
  9
$USRTIMER
 70
     1
  9
$ANGBASE
 50
0.0
  9
$ANGDIR
 70
     0
  9
$PDMODE
 70
     0
  9
$PDSIZE
 40
0.0
  9
$PLINEWID
 40
0.0
  9
$SPLFRAME
 70
     0
  9
$SPLINETYPE
 70
     6
  9
$SPLINESEGS
 70
     8
  9
$HANDSEED
  5
666
  9
$SURFTAB1
 70
     6
  9
$SURFTAB2
 70
     6
  9
$SURFTYPE
 70
     6
  9
$SURFU
 70
     6
  9
$SURFV
 70
     6
  9
$UCSBASE
  2

  9
$UCSNAME
  2

  9
$UCSORG
 10
0.0
 20
0.0
 30
0.0
  9
$UCSXDIR
 10
1.0
 20
0.0
 30
0.0
  9
$UCSYDIR
 10
0.0
 20
1.0
 30
0.0
  9
$UCSORTHOREF
  2

  9
$UCSORTHOVIEW
 70
     0
  9
$UCSORGTOP
 10
0.0
 20
0.0
 30
0.0
  9
$UCSORGBOTTOM
 10
0.0
 20
0.0
 30
0.0
  9
$UCSORGLEFT
 10
0.0
 20
0.0
 30
0.0
  9
$UCSORGRIGHT
 10
0.0
 20
0.0
 30
0.0
  9
$UCSORGFRONT
 10
0.0
 20
0.0
 30
0.0
  9
$UCSORGBACK
 10
0.0
 20
0.0
 30
0.0
  9
$PUCSBASE
  2

  9
$PUCSNAME
  2

  9
$PUCSORG
 10
0.0
 20
0.0
 30
0.0
  9
$PUCSXDIR
 10
1.0
 20
0.0
 30
0.0
  9
$PUCSYDIR
 10
0.0
 20
1.0
 30
0.0
  9
$PUCSORTHOREF
  2

  9
$PUCSORTHOVIEW
 70
     0
  9
$PUCSORGTOP
 10
0.0
 20
0.0
 30
0.0
  9
$PUCSORGBOTTOM
 10
0.0
 20
0.0
 30
0.0
  9
$PUCSORGLEFT
 10
0.0
 20
0.0
 30
0.0
  9
$PUCSORGRIGHT
 10
0.0
 20
0.0
 30
0.0
  9
$PUCSORGFRONT
 10
0.0
 20
0.0
 30
0.0
  9
$PUCSORGBACK
 10
0.0
 20
0.0
 30
0.0
  9
$USERI1
 70
     0
  9
$USERI2
 70
     0
  9
$USERI3
 70
     0
  9
$USERI4
 70
     0
  9
$USERI5
 70
     0
  9
$USERR1
 40
0.0
  9
$USERR2
 40
0.0
  9
$USERR3
 40
0.0
  9
$USERR4
 40
0.0
  9
$USERR5
 40
0.0
  9
$WORLDVIEW
 70
     1
  9
$SHADEDGE
 70
     3
  9
$SHADEDIF
 70
    70
  9
$TILEMODE
 70
     1
  9
$MAXACTVP
 70
    64
  9
$PINSBASE
 10
0.0
 20
0.0
 30
0.0
  9
$PLIMCHECK
 70
     0
  9
$PEXTMIN
 10
1.000000E+20
 20
1.000000E+20
 30
0.0
  9
$PEXTMAX
 10
-1.000000E+20
 20
-1.000000E+20
 30
0.0
  9
$PLIMMIN
 10
0.0
 20
0.0
  9
$PLIMMAX
 10
12.0
 20
9.0
  9
$UNITMODE
 70
     0
  9
$VISRETAIN
 70
     1
  9
$PLINEGEN
 70
     0
  9
$PSLTSCALE
 70
     1
  9
$TREEDEPTH
 70
  3020
  9
$CMLSTYLE
  2
Standard
  9
$CMLJUST
 70
     0
  9
$CMLSCALE
 40
20.0
  9
$PROXYGRAPHICS
 70
     1
  9
$MEASUREMENT
 70
     1
  9
$CELWEIGHT
370
    -1
  9
$ENDCAPS
280
     0
  9
$JOINSTYLE
280
     0
  9
$LWDISPLAY
290
     0
  9
$INSUNITS
 70
     4
  9
$HYPERLINKBASE
  1

  9
$STYLESHEET
  1

  9
$XEDIT
290
     1
  9
$CEPSNTYPE
380
     0
  9
$PSTYLEMODE
290
     1
  9
$FINGERPRINTGUID
  2
{93AB94EE-4DE7-4C51-A5B5-33417908088B}
  9
$VERSIONGUID
  2
{FAEB1C32-E019-11D5-929B-00C0DF256EC4}
  9
$EXTNAMES
290
     1
  9
$PSVPSCALE
 40
0.0
  9
$OLESTARTUP
290
     0
  0
ENDSEC
  0
SECTION
  2
CLASSES
  0
CLASS
  1
ACDBDICTIONARYWDFLT
  2
AcDbDictionaryWithDefault
  3
ObjectDBX Classes
 90
        0
280
     0
281
     0
  0
CLASS
  1
VISUALSTYLE
  2
AcDbVisualStyle
  3
ObjectDBX Classes
 90
     4095
280
     0
281
     0
  0
CLASS
  1
SCALE
  2
AcDbScale
  3
ObjectDBX Classes
 90
     1153
280
     0
281
     0
  0
CLASS
  1
DICTIONARYVAR
  2
AcDbDictionaryVar
  3
ObjectDBX Classes
 90
        0
280
     0
281
     0
  0
CLASS
  1
ACDBPLACEHOLDER
  2
AcDbPlaceHolder
  3
ObjectDBX Classes
 90
        0
280
     0
281
     0
  0
CLASS
  1
LAYOUT
  2
AcDbLayout
  3
ObjectDBX Classes
 90
        0
280
     0
281
     0
  0
ENDSEC
  0
SECTION
  2
TABLES
  0
TABLE
  2
VPORT
  5
8
330
0
100
AcDbSymbolTable
 70
     1
  0
VPORT
  5
29
330
8
100
AcDbSymbolTableRecord
100
AcDbViewportTableRecord
  2
*Active
 70
     0
 10
0.0
 20
0.0
 11
1.0
 21
1.0
 12
210.0
 22
148.5
 13
0.0
 23
0.0
 14
1.0
 24
1.0
 15
0.0
 25
0.0
 16
0.0
 26
0.0
 36
1.0
 17
0.0
 27
0.0
 37
0.0
 40
299.97
 41
1.691288
 42
50.0
 43
0.0
 44
0.0
 50
0.0
 51
0.0
 71
     0
 72
   100
 73
     1
 74
     3
 75
     0
 76
     0
 77
     0
 78
     0
281
     0
 65
     1
110
0.0
120
0.0
130
0.0
111
1.0
121
0.0
131
0.0
112
0.0
122
1.0
132
0.0
 79
     0
146
0.0
  0
ENDTAB
  0
TABLE
  2
LTYPE
  5
5
330
0
100
AcDbSymbolTable
 70
     5
  0
LTYPE
  5
14
330
5
100
AcDbSymbolTableRecord
100
AcDbLinetypeTableRecord
  2
ByBlock
 70
     0
  3

 72
    65
 73
     0
 40
0.0
  0
LTYPE
  5
15
330
5
100
AcDbSymbolTableRecord
100
AcDbLinetypeTableRecord
  2
ByLayer
 70
     0
  3

 72
    65
 73
     0
 40
0.0
  0
LTYPE
  5
16
330
5
100
AcDbSymbolTableRecord
100
AcDbLinetypeTableRecord
  2
Continuous
 70
     0
  3
Solid line
 72
    65
 73
     0
 40
0.0
  0
LTYPE
  5
3B
330
5
100
AcDbSymbolTableRecord
100
AcDbLinetypeTableRecord
  2
DASHED
 70
     0
  3
DASHED
 72
    83
 73
     2
 40
0.75
 49
0.5
 74
     0
 49
-0.25
 74
     0
  0
LTYPE
  5
3C
330
5
100
AcDbSymbolTableRecord
100
AcDbLinetypeTableRecord
  2
HIDDEN
 70
     0
  3
HIDDEN
 72
    83
 73
     2
 40
0.375
 49
0.25
 74
     0
 49
-0.125
 74
     0
  0
LTYPE
  5
3D
330
5
100
AcDbSymbolTableRecord
100
AcDbLinetypeTableRecord
  2
CENTER
 70
     0
  3
CENTER
 72
    83
 73
     4
 40
2.0
 49
1.25
 74
     0
 49
-0.25
 74
     0
 49
0.25
 74
     0
 49
-0.25
 74
     0
  0
LTYPE
  5
3E
330
5
100
AcDbSymbolTableRecord
100
AcDbLinetypeTableRecord
  2
PHANTOM
 70
     0
  3
PHANTOM
 72
    83
 73
     6
 40
2.5
 49
1.25
 74
     0
 49
-0.25
 74
     0
 49
0.25
 74
     0
 49
-0.25
 74
     0
 49
0.25
 74
     0
 49
-0.25
 74
     0
  0
ENDTAB
  0
TABLE
  2
LAYER
  5
2
330
0
100
AcDbSymbolTable
 70
     3
  0
LAYER
  5
10
330
2
100
AcDbSymbolTableRecord
100
AcDbLayerTableRecord
  2
0
 70
     0
 62
     7
  6
Continuous
370
    -3
390
F
  0
LAYER
  5
3F
330
2
100
AcDbSymbolTableRecord
100
AcDbLayerTableRecord
  2
001
 70
     0
 62
     7
  6
Continuous
370
    -3
390
F
  0
LAYER
  5
40
330
2
100
AcDbSymbolTableRecord
100
AcDbLayerTableRecord
  2
002
 70
     0
 62
     7
  6
Continuous
370
    -3
390
F
  0
ENDTAB
  0
TABLE
  2
STYLE
  5
3
330
0
100
AcDbSymbolTable
 70
     2
  0
STYLE
  5
11
330
3
100
AcDbSymbolTableRecord
100
AcDbTextStyleTableRecord
  2
Standard
 70
     0
 40
0.0
 41
1.0
 50
0.0
 71
     0
 42
0.2
  3
TXT
  4
BIGFONT
  0
STYLE
  5
41
330
3
100
AcDbSymbolTableRecord
100
AcDbTextStyleTableRecord
  2
TATEGAKI
 70
     4
 40
1.0
 41
1.0
 50
0.0
 71
     0
 42
0.2
  3
TXT
  4
BIGFONT
  0
ENDTAB
  0
TABLE
  2
VIEW
  5
6
330
0
100
AcDbSymbolTable
 70
     0
  0
ENDTAB
  0
TABLE
  2
UCS
  5
7
330
0
100
AcDbSymbolTable
 70
     0
  0
ENDTAB
  0
TABLE
  2
APPID
  5
9
330
0
100
AcDbSymbolTable
 70
     1
  0
APPID
  5
12
330
9
100
AcDbSymbolTableRecord
100
AcDbRegAppTableRecord
  2
ACAD
 70
     0
  0
ENDTAB
  0
TABLE
  2
DIMSTYLE
  5
A
330
0
100
AcDbSymbolTable
 70
     2
100
AcDbDimStyleTable
  0
DIMSTYLE
105
27
330
A
100
AcDbSymbolTableRecord
100
AcDbDimStyleTableRecord
  2
ISO-25
 70
     0
 41
2.5
 42
0.625
 43
3.75
 44
1.25
 73
     0
 74
     0
 77
     1
 78
     8
140
2.5
141
2.5
143
0.03937
147
0.625
171
     3
172
     1
271
     2
272
     2
274
     3
278
    44
283
     0
284
     8
340
11
  0
DIMSTYLE
105
42
102
{ACAD_REACTORS
330
46D
330
46E
330
46F
330
471
330
473
330
474
330
475
330
476
330
477
330
478
330
479
330
47A
330
47B
330
47C
102
}
330
A
100
AcDbSymbolTableRecord
100
AcDbDimStyleTableRecord
  2
Standard
 70
     0
 41
2.0
 42
0.0
 44
1.2
 73
     0
 74
     0
 77
     1
 78
     8
 79
     2
140
3.5
146
0.6
147
1.0
172
     1
179
     3
271
     3
340
11
  0
ENDTAB
  0
TABLE
  2
BLOCK_RECORD
  5
1
330
0
100
AcDbSymbolTable
 70
    36
  0
BLOCK_RECORD
  5
1F
330
1
100
AcDbSymbolTableRecord
100
AcDbBlockTableRecord
  2
*Model_Space
340
22
  0
BLOCK_RECORD
  5
1B
330
1
100
AcDbSymbolTableRecord
100
AcDbBlockTableRecord
  2
*Paper_Space
340
1E
  0
BLOCK_RECORD
  5
23
330
1
100
AcDbSymbolTableRecord
100
AcDbBlockTableRecord
  2
*Paper_Space0
340
26
  0
BLOCK_RECORD
  5
43
330
1
100
AcDbSymbolTableRecord
100
AcDbBlockTableRecord
  2
JZB-1
340
0
102
{BLKREFS
331
45B
102
}
  0
BLOCK_RECORD
  5
255
330
1
100
AcDbSymbolTableRecord
100
AcDbBlockTableRecord
  2
JZB-2
340
0
102
{BLKREFS
331
45C
102
}
  0
BLOCK_RECORD
  5
26B
330
1
100
AcDbSymbolTableRecord
100
AcDbBlockTableRecord
  2
JZB-3
340
0
102
{BLKREFS
331
45D
102
}
  0
BLOCK_RECORD
  5
280
330
1
100
AcDbSymbolTableRecord
100
AcDbBlockTableRecord
  2
JZB-4
340
0
102
{BLKREFS
331
45E
102
}
  0
BLOCK_RECORD
  5
28A
330
1
100
AcDbSymbolTableRecord
100
AcDbBlockTableRecord
  2
JZB-5
340
0
102
{BLKREFS
331
45F
102
}
  0
BLOCK_RECORD
  5
294
330
1
100
AcDbSymbolTableRecord
100
AcDbBlockTableRecord
  2
JZB-6
340
0
102
{BLKREFS
331
460
102
}
  0
BLOCK_RECORD
  5
29E
330
1
100
AcDbSymbolTableRecord
100
AcDbBlockTableRecord
  2
JZB-7
340
0
102
{BLKREFS
331
461
102
}
  0
BLOCK_RECORD
  5
2A8
330
1
100
AcDbSymbolTableRecord
100
AcDbBlockTableRecord
  2
JZB-8
340
0
102
{BLKREFS
331
462
102
}
  0
BLOCK_RECORD
  5
2B2
330
1
100
AcDbSymbolTableRecord
100
AcDbBlockTableRecord
  2
JZB-9
340
0
102
{BLKREFS
331
463
102
}
  0
BLOCK_RECORD
  5
2BC
330
1
100
AcDbSymbolTableRecord
100
AcDbBlockTableRecord
  2
DIM-10
340
0
102
{BLKREFS
331
464
102
}
  0
BLOCK_RECORD
  5
2C6
330
1
100
AcDbSymbolTableRecord
100
AcDbBlockTableRecord
  2
DIM-11
340
0
102
{BLKREFS
331
465
102
}
  0
BLOCK_RECORD
  5
2D0
330
1
100
AcDbSymbolTableRecord
100
AcDbBlockTableRecord
  2
DIM-12
340
0
102
{BLKREFS
331
466
102
}
  0
BLOCK_RECORD
  5
2DA
330
1
100
AcDbSymbolTableRecord
100
AcDbBlockTableRecord
  2
DIM-13
340
0
102
{BLKREFS
331
467
102
}
  0
BLOCK_RECORD
  5
2E4
330
1
100
AcDbSymbolTableRecord
100
AcDbBlockTableRecord
  2
DIM-14
340
0
102
{BLKREFS
331
468
102
}
  0
BLOCK_RECORD
  5
2EE
330
1
100
AcDbSymbolTableRecord
100
AcDbBlockTableRecord
  2
DIM-15
340
0
102
{BLKREFS
331
469
102
}
  0
BLOCK_RECORD
  5
2F8
330
1
100
AcDbSymbolTableRecord
100
AcDbBlockTableRecord
  2
DIM-16
340
0
102
{BLKREFS
331
46A
102
}
  0
BLOCK_RECORD
  5
302
330
1
100
AcDbSymbolTableRecord
100
AcDbBlockTableRecord
  2
DIM-17
340
0
102
{BLKREFS
331
46B
102
}
  0
BLOCK_RECORD
  5
30C
330
1
100
AcDbSymbolTableRecord
100
AcDbBlockTableRecord
  2
DIM-18
340
0
102
{BLKREFS
331
46C
102
}
  0
BLOCK_RECORD
  5
316
330
1
100
AcDbSymbolTableRecord
100
AcDbBlockTableRecord
  2
*D19
340
0
  0
BLOCK_RECORD
  5
32A
330
1
100
AcDbSymbolTableRecord
100
AcDbBlockTableRecord
  2
*D20
340
0
  0
BLOCK_RECORD
  5
33E
330
1
100
AcDbSymbolTableRecord
100
AcDbBlockTableRecord
  2
*D21
340
0
  0
BLOCK_RECORD
  5
352
330
1
100
AcDbSymbolTableRecord
100
AcDbBlockTableRecord
  2
DIM-19
340
0
102
{BLKREFS
331
470
102
}
  0
BLOCK_RECORD
  5
361
330
1
100
AcDbSymbolTableRecord
100
AcDbBlockTableRecord
  2
*D23
340
0
  0
BLOCK_RECORD
  5
373
330
1
100
AcDbSymbolTableRecord
100
AcDbBlockTableRecord
  2
DIM-20
340
0
102
{BLKREFS
331
472
102
}
  0
BLOCK_RECORD
  5
381
330
1
100
AcDbSymbolTableRecord
100
AcDbBlockTableRecord
  2
*D25
340
0
  0
BLOCK_RECORD
  5
392
330
1
100
AcDbSymbolTableRecord
100
AcDbBlockTableRecord
  2
*D26
340
0
  0
BLOCK_RECORD
  5
3A6
330
1
100
AcDbSymbolTableRecord
100
AcDbBlockTableRecord
  2
*D27
340
0
  0
BLOCK_RECORD
  5
3BA
330
1
100
AcDbSymbolTableRecord
100
AcDbBlockTableRecord
  2
*D28
340
0
  0
BLOCK_RECORD
  5
3CE
330
1
100
AcDbSymbolTableRecord
100
AcDbBlockTableRecord
  2
*D29
340
0
  0
BLOCK_RECORD
  5
3E2
330
1
100
AcDbSymbolTableRecord
100
AcDbBlockTableRecord
  2
*D30
340
0
  0
BLOCK_RECORD
  5
3F6
330
1
100
AcDbSymbolTableRecord
100
AcDbBlockTableRecord
  2
*D31
340
0
  0
BLOCK_RECORD
  5
40A
330
1
100
AcDbSymbolTableRecord
100
AcDbBlockTableRecord
  2
*D32
340
0
  0
BLOCK_RECORD
  5
41E
330
1
100
AcDbSymbolTableRecord
100
AcDbBlockTableRecord
  2
*D33
340
0
  0
BLOCK_RECORD
  5
432
330
1
100
AcDbSymbolTableRecord
100
AcDbBlockTableRecord
  2
*D34
340
0
  0
BLOCK_RECORD
  5
447
330
1
100
AcDbSymbolTableRecord
100
AcDbBlockTableRecord
  2
DIM-21
340
0
102
{BLKREFS
331
47E
102
}
  0
ENDTAB
  0
ENDSEC
  0
SECTION
  2
BLOCKS
  0
BLOCK
  5
20
330
1F
100
AcDbEntity
  8
0
100
AcDbBlockBegin
  2
*Model_Space
 70
     0
 10
0.0
 20
0.0
 30
0.0
  3
*Model_Space
  1

  0
ENDBLK
  5
21
330
1F
100
AcDbEntity
  8
0
100
AcDbBlockEnd
  0
BLOCK
  5
1C
330
1B
100
AcDbEntity
 67
     1
  8
0
100
AcDbBlockBegin
  2
*Paper_Space
 70
     0
 10
0.0
 20
0.0
 30
0.0
  3
*Paper_Space
  1

  0
ENDBLK
  5
1D
330
1B
100
AcDbEntity
 67
     1
  8
0
100
AcDbBlockEnd
  0
BLOCK
  5
24
330
23
100
AcDbEntity
  8
0
100
AcDbBlockBegin
  2
*Paper_Space0
 70
     0
 10
0.0
 20
0.0
 30
0.0
  3
*Paper_Space0
  1

  0
ENDBLK
  5
25
330
23
100
AcDbEntity
  8
0
100
AcDbBlockEnd
  0
BLOCK
  5
44
330
43
100
AcDbEntity
  8
0
100
AcDbBlockBegin
  2
JZB-1
 70
     0
 10
0.0
 20
0.0
 30
0.0
  3
JZB-1
  1

  0
TEXT
  5
46
330
43
100
AcDbEntity
  8
002
 62
     3
370
    30
100
AcDbText
 10
251.5
 20
10.5
 30
0.0
 40
2.2
  1
ＦＡＸ　（０２５８）８２－９９９６
 41
0.549241
100
AcDbText
  0
ARC
  5
69
330
43
100
AcDbEntity
  8
002
 62
     3
370
     9
100
AcDbCircle
 10
254.108275
 20
17.26955
 30
0.0
 40
7.115052733282482
100
AcDbArc
 50
65.353685
 51
105.6584
  0
ARC
  5
6A
330
43
100
AcDbEntity
  8
002
 62
     3
370
     9
100
AcDbCircle
 10
254.377365
 20
17.927646
 30
0.0
 40
6.404764311079217
100
AcDbArc
 50
38.417655
 51
65.086559
  0
ARC
  5
6B
330
43
100
AcDbEntity
  8
002
 62
     3
370
     9
100
AcDbCircle
 10
256.718042
 20
23.671022
 30
0.0
 40
3.206065079727681
100
AcDbArc
 50
326.628963
 51
341.358949
  0
ARC
  5
6C
330
43
100
AcDbEntity
  8
002
 62
     3
370
     9
100
AcDbCircle
 10
258.296966
 20
23.088515
 30
0.0
 40
1.524513419462779
100
AcDbArc
 50
343.135543
 51
2.46562
  0
ARC
  5
6D
330
43
100
AcDbEntity
  8
002
 62
     3
370
     9
100
AcDbCircle
 10
258.882975
 20
23.062383
 30
0.0
 40
0.9415708400103575
100
AcDbArc
 50
5.58995
 51
92.810775
  0
ARC
  5
6E
330
43
100
AcDbEntity
  8
002
 62
     3
370
     9
100
AcDbCircle
 10
258.920829
 20
22.530575
 30
0.0
 40
1.474641782086106
100
AcDbArc
 50
93.266515
 51
126.738512
  0
ARC
  5
6F
330
43
100
AcDbEntity
  8
002
 62
     3
370
     9
100
AcDbCircle
 10
254.629687
 20
17.518298
 30
0.0
 40
7.070188113982016
100
AcDbArc
 50
61.172481
 51
78.246063
  0
ARC
  5
70
330
43
100
AcDbEntity
  8
002
 62
     3
370
     9
100
AcDbCircle
 10
258.904162
 20
21.493648
 30
0.0
 40
4.088420609535032
100
AcDbArc
 50
95.981732
 51
133.790281
  0
ARC
  5
71
330
43
100
AcDbEntity
  8
002
 62
     3
370
     9
100
AcDbCircle
 10
258.818412
 20
22.561017
 30
0.0
 40
3.018038304222789
100
AcDbArc
 50
67.922327
 51
96.474356
  0
ARC
  5
72
330
43
100
AcDbEntity
  8
002
 62
     3
370
     9
100
AcDbCircle
 10
12556.232907
 20
-10089.435106
 30
0.0
 40
15924.35983710991
100
AcDbArc
 50
140.576129
 51
140.597874
  0
ARC
  5
73
330
43
100
AcDbEntity
  8
002
 62
     3
370
     9
100
AcDbCircle
 10
489.947084
 20
-151.586218
 30
0.0
 40
290.8135651916087
100
AcDbArc
 50
143.297678
 51
144.158428
  0
ARC
  5
74
330
43
100
AcDbEntity
  8
002
 62
     3
370
     9
100
AcDbCircle
 10
253.167021
 20
18.587315
 30
0.0
 40
5.128858166253528
100
AcDbArc
 50
22.937304
 51
45.106985
  0
ARC
  5
75
330
43
100
AcDbEntity
  8
002
 62
     3
370
     9
100
AcDbCircle
 10
256.572756
 20
23.197386
 30
0.0
 40
2.924824787366081
100
AcDbArc
 50
285.151265
 51
296.774896
  0
ARC
  5
76
330
43
100
AcDbEntity
  8
002
 62
     3
370
     9
100
AcDbCircle
 10
257.390552
 20
24.290933
 30
0.0
 40
4.074450784676405
100
AcDbArc
 50
269.4096
 51
307.71056
  0
ARC
  5
77
330
43
100
AcDbEntity
  8
002
 62
     3
370
     9
100
AcDbCircle
 10
257.717389
 20
23.924029
 30
0.0
 40
3.584434916728443
100
AcDbArc
 50
307.164846
 51
342.38718
  0
ARC
  5
78
330
43
100
AcDbEntity
  8
002
 62
     3
370
     9
100
AcDbCircle
 10
252.444312
 20
17.549568
 30
0.0
 40
6.418891914826705
100
AcDbArc
 50
65.000408
 51
92.071528
  0
ARC
  5
79
330
43
100
AcDbEntity
  8
002
 62
     3
370
     9
100
AcDbCircle
 10
257.353784
 20
20.29625
 30
0.0
 40
0.0797225595863068
100
AcDbArc
 50
101.997499
 51
266.248641
  0
ARC
  5
7A
330
43
100
AcDbEntity
  8
002
 62
     3
370
     9
100
AcDbCircle
 10
257.947618
 20
24.389791
 30
0.0
 40
4.255367512205797
100
AcDbArc
 50
271.489783
 51
300.21413
  0
ARC
  5
7B
330
43
100
AcDbEntity
  8
002
 62
     3
370
     9
100
AcDbCircle
 10
253.451105
 20
18.697434
 30
0.0
 40
4.826476856682554
100
AcDbArc
 50
0.012684
 51
17.339226
  0
ARC
  5
7C
330
43
100
AcDbEntity
  8
002
 62
     3
370
     9
100
AcDbCircle
 10
255.544641
 20
18.720947
 30
0.0
 40
4.96165970362781
100
AcDbArc
 50
359.751073
 51
23.665155
  0
ARC
  5
7D
330
43
100
AcDbEntity
  8
002
 62
     3
370
     9
100
AcDbCircle
 10
259.205811
 20
23.476823
 30
0.0
 40
2.02382932166976
100
AcDbArc
 50
17.968717
 51
68.34064
  0
ARC
  5
7E
330
43
100
AcDbEntity
  8
002
 62
     3
370
     9
100
AcDbCircle
 10
258.966458
 20
23.46538
 30
0.0
 40
2.255916092817202
100
AcDbArc
 50
343.890965
 51
16.369571
  0
ARC
  5
7F
330
43
100
AcDbEntity
  8
002
 62
     3
370
     9
100
AcDbCircle
 10
252.209408
 20
24.043859
 30
0.0
 40
0.0796458653951215
100
AcDbArc
 50
105.6584
 51
272.071528
  0
LINE
  5
80
330
43
100
AcDbEntity
  8
002
 62
     3
370
     9
100
AcDbLine
 10
254.202214
 20
18.698502
 30
0.0
 11
251.320425
 21
18.698502
 31
0.0
  0
LINE
  5
81
330
43
100
AcDbEntity
  8
002
 62
     3
370
     9
100
AcDbLine
 10
258.277581
 20
18.698503
 30
0.0
 11
260.50625
 21
18.698503
 31
0.0
  0
LINE
  5
82
330
43
100
AcDbEntity
  8
002
 62
     3
370
     9
100
AcDbLine
 10
265.346449
 20
18.509219
 30
0.0
 11
265.097719
 21
18.509219
 31
0.0
  0
LINE
  5
83
330
43
100
AcDbEntity
  8
002
 62
     3
370
     9
100
AcDbLine
 10
265.097719
 20
18.509219
 30
0.0
 11
264.594191
 21
18.509219
 31
0.0
  0
LINE
  5
84
330
43
100
AcDbEntity
  8
002
 62
     3
370
     9
100
AcDbLine
 10
264.594191
 20
18.509219
 30
0.0
 11
264.199863
 21
18.509219
 31
0.0
  0
LINE
  5
85
330
43
100
AcDbEntity
  8
002
 62
     3
370
     9
100
AcDbLine
 10
264.199863
 20
18.509219
 30
0.0
 11
264.152456
 21
18.512824
 31
0.0
  0
LINE
  5
86
330
43
100
AcDbEntity
  8
002
 62
     3
370
     9
100
AcDbLine
 10
264.152456
 20
18.512824
 30
0.0
 11
264.096394
 21
18.626007
 31
0.0
  0
LINE
  5
87
330
43
100
AcDbEntity
  8
002
 62
     3
370
     9
100
AcDbLine
 10
264.096394
 20
18.626007
 30
0.0
 11
263.834291
 21
19.155156
 31
0.0
  0
LINE
  5
88
330
43
100
AcDbEntity
  8
002
 62
     3
370
     9
100
AcDbLine
 10
263.834291
 20
19.155156
 30
0.0
 11
263.550764
 21
19.72756
 31
0.0
  0
LINE
  5
89
330
43
100
AcDbEntity
  8
002
 62
     3
370
     9
100
AcDbLine
 10
263.550764
 20
19.72756
 30
0.0
 11
263.452397
 21
19.925955
 31
0.0
  0
LINE
  5
8A
330
43
100
AcDbEntity
  8
002
 62
     3
370
     9
100
AcDbLine
 10
263.452397
 20
19.925955
 30
0.0
 11
263.449718
 21
19.925955
 31
0.0
  0
LINE
  5
8B
330
43
100
AcDbEntity
  8
002
 62
     3
370
     9
100
AcDbLine
 10
263.449718
 20
19.925955
 30
0.0
 11
263.445556
 21
19.925955
 31
0.0
  0
LINE
  5
8C
330
43
100
AcDbEntity
  8
002
 62
     3
370
     9
100
AcDbLine
 10
263.445556
 20
19.925955
 30
0.0
 11
263.442878
 21
19.925955
 31
0.0
  0
LINE
  5
8D
330
43
100
AcDbEntity
  8
002
 62
     3
370
     9
100
AcDbLine
 10
263.442878
 20
19.925955
 30
0.0
 11
263.407805
 21
19.72756
 31
0.0
  0
LINE
  5
8E
330
43
100
AcDbEntity
  8
002
 62
     3
370
     9
100
AcDbLine
 10
263.407805
 20
19.72756
 30
0.0
 11
263.306895
 21
19.155156
 31
0.0
  0
LINE
  5
8F
330
43
100
AcDbEntity
  8
002
 62
     3
370
     9
100
AcDbLine
 10
263.306895
 20
19.155156
 30
0.0
 11
263.21361
 21
18.626007
 31
0.0
  0
LINE
  5
90
330
43
100
AcDbEntity
  8
002
 62
     3
370
     9
100
AcDbLine
 10
263.21361
 20
18.626007
 30
0.0
 11
263.193656
 21
18.512824
 31
0.0
  0
LINE
  5
91
330
43
100
AcDbEntity
  8
002
 62
     3
370
     9
100
AcDbLine
 10
263.193656
 20
18.512824
 30
0.0
 11
263.156374
 21
18.509219
 31
0.0
  0
LINE
  5
92
330
43
100
AcDbEntity
  8
002
 62
     3
370
     9
100
AcDbLine
 10
263.156374
 20
18.509219
 30
0.0
 11
262.839612
 21
18.509219
 31
0.0
  0
LINE
  5
93
330
43
100
AcDbEntity
  8
002
 62
     3
370
     9
100
AcDbLine
 10
262.839612
 20
18.509219
 30
0.0
 11
262.435131
 21
18.509219
 31
0.0
  0
LINE
  5
94
330
43
100
AcDbEntity
  8
002
 62
     3
370
     9
100
AcDbLine
 10
262.435131
 20
18.509219
 30
0.0
 11
262.235327
 21
18.509219
 31
0.0
  0
LINE
  5
95
330
43
100
AcDbEntity
  8
002
 62
     3
370
     9
100
AcDbLine
 10
262.235327
 20
18.509219
 30
0.0
 11
262.370797
 21
19.277598
 31
0.0
  0
LINE
  5
96
330
43
100
AcDbEntity
  8
002
 62
     3
370
     9
100
AcDbLine
 10
262.370797
 20
19.277598
 30
0.0
 11
262.645042
 21
20.833097
 31
0.0
  0
LINE
  5
97
330
43
100
AcDbEntity
  8
002
 62
     3
370
     9
100
AcDbLine
 10
262.645042
 20
20.833097
 30
0.0
 11
262.859812
 21
22.051259
 31
0.0
  0
LINE
  5
98
330
43
100
AcDbEntity
  8
002
 62
     3
370
     9
100
AcDbLine
 10
262.859812
 20
22.051259
 30
0.0
 11
262.888422
 21
22.192191
 31
0.0
  0
LINE
  5
99
330
43
100
AcDbEntity
  8
002
 62
     3
370
     9
100
AcDbLine
 10
262.888422
 20
22.192191
 30
0.0
 11
263.006573
 21
22.192191
 31
0.0
  0
LINE
  5
9A
330
43
100
AcDbEntity
  8
002
 62
     3
370
     9
100
AcDbLine
 10
263.006573
 20
22.192191
 30
0.0
 11
263.558948
 21
22.192191
 31
0.0
  0
LINE
  5
9B
330
43
100
AcDbEntity
  8
002
 62
     3
370
     9
100
AcDbLine
 10
263.558948
 20
22.192191
 30
0.0
 11
264.156475
 21
22.192191
 31
0.0
  0
LINE
  5
9C
330
43
100
AcDbEntity
  8
002
 62
     3
370
     9
100
AcDbLine
 10
264.156475
 20
22.192191
 30
0.0
 11
264.489581
 21
22.18858
 31
0.0
  0
LINE
  5
9D
330
43
100
AcDbEntity
  8
002
 62
     3
370
     9
100
AcDbLine
 10
264.489581
 20
22.18858
 30
0.0
 11
264.77987
 21
22.147368
 31
0.0
  0
LINE
  5
9E
330
43
100
AcDbEntity
  8
002
 62
     3
370
     9
100
AcDbLine
 10
264.77987
 20
22.147368
 30
0.0
 11
265.02886
 21
22.058728
 31
0.0
  0
LINE
  5
9F
330
43
100
AcDbEntity
  8
002
 62
     3
370
     9
100
AcDbLine
 10
265.02886
 20
22.058728
 30
0.0
 11
265.22907
 21
21.920849
 31
0.0
  0
LINE
  5
A0
330
43
100
AcDbEntity
  8
002
 62
     3
370
     9
100
AcDbLine
 10
265.22907
 20
21.920849
 30
0.0
 11
265.373018
 21
21.731916
 31
0.0
  0
LINE
  5
A1
330
43
100
AcDbEntity
  8
002
 62
     3
370
     9
100
AcDbLine
 10
265.373018
 20
21.731916
 30
0.0
 11
265.453222
 21
21.49012
 31
0.0
  0
LINE
  5
A2
330
43
100
AcDbEntity
  8
002
 62
     3
370
     9
100
AcDbLine
 10
265.453222
 20
21.49012
 30
0.0
 11
265.4622
 21
21.193648
 31
0.0
  0
LINE
  5
A3
330
43
100
AcDbEntity
  8
002
 62
     3
370
     9
100
AcDbLine
 10
265.4622
 20
21.193648
 30
0.0
 11
265.41411
 21
20.926718
 31
0.0
  0
LINE
  5
A4
330
43
100
AcDbEntity
  8
002
 62
     3
370
     9
100
AcDbLine
 10
265.41411
 20
20.926718
 30
0.0
 11
265.336929
 21
20.715871
 31
0.0
  0
LINE
  5
A5
330
43
100
AcDbEntity
  8
002
 62
     3
370
     9
100
AcDbLine
 10
265.336929
 20
20.715871
 30
0.0
 11
265.227423
 21
20.522378
 31
0.0
  0
LINE
  5
A6
330
43
100
AcDbEntity
  8
002
 62
     3
370
     9
100
AcDbLine
 10
265.227423
 20
20.522378
 30
0.0
 11
265.087354
 21
20.35156
 31
0.0
  0
LINE
  5
A7
330
43
100
AcDbEntity
  8
002
 62
     3
370
     9
100
AcDbLine
 10
265.087354
 20
20.35156
 30
0.0
 11
264.918481
 21
20.208737
 31
0.0
  0
LINE
  5
A8
330
43
100
AcDbEntity
  8
002
 62
     3
370
     9
100
AcDbLine
 10
264.918481
 20
20.208737
 30
0.0
 11
264.722565
 21
20.099228
 31
0.0
  0
LINE
  5
A9
330
43
100
AcDbEntity
  8
002
 62
     3
370
     9
100
AcDbLine
 10
264.722565
 20
20.099228
 30
0.0
 11
264.501366
 21
20.028354
 31
0.0
  0
LINE
  5
AA
330
43
100
AcDbEntity
  8
002
 62
     3
370
     9
100
AcDbLine
 10
264.501366
 20
20.028354
 30
0.0
 11
264.459303
 21
20.010725
 31
0.0
  0
LINE
  5
AB
330
43
100
AcDbEntity
  8
002
 62
     3
370
     9
100
AcDbLine
 10
264.459303
 20
20.010725
 30
0.0
 11
264.488388
 21
19.961499
 31
0.0
  0
LINE
  5
AC
330
43
100
AcDbEntity
  8
002
 62
     3
370
     9
100
AcDbLine
 10
264.488388
 20
19.961499
 30
0.0
 11
264.783488
 21
19.462038
 31
0.0
  0
LINE
  5
AD
330
43
100
AcDbEntity
  8
002
 62
     3
370
     9
100
AcDbLine
 10
264.783488
 20
19.462038
 30
0.0
 11
265.160309
 21
18.824264
 31
0.0
  0
LINE
  5
AE
330
43
100
AcDbEntity
  8
002
 62
     3
370
     9
100
AcDbLine
 10
265.160309
 20
18.824264
 30
0.0
 11
265.346449
 21
18.509219
 31
0.0
  0
LINE
  5
AF
330
43
100
AcDbEntity
  8
002
 62
     3
370
     9
100
AcDbLine
 10
263.551627
 20
20.541918
 30
0.0
 11
263.567494
 21
20.541918
 31
0.0
  0
LINE
  5
B0
330
43
100
AcDbEntity
  8
002
 62
     3
370
     9
100
AcDbLine
 10
263.567494
 20
20.541918
 30
0.0
 11
263.601591
 21
20.541918
 31
0.0
  0
LINE
  5
B1
330
43
100
AcDbEntity
  8
002
 62
     3
370
     9
100
AcDbLine
 10
263.601591
 20
20.541918
 30
0.0
 11
263.633662
 21
20.541918
 31
0.0
  0
LINE
  5
B2
330
43
100
AcDbEntity
  8
002
 62
     3
370
     9
100
AcDbLine
 10
263.633662
 20
20.541918
 30
0.0
 11
263.694351
 21
20.542445
 31
0.0
  0
LINE
  5
B3
330
43
100
AcDbEntity
  8
002
 62
     3
370
     9
100
AcDbLine
 10
263.694351
 20
20.542445
 30
0.0
 11
263.955739
 21
20.568315
 31
0.0
  0
LINE
  5
B4
330
43
100
AcDbEntity
  8
002
 62
     3
370
     9
100
AcDbLine
 10
263.955739
 20
20.568315
 30
0.0
 11
264.200231
 21
20.655652
 31
0.0
  0
LINE
  5
B5
330
43
100
AcDbEntity
  8
002
 62
     3
370
     9
100
AcDbLine
 10
264.200231
 20
20.655652
 30
0.0
 11
264.301214
 21
20.73206
 31
0.0
  0
LINE
  5
B6
330
43
100
AcDbEntity
  8
002
 62
     3
370
     9
100
AcDbLine
 10
264.301214
 20
20.73206
 30
0.0
 11
264.380059
 21
20.835462
 31
0.0
  0
LINE
  5
B7
330
43
100
AcDbEntity
  8
002
 62
     3
370
     9
100
AcDbLine
 10
264.380059
 20
20.835462
 30
0.0
 11
264.430797
 21
20.969735
 31
0.0
  0
LINE
  5
B8
330
43
100
AcDbEntity
  8
002
 62
     3
370
     9
100
AcDbLine
 10
264.430797
 20
20.969735
 30
0.0
 11
264.444726
 21
21.116266
 31
0.0
  0
LINE
  5
B9
330
43
100
AcDbEntity
  8
002
 62
     3
370
     9
100
AcDbLine
 10
264.444726
 20
21.116266
 30
0.0
 11
264.41708
 21
21.231787
 31
0.0
  0
LINE
  5
BA
330
43
100
AcDbEntity
  8
002
 62
     3
370
     9
100
AcDbLine
 10
264.41708
 20
21.231787
 30
0.0
 11
264.35488
 21
21.318695
 31
0.0
  0
LINE
  5
BB
330
43
100
AcDbEntity
  8
002
 62
     3
370
     9
100
AcDbLine
 10
264.35488
 20
21.318695
 30
0.0
 11
264.156081
 21
21.422222
 31
0.0
  0
LINE
  5
BC
330
43
100
AcDbEntity
  8
002
 62
     3
370
     9
100
AcDbLine
 10
264.156081
 20
21.422222
 30
0.0
 11
263.906859
 21
21.457947
 31
0.0
  0
LINE
  5
BD
330
43
100
AcDbEntity
  8
002
 62
     3
370
     9
100
AcDbLine
 10
263.906859
 20
21.457947
 30
0.0
 11
263.799953
 21
21.460219
 31
0.0
  0
LINE
  5
BE
330
43
100
AcDbEntity
  8
002
 62
     3
370
     9
100
AcDbLine
 10
263.799953
 20
21.460219
 30
0.0
 11
263.770666
 21
21.460219
 31
0.0
  0
LINE
  5
BF
330
43
100
AcDbEntity
  8
002
 62
     3
370
     9
100
AcDbLine
 10
263.770666
 20
21.460219
 30
0.0
 11
263.735292
 21
21.460219
 31
0.0
  0
LINE
  5
C0
330
43
100
AcDbEntity
  8
002
 62
     3
370
     9
100
AcDbLine
 10
263.735292
 20
21.460219
 30
0.0
 11
263.714121
 21
21.460219
 31
0.0
  0
LINE
  5
C1
330
43
100
AcDbEntity
  8
002
 62
     3
370
     9
100
AcDbLine
 10
263.714121
 20
21.460219
 30
0.0
 11
263.694889
 21
21.355255
 31
0.0
  0
LINE
  5
C2
330
43
100
AcDbEntity
  8
002
 62
     3
370
     9
100
AcDbLine
 10
263.694889
 20
21.355255
 30
0.0
 11
263.638881
 21
21.037284
 31
0.0
  0
LINE
  5
C3
330
43
100
AcDbEntity
  8
002
 62
     3
370
     9
100
AcDbLine
 10
263.638881
 20
21.037284
 30
0.0
 11
263.579336
 21
20.69923
 31
0.0
  0
LINE
  5
C4
330
43
100
AcDbEntity
  8
002
 62
     3
370
     9
100
AcDbLine
 10
263.579336
 20
20.69923
 30
0.0
 11
263.551627
 21
20.541918
 31
0.0
  0
LINE
  5
C5
330
43
100
AcDbEntity
  8
002
 62
     3
370
     9
100
AcDbLine
 10
266.652982
 20
18.509219
 30
0.0
 11
265.695288
 21
18.509219
 31
0.0
  0
LINE
  5
C6
330
43
100
AcDbEntity
  8
002
 62
     3
370
     9
100
AcDbLine
 10
265.695288
 20
18.509219
 30
0.0
 11
266.344621
 21
22.192191
 31
0.0
  0
LINE
  5
C7
330
43
100
AcDbEntity
  8
002
 62
     3
370
     9
100
AcDbLine
 10
266.344621
 20
22.192191
 30
0.0
 11
267.302098
 21
22.192191
 31
0.0
  0
LINE
  5
C8
330
43
100
AcDbEntity
  8
002
 62
     3
370
     9
100
AcDbLine
 10
267.302098
 20
22.192191
 30
0.0
 11
266.652982
 21
18.509219
 31
0.0
  0
LINE
  5
C9
330
43
100
AcDbEntity
  8
002
 62
     3
370
     9
100
AcDbLine
 10
271.160602
 20
22.192191
 30
0.0
 11
269.973549
 21
22.192191
 31
0.0
  0
LINE
  5
CA
330
43
100
AcDbEntity
  8
002
 62
     3
370
     9
100
AcDbLine
 10
269.973549
 20
22.192191
 30
0.0
 11
268.786226
 21
20.926841
 31
0.0
  0
LINE
  5
CB
330
43
100
AcDbEntity
  8
002
 62
     3
370
     9
100
AcDbLine
 10
268.786226
 20
20.926841
 30
0.0
 11
269.009073
 21
22.192191
 31
0.0
  0
LINE
  5
CC
330
43
100
AcDbEntity
  8
002
 62
     3
370
     9
100
AcDbLine
 10
269.009073
 20
22.192191
 30
0.0
 11
268.051596
 21
22.192191
 31
0.0
  0
LINE
  5
CD
330
43
100
AcDbEntity
  8
002
 62
     3
370
     9
100
AcDbLine
 10
268.051596
 20
22.192191
 30
0.0
 11
267.402154
 21
18.509219
 31
0.0
  0
LINE
  5
CE
330
43
100
AcDbEntity
  8
002
 62
     3
370
     9
100
AcDbLine
 10
267.402154
 20
18.509219
 30
0.0
 11
268.359686
 21
18.509219
 31
0.0
  0
LINE
  5
CF
330
43
100
AcDbEntity
  8
002
 62
     3
370
     9
100
AcDbLine
 10
268.359686
 20
18.509219
 30
0.0
 11
268.5974
 21
19.857153
 31
0.0
  0
LINE
  5
D0
330
43
100
AcDbEntity
  8
002
 62
     3
370
     9
100
AcDbLine
 10
268.5974
 20
19.857153
 30
0.0
 11
269.402406
 21
18.509219
 31
0.0
  0
LINE
  5
D1
330
43
100
AcDbEntity
  8
002
 62
     3
370
     9
100
AcDbLine
 10
269.402406
 20
18.509219
 30
0.0
 11
270.643284
 21
18.509219
 31
0.0
  0
LINE
  5
D2
330
43
100
AcDbEntity
  8
002
 62
     3
370
     9
100
AcDbLine
 10
270.643284
 20
18.509219
 30
0.0
 11
269.387647
 21
20.449133
 31
0.0
  0
LINE
  5
D3
330
43
100
AcDbEntity
  8
002
 62
     3
370
     9
100
AcDbLine
 10
269.387647
 20
20.449133
 30
0.0
 11
271.160602
 21
22.192191
 31
0.0
  0
LINE
  5
D4
330
43
100
AcDbEntity
  8
002
 62
     3
370
     9
100
AcDbLine
 10
286.383
 20
18.509219
 30
0.0
 11
285.425632
 21
18.509219
 31
0.0
  0
LINE
  5
D5
330
43
100
AcDbEntity
  8
002
 62
     3
370
     9
100
AcDbLine
 10
285.425632
 20
18.509219
 30
0.0
 11
286.075399
 21
22.192191
 31
0.0
  0
LINE
  5
D6
330
43
100
AcDbEntity
  8
002
 62
     3
370
     9
100
AcDbLine
 10
286.075399
 20
22.192191
 30
0.0
 11
287.032876
 21
22.192191
 31
0.0
  0
LINE
  5
D7
330
43
100
AcDbEntity
  8
002
 62
     3
370
     9
100
AcDbLine
 10
287.032876
 20
22.192191
 30
0.0
 11
286.383
 21
18.509219
 31
0.0
  0
LINE
  5
D8
330
43
100
AcDbEntity
  8
002
 62
     3
370
     9
100
AcDbLine
 10
290.891325
 20
22.192191
 30
0.0
 11
289.704273
 21
22.192191
 31
0.0
  0
LINE
  5
D9
330
43
100
AcDbEntity
  8
002
 62
     3
370
     9
100
AcDbLine
 10
289.704273
 20
22.192191
 30
0.0
 11
288.516732
 21
20.926841
 31
0.0
  0
LINE
  5
DA
330
43
100
AcDbEntity
  8
002
 62
     3
370
     9
100
AcDbLine
 10
288.516732
 20
20.926841
 30
0.0
 11
288.73985
 21
22.192191
 31
0.0
  0
LINE
  5
DB
330
43
100
AcDbEntity
  8
002
 62
     3
370
     9
100
AcDbLine
 10
288.73985
 20
22.192191
 30
0.0
 11
287.782319
 21
22.192191
 31
0.0
  0
LINE
  5
DC
330
43
100
AcDbEntity
  8
002
 62
     3
370
     9
100
AcDbLine
 10
287.782319
 20
22.192191
 30
0.0
 11
287.132715
 21
18.509219
 31
0.0
  0
LINE
  5
DD
330
43
100
AcDbEntity
  8
002
 62
     3
370
     9
100
AcDbLine
 10
287.132715
 20
18.509219
 30
0.0
 11
288.090463
 21
18.509219
 31
0.0
  0
LINE
  5
DE
330
43
100
AcDbEntity
  8
002
 62
     3
370
     9
100
AcDbLine
 10
288.090463
 20
18.509219
 30
0.0
 11
288.328123
 21
19.856719
 31
0.0
  0
LINE
  5
DF
330
43
100
AcDbEntity
  8
002
 62
     3
370
     9
100
AcDbLine
 10
288.328123
 20
19.856719
 30
0.0
 11
289.132966
 21
18.509219
 31
0.0
  0
LINE
  5
E0
330
43
100
AcDbEntity
  8
002
 62
     3
370
     9
100
AcDbLine
 10
289.132966
 20
18.509219
 30
0.0
 11
290.37379
 21
18.509219
 31
0.0
  0
LINE
  5
E1
330
43
100
AcDbEntity
  8
002
 62
     3
370
     9
100
AcDbLine
 10
290.37379
 20
18.509219
 30
0.0
 11
289.118316
 21
20.449133
 31
0.0
  0
LINE
  5
E2
330
43
100
AcDbEntity
  8
002
 62
     3
370
     9
100
AcDbLine
 10
289.118316
 20
20.449133
 30
0.0
 11
290.891325
 21
22.192191
 31
0.0
  0
LINE
  5
E3
330
43
100
AcDbEntity
  8
002
 62
     3
370
     9
100
AcDbLine
 10
272.409511
 20
21.381867
 30
0.0
 11
272.300882
 21
20.766556
 31
0.0
  0
LINE
  5
E4
330
43
100
AcDbEntity
  8
002
 62
     3
370
     9
100
AcDbLine
 10
272.300882
 20
20.766556
 30
0.0
 11
273.85723
 21
20.766556
 31
0.0
  0
LINE
  5
E5
330
43
100
AcDbEntity
  8
002
 62
     3
370
     9
100
AcDbLine
 10
273.85723
 20
20.766556
 30
0.0
 11
273.713982
 21
19.955364
 31
0.0
  0
LINE
  5
E6
330
43
100
AcDbEntity
  8
002
 62
     3
370
     9
100
AcDbLine
 10
273.713982
 20
19.955364
 30
0.0
 11
272.157689
 21
19.955364
 31
0.0
  0
LINE
  5
E7
330
43
100
AcDbEntity
  8
002
 62
     3
370
     9
100
AcDbLine
 10
272.157689
 20
19.955364
 30
0.0
 11
272.04575
 21
19.320628
 31
0.0
  0
LINE
  5
E8
330
43
100
AcDbEntity
  8
002
 62
     3
370
     9
100
AcDbLine
 10
272.04575
 20
19.320628
 30
0.0
 11
273.66097
 21
19.320628
 31
0.0
  0
LINE
  5
E9
330
43
100
AcDbEntity
  8
002
 62
     3
370
     9
100
AcDbLine
 10
273.66097
 20
19.320628
 30
0.0
 11
273.517994
 21
18.509219
 31
0.0
  0
LINE
  5
EA
330
43
100
AcDbEntity
  8
002
 62
     3
370
     9
100
AcDbLine
 10
273.517994
 20
18.509219
 30
0.0
 11
270.945622
 21
18.509219
 31
0.0
  0
LINE
  5
EB
330
43
100
AcDbEntity
  8
002
 62
     3
370
     9
100
AcDbLine
 10
270.945622
 20
18.509219
 30
0.0
 11
271.595227
 21
22.192191
 31
0.0
  0
LINE
  5
EC
330
43
100
AcDbEntity
  8
002
 62
     3
370
     9
100
AcDbLine
 10
271.595227
 20
22.192191
 30
0.0
 11
274.167381
 21
22.192191
 31
0.0
  0
LINE
  5
ED
330
43
100
AcDbEntity
  8
002
 62
     3
370
     9
100
AcDbLine
 10
274.167381
 20
22.192191
 30
0.0
 11
274.024406
 21
21.381867
 31
0.0
  0
LINE
  5
EE
330
43
100
AcDbEntity
  8
002
 62
     3
370
     9
100
AcDbLine
 10
274.024406
 20
21.381867
 30
0.0
 11
272.409511
 21
21.381867
 31
0.0
  0
LINE
  5
EF
330
43
100
AcDbEntity
  8
002
 62
     3
370
     9
100
AcDbLine
 10
283.58496
 20
21.381867
 30
0.0
 11
283.476494
 21
20.766556
 31
0.0
  0
LINE
  5
F0
330
43
100
AcDbEntity
  8
002
 62
     3
370
     9
100
AcDbLine
 10
283.476494
 20
20.766556
 30
0.0
 11
285.032625
 21
20.766556
 31
0.0
  0
LINE
  5
F1
330
43
100
AcDbEntity
  8
002
 62
     3
370
     9
100
AcDbLine
 10
285.032625
 20
20.766556
 30
0.0
 11
284.88916
 21
19.955364
 31
0.0
  0
LINE
  5
F2
330
43
100
AcDbEntity
  8
002
 62
     3
370
     9
100
AcDbLine
 10
284.88916
 20
19.955364
 30
0.0
 11
283.333409
 21
19.955364
 31
0.0
  0
LINE
  5
F3
330
43
100
AcDbEntity
  8
002
 62
     3
370
     9
100
AcDbLine
 10
283.333409
 20
19.955364
 30
0.0
 11
283.22147
 21
19.320628
 31
0.0
  0
LINE
  5
F4
330
43
100
AcDbEntity
  8
002
 62
     3
370
     9
100
AcDbLine
 10
283.22147
 20
19.320628
 30
0.0
 11
284.836148
 21
19.320628
 31
0.0
  0
LINE
  5
F5
330
43
100
AcDbEntity
  8
002
 62
     3
370
     9
100
AcDbLine
 10
284.836148
 20
19.320628
 30
0.0
 11
284.693281
 21
18.509219
 31
0.0
  0
LINE
  5
F6
330
43
100
AcDbEntity
  8
002
 62
     3
370
     9
100
AcDbLine
 10
284.693281
 20
18.509219
 30
0.0
 11
282.120746
 21
18.509219
 31
0.0
  0
LINE
  5
F7
330
43
100
AcDbEntity
  8
002
 62
     3
370
     9
100
AcDbLine
 10
282.120746
 20
18.509219
 30
0.0
 11
282.770405
 21
22.192191
 31
0.0
  0
LINE
  5
F8
330
43
100
AcDbEntity
  8
002
 62
     3
370
     9
100
AcDbLine
 10
282.770405
 20
22.192191
 30
0.0
 11
285.342559
 21
22.192191
 31
0.0
  0
LINE
  5
F9
330
43
100
AcDbEntity
  8
002
 62
     3
370
     9
100
AcDbLine
 10
285.342559
 20
22.192191
 30
0.0
 11
285.199692
 21
21.381867
 31
0.0
  0
LINE
  5
FA
330
43
100
AcDbEntity
  8
002
 62
     3
370
     9
100
AcDbLine
 10
285.199692
 20
21.381867
 30
0.0
 11
283.58496
 21
21.381867
 31
0.0
  0
LINE
  5
FB
330
43
100
AcDbEntity
  8
002
 62
     3
370
     9
100
AcDbLine
 10
274.816986
 20
22.192191
 30
0.0
 11
275.774517
 21
22.192191
 31
0.0
  0
LINE
  5
FC
330
43
100
AcDbEntity
  8
002
 62
     3
370
     9
100
AcDbLine
 10
275.774517
 20
22.192191
 30
0.0
 11
276.696725
 21
20.178591
 31
0.0
  0
LINE
  5
FD
330
43
100
AcDbEntity
  8
002
 62
     3
370
     9
100
AcDbLine
 10
276.696725
 20
20.178591
 30
0.0
 11
276.70622
 21
20.178591
 31
0.0
  0
LINE
  5
FE
330
43
100
AcDbEntity
  8
002
 62
     3
370
     9
100
AcDbLine
 10
276.70622
 20
20.178591
 30
0.0
 11
277.061408
 21
22.192191
 31
0.0
  0
LINE
  5
FF
330
43
100
AcDbEntity
  8
002
 62
     3
370
     9
100
AcDbLine
 10
277.061408
 20
22.192191
 30
0.0
 11
278.019319
 21
22.192191
 31
0.0
  0
LINE
  5
100
330
43
100
AcDbEntity
  8
002
 62
     3
370
     9
100
AcDbLine
 10
278.019319
 20
22.192191
 30
0.0
 11
277.370041
 21
18.509219
 31
0.0
  0
LINE
  5
101
330
43
100
AcDbEntity
  8
002
 62
     3
370
     9
100
AcDbLine
 10
277.370041
 20
18.509219
 30
0.0
 11
276.412021
 21
18.509219
 31
0.0
  0
LINE
  5
102
330
43
100
AcDbEntity
  8
002
 62
     3
370
     9
100
AcDbLine
 10
276.412021
 20
18.509219
 30
0.0
 11
275.490953
 21
20.528462
 31
0.0
  0
LINE
  5
103
330
43
100
AcDbEntity
  8
002
 62
     3
370
     9
100
AcDbLine
 10
275.490953
 20
20.528462
 30
0.0
 11
275.480969
 21
20.528462
 31
0.0
  0
LINE
  5
104
330
43
100
AcDbEntity
  8
002
 62
     3
370
     9
100
AcDbLine
 10
275.480969
 20
20.528462
 30
0.0
 11
275.124913
 21
18.509219
 31
0.0
  0
LINE
  5
105
330
43
100
AcDbEntity
  8
002
 62
     3
370
     9
100
AcDbLine
 10
275.124913
 20
18.509219
 30
0.0
 11
274.167381
 21
18.509219
 31
0.0
  0
LINE
  5
106
330
43
100
AcDbEntity
  8
002
 62
     3
370
     9
100
AcDbLine
 10
274.167381
 20
18.509219
 30
0.0
 11
274.816986
 21
22.192191
 31
0.0
  0
LINE
  5
107
330
43
100
AcDbEntity
  8
002
 62
     3
370
     9
100
AcDbLine
 10
281.623342
 20
21.245349
 30
0.0
 11
281.469409
 21
21.365169
 31
0.0
  0
LINE
  5
108
330
43
100
AcDbEntity
  8
002
 62
     3
370
     9
100
AcDbLine
 10
281.469409
 20
21.365169
 30
0.0
 11
281.288152
 21
21.448822
 31
0.0
  0
LINE
  5
109
330
43
100
AcDbEntity
  8
002
 62
     3
370
     9
100
AcDbLine
 10
281.288152
 20
21.448822
 30
0.0
 11
281.084922
 21
21.487698
 31
0.0
  0
LINE
  5
10A
330
43
100
AcDbEntity
  8
002
 62
     3
370
     9
100
AcDbLine
 10
281.084922
 20
21.487698
 30
0.0
 11
280.900943
 21
21.473102
 31
0.0
  0
LINE
  5
10B
330
43
100
AcDbEntity
  8
002
 62
     3
370
     9
100
AcDbLine
 10
280.900943
 20
21.473102
 30
0.0
 11
280.726199
 21
21.400403
 31
0.0
  0
LINE
  5
10C
330
43
100
AcDbEntity
  8
002
 62
     3
370
     9
100
AcDbLine
 10
280.726199
 20
21.400403
 30
0.0
 11
280.597518
 21
21.269089
 31
0.0
  0
LINE
  5
10D
330
43
100
AcDbEntity
  8
002
 62
     3
370
     9
100
AcDbLine
 10
280.597518
 20
21.269089
 30
0.0
 11
280.566514
 21
21.181321
 31
0.0
  0
LINE
  5
10E
330
43
100
AcDbEntity
  8
002
 62
     3
370
     9
100
AcDbLine
 10
280.566514
 20
21.181321
 30
0.0
 11
280.567754
 21
21.091241
 31
0.0
  0
LINE
  5
10F
330
43
100
AcDbEntity
  8
002
 62
     3
370
     9
100
AcDbLine
 10
280.567754
 20
21.091241
 30
0.0
 11
280.657985
 21
20.958112
 31
0.0
  0
LINE
  5
110
330
43
100
AcDbEntity
  8
002
 62
     3
370
     9
100
AcDbLine
 10
280.657985
 20
20.958112
 30
0.0
 11
280.811628
 21
20.872989
 31
0.0
  0
LINE
  5
111
330
43
100
AcDbEntity
  8
002
 62
     3
370
     9
100
AcDbLine
 10
280.811628
 20
20.872989
 30
0.0
 11
280.933681
 21
20.828809
 31
0.0
  0
LINE
  5
112
330
43
100
AcDbEntity
  8
002
 62
     3
370
     9
100
AcDbLine
 10
280.933681
 20
20.828809
 30
0.0
 11
281.006083
 21
20.805904
 31
0.0
  0
LINE
  5
113
330
43
100
AcDbEntity
  8
002
 62
     3
370
     9
100
AcDbLine
 10
281.006083
 20
20.805904
 30
0.0
 11
281.108793
 21
20.77341
 31
0.0
  0
LINE
  5
114
330
43
100
AcDbEntity
  8
002
 62
     3
370
     9
100
AcDbLine
 10
281.108793
 20
20.77341
 30
0.0
 11
281.16099
 21
20.756897
 31
0.0
  0
LINE
  5
115
330
43
100
AcDbEntity
  8
002
 62
     3
370
     9
100
AcDbLine
 10
281.16099
 20
20.756897
 30
0.0
 11
281.561745
 21
20.579853
 31
0.0
  0
LINE
  5
116
330
43
100
AcDbEntity
  8
002
 62
     3
370
     9
100
AcDbLine
 10
281.561745
 20
20.579853
 30
0.0
 11
281.71574
 21
20.455902
 31
0.0
  0
LINE
  5
117
330
43
100
AcDbEntity
  8
002
 62
     3
370
     9
100
AcDbLine
 10
281.71574
 20
20.455902
 30
0.0
 11
281.82953
 21
20.301644
 31
0.0
  0
LINE
  5
118
330
43
100
AcDbEntity
  8
002
 62
     3
370
     9
100
AcDbLine
 10
281.82953
 20
20.301644
 30
0.0
 11
281.896153
 21
20.112061
 31
0.0
  0
LINE
  5
119
330
43
100
AcDbEntity
  8
002
 62
     3
370
     9
100
AcDbLine
 10
281.896153
 20
20.112061
 30
0.0
 11
281.908646
 21
19.882136
 31
0.0
  0
LINE
  5
11A
330
43
100
AcDbEntity
  8
002
 62
     3
370
     9
100
AcDbLine
 10
281.908646
 20
19.882136
 30
0.0
 11
281.832068
 21
19.49672
 31
0.0
  0
LINE
  5
11B
330
43
100
AcDbEntity
  8
002
 62
     3
370
     9
100
AcDbLine
 10
281.832068
 20
19.49672
 30
0.0
 11
281.695301
 21
19.171227
 31
0.0
  0
LINE
  5
11C
330
43
100
AcDbEntity
  8
002
 62
     3
370
     9
100
AcDbLine
 10
281.695301
 20
19.171227
 30
0.0
 11
281.479257
 21
18.882067
 31
0.0
  0
LINE
  5
11D
330
43
100
AcDbEntity
  8
002
 62
     3
370
     9
100
AcDbLine
 10
281.479257
 20
18.882067
 30
0.0
 11
281.178738
 21
18.655717
 31
0.0
  0
LINE
  5
11E
330
43
100
AcDbEntity
  8
002
 62
     3
370
     9
100
AcDbLine
 10
281.178738
 20
18.655717
 30
0.0
 11
280.841562
 21
18.507117
 31
0.0
  0
LINE
  5
11F
330
43
100
AcDbEntity
  8
002
 62
     3
370
     9
100
AcDbLine
 10
280.841562
 20
18.507117
 30
0.0
 11
280.490621
 21
18.428726
 31
0.0
  0
LINE
  5
120
330
43
100
AcDbEntity
  8
002
 62
     3
370
     9
100
AcDbLine
 10
280.490621
 20
18.428726
 30
0.0
 11
280.123023
 21
18.414626
 31
0.0
  0
LINE
  5
121
330
43
100
AcDbEntity
  8
002
 62
     3
370
     9
100
AcDbLine
 10
280.123023
 20
18.414626
 30
0.0
 11
279.71393
 21
18.478437
 31
0.0
  0
LINE
  5
122
330
43
100
AcDbEntity
  8
002
 62
     3
370
     9
100
AcDbLine
 10
279.71393
 20
18.478437
 30
0.0
 11
279.339209
 21
18.620428
 31
0.0
  0
LINE
  5
123
330
43
100
AcDbEntity
  8
002
 62
     3
370
     9
100
AcDbLine
 10
279.339209
 20
18.620428
 30
0.0
 11
279.009244
 21
18.832176
 31
0.0
  0
LINE
  5
124
330
43
100
AcDbEntity
  8
002
 62
     3
370
     9
100
AcDbLine
 10
279.009244
 20
18.832176
 30
0.0
 11
279.132576
 21
19.006346
 31
0.0
  0
LINE
  5
125
330
43
100
AcDbEntity
  8
002
 62
     3
370
     9
100
AcDbLine
 10
279.132576
 20
19.006346
 30
0.0
 11
279.375263
 21
19.349067
 31
0.0
  0
LINE
  5
126
330
43
100
AcDbEntity
  8
002
 62
     3
370
     9
100
AcDbLine
 10
279.375263
 20
19.349067
 30
0.0
 11
279.546337
 21
19.590657
 31
0.0
  0
LINE
  5
127
330
43
100
AcDbEntity
  8
002
 62
     3
370
     9
100
AcDbLine
 10
279.546337
 20
19.590657
 30
0.0
 11
279.555537
 21
19.603649
 31
0.0
  0
LINE
  5
128
330
43
100
AcDbEntity
  8
002
 62
     3
370
     9
100
AcDbLine
 10
279.555537
 20
19.603649
 30
0.0
 11
279.703987
 21
19.466253
 31
0.0
  0
LINE
  5
129
330
43
100
AcDbEntity
  8
002
 62
     3
370
     9
100
AcDbLine
 10
279.703987
 20
19.466253
 30
0.0
 11
279.930311
 21
19.319346
 31
0.0
  0
LINE
  5
12A
330
43
100
AcDbEntity
  8
002
 62
     3
370
     9
100
AcDbLine
 10
279.930311
 20
19.319346
 30
0.0
 11
280.192661
 21
19.234913
 31
0.0
  0
LINE
  5
12B
330
43
100
AcDbEntity
  8
002
 62
     3
370
     9
100
AcDbLine
 10
280.192661
 20
19.234913
 30
0.0
 11
280.443742
 21
19.231367
 31
0.0
  0
LINE
  5
12C
330
43
100
AcDbEntity
  8
002
 62
     3
370
     9
100
AcDbLine
 10
280.443742
 20
19.231367
 30
0.0
 11
280.647151
 21
19.298242
 31
0.0
  0
LINE
  5
12D
330
43
100
AcDbEntity
  8
002
 62
     3
370
     9
100
AcDbLine
 10
280.647151
 20
19.298242
 30
0.0
 11
280.805279
 21
19.437644
 31
0.0
  0
LINE
  5
12E
330
43
100
AcDbEntity
  8
002
 62
     3
370
     9
100
AcDbLine
 10
280.805279
 20
19.437644
 30
0.0
 11
280.85385
 21
19.536386
 31
0.0
  0
LINE
  5
12F
330
43
100
AcDbEntity
  8
002
 62
     3
370
     9
100
AcDbLine
 10
280.85385
 20
19.536386
 30
0.0
 11
280.872045
 21
19.65249
 31
0.0
  0
LINE
  5
130
330
43
100
AcDbEntity
  8
002
 62
     3
370
     9
100
AcDbLine
 10
280.872045
 20
19.65249
 30
0.0
 11
280.842775
 21
19.753469
 31
0.0
  0
LINE
  5
131
330
43
100
AcDbEntity
  8
002
 62
     3
370
     9
100
AcDbLine
 10
280.842775
 20
19.753469
 30
0.0
 11
280.774487
 21
19.833965
 31
0.0
  0
LINE
  5
132
330
43
100
AcDbEntity
  8
002
 62
     3
370
     9
100
AcDbLine
 10
280.774487
 20
19.833965
 30
0.0
 11
280.5708
 21
19.946032
 31
0.0
  0
LINE
  5
133
330
43
100
AcDbEntity
  8
002
 62
     3
370
     9
100
AcDbLine
 10
280.5708
 20
19.946032
 30
0.0
 11
280.360868
 21
20.013749
 31
0.0
  0
LINE
  5
134
330
43
100
AcDbEntity
  8
002
 62
     3
370
     9
100
AcDbLine
 10
280.360868
 20
20.013749
 30
0.0
 11
279.900012
 21
20.184273
 31
0.0
  0
LINE
  5
135
330
43
100
AcDbEntity
  8
002
 62
     3
370
     9
100
AcDbLine
 10
279.900012
 20
20.184273
 30
0.0
 11
279.728687
 21
20.297547
 31
0.0
  0
LINE
  5
136
330
43
100
AcDbEntity
  8
002
 62
     3
370
     9
100
AcDbLine
 10
279.728687
 20
20.297547
 30
0.0
 11
279.605228
 21
20.446164
 31
0.0
  0
LINE
  5
137
330
43
100
AcDbEntity
  8
002
 62
     3
370
     9
100
AcDbLine
 10
279.605228
 20
20.446164
 30
0.0
 11
279.535986
 21
20.642621
 31
0.0
  0
LINE
  5
138
330
43
100
AcDbEntity
  8
002
 62
     3
370
     9
100
AcDbLine
 10
279.535986
 20
20.642621
 30
0.0
 11
279.52731
 21
20.899419
 31
0.0
  0
LINE
  5
139
330
43
100
AcDbEntity
  8
002
 62
     3
370
     9
100
AcDbLine
 10
279.52731
 20
20.899419
 30
0.0
 11
279.586553
 21
21.222222
 31
0.0
  0
LINE
  5
13A
330
43
100
AcDbEntity
  8
002
 62
     3
370
     9
100
AcDbLine
 10
279.586553
 20
21.222222
 30
0.0
 11
279.71213
 21
21.527862
 31
0.0
  0
LINE
  5
13B
330
43
100
AcDbEntity
  8
002
 62
     3
370
     9
100
AcDbLine
 10
279.71213
 20
21.527862
 30
0.0
 11
279.894773
 21
21.789187
 31
0.0
  0
LINE
  5
13C
330
43
100
AcDbEntity
  8
002
 62
     3
370
     9
100
AcDbLine
 10
279.894773
 20
21.789187
 30
0.0
 11
280.126467
 21
22.001177
 31
0.0
  0
LINE
  5
13D
330
43
100
AcDbEntity
  8
002
 62
     3
370
     9
100
AcDbLine
 10
280.126467
 20
22.001177
 30
0.0
 11
280.399196
 21
22.158813
 31
0.0
  0
LINE
  5
13E
330
43
100
AcDbEntity
  8
002
 62
     3
370
     9
100
AcDbLine
 10
280.399196
 20
22.158813
 30
0.0
 11
280.704947
 21
22.257075
 31
0.0
  0
LINE
  5
13F
330
43
100
AcDbEntity
  8
002
 62
     3
370
     9
100
AcDbLine
 10
280.704947
 20
22.257075
 30
0.0
 11
281.035703
 21
22.290944
 31
0.0
  0
LINE
  5
140
330
43
100
AcDbEntity
  8
002
 62
     3
370
     9
100
AcDbLine
 10
281.035703
 20
22.290944
 30
0.0
 11
281.210757
 21
22.282739
 31
0.0
  0
LINE
  5
141
330
43
100
AcDbEntity
  8
002
 62
     3
370
     9
100
AcDbLine
 10
281.210757
 20
22.282739
 30
0.0
 11
281.569793
 21
22.220447
 31
0.0
  0
LINE
  5
142
330
43
100
AcDbEntity
  8
002
 62
     3
370
     9
100
AcDbLine
 10
281.569793
 20
22.220447
 30
0.0
 11
281.91146
 21
22.104424
 31
0.0
  0
LINE
  5
143
330
43
100
AcDbEntity
  8
002
 62
     3
370
     9
100
AcDbLine
 10
281.91146
 20
22.104424
 30
0.0
 11
282.126559
 21
21.975022
 31
0.0
  0
LINE
  5
144
330
43
100
AcDbEntity
  8
002
 62
     3
370
     9
100
AcDbLine
 10
282.126559
 20
21.975022
 30
0.0
 11
281.966275
 21
21.742607
 31
0.0
  0
LINE
  5
145
330
43
100
AcDbEntity
  8
002
 62
     3
370
     9
100
AcDbLine
 10
281.966275
 20
21.742607
 30
0.0
 11
281.738896
 21
21.412903
 31
0.0
  0
LINE
  5
146
330
43
100
AcDbEntity
  8
002
 62
     3
370
     9
100
AcDbLine
 10
281.738896
 20
21.412903
 30
0.0
 11
281.623342
 21
21.245349
 31
0.0
  0
LINE
  5
147
330
43
100
AcDbEntity
  8
002
 62
     3
370
     9
100
AcDbLine
 10
291.703547
 20
18.509219
 30
0.0
 11
290.745799
 21
18.509219
 31
0.0
  0
LINE
  5
148
330
43
100
AcDbEntity
  8
002
 62
     3
370
     9
100
AcDbLine
 10
290.745799
 20
18.509219
 30
0.0
 11
291.394969
 21
22.192191
 31
0.0
  0
LINE
  5
149
330
43
100
AcDbEntity
  8
002
 62
     3
370
     9
100
AcDbLine
 10
291.394969
 20
22.192191
 30
0.0
 11
292.352935
 21
22.192191
 31
0.0
  0
LINE
  5
14A
330
43
100
AcDbEntity
  8
002
 62
     3
370
     9
100
AcDbLine
 10
292.352935
 20
22.192191
 30
0.0
 11
291.703547
 21
18.509219
 31
0.0
  0
LINE
  5
14B
330
43
100
AcDbEntity
  8
002
 62
     3
370
     9
100
AcDbLine
 10
259.817206
 20
21.017937
 30
0.0
 11
260.619474
 21
21.820205
 31
0.0
  0
LINE
  5
14C
330
43
100
AcDbEntity
  8
002
 62
     3
370
     9
100
AcDbLine
 10
259.55861
 20
20.841197
 30
0.0
 11
260.781506
 21
22.064093
 31
0.0
  0
LINE
  5
14D
330
43
100
AcDbEntity
  8
002
 62
     3
370
     9
100
AcDbLine
 10
259.359192
 20
20.723636
 30
0.0
 11
260.888401
 21
22.252845
 31
0.0
  0
LINE
  5
14E
330
43
100
AcDbEntity
  8
002
 62
     3
370
     9
100
AcDbLine
 10
259.18817
 20
20.63447
 30
0.0
 11
260.968695
 21
22.414995
 31
0.0
  0
LINE
  5
14F
330
43
100
AcDbEntity
  8
002
 62
     3
370
     9
100
AcDbLine
 10
259.03485
 20
20.563006
 30
0.0
 11
261.032354
 21
22.56051
 31
0.0
  0
LINE
  5
150
330
43
100
AcDbEntity
  8
002
 62
     3
370
     9
100
AcDbLine
 10
258.893993
 20
20.504005
 30
0.0
 11
261.084273
 21
22.694286
 31
0.0
  0
LINE
  5
151
330
43
100
AcDbEntity
  8
002
 62
     3
370
     9
100
AcDbLine
 10
258.762563
 20
20.454432
 30
0.0
 11
261.127293
 21
22.819162
 31
0.0
  0
LINE
  5
152
330
43
100
AcDbEntity
  8
002
 62
     3
370
     9
100
AcDbLine
 10
258.638612
 20
20.412338
 30
0.0
 11
261.158457
 21
22.932183
 31
0.0
  0
LINE
  5
153
330
43
100
AcDbEntity
  8
002
 62
     3
370
     9
100
AcDbLine
 10
258.520803
 20
20.376385
 30
0.0
 11
261.181306
 21
23.036889
 31
0.0
  0
LINE
  5
154
330
43
100
AcDbEntity
  8
002
 62
     3
370
     9
100
AcDbLine
 10
258.408166
 20
20.345605
 30
0.0
 11
261.198136
 21
23.135575
 31
0.0
  0
LINE
  5
155
330
43
100
AcDbEntity
  8
002
 62
     3
370
     9
100
AcDbLine
 10
258.299975
 20
20.319271
 30
0.0
 11
261.209985
 21
23.229281
 31
0.0
  0
LINE
  5
156
330
43
100
AcDbEntity
  8
002
 62
     3
370
     9
100
AcDbLine
 10
258.195668
 20
20.29682
 30
0.0
 11
261.217604
 21
23.318756
 31
0.0
  0
LINE
  5
157
330
43
100
AcDbEntity
  8
002
 62
     3
370
     9
100
AcDbLine
 10
258.094798
 20
20.277806
 30
0.0
 11
261.221554
 21
23.404562
 31
0.0
  0
LINE
  5
158
330
43
100
AcDbEntity
  8
002
 62
     3
370
     9
100
AcDbLine
 10
257.997003
 20
20.261867
 30
0.0
 11
261.222269
 21
23.487134
 31
0.0
  0
LINE
  5
159
330
43
100
AcDbEntity
  8
002
 62
     3
370
     9
100
AcDbLine
 10
257.901986
 20
20.248707
 30
0.0
 11
261.220093
 21
23.566814
 31
0.0
  0
LINE
  5
15A
330
43
100
AcDbEntity
  8
002
 62
     3
370
     9
100
AcDbLine
 10
257.8095
 20
20.238078
 30
0.0
 11
261.215301
 21
23.643879
 31
0.0
  0
LINE
  5
15B
330
43
100
AcDbEntity
  8
002
 62
     3
370
     9
100
AcDbLine
 10
257.719335
 20
20.229769
 30
0.0
 11
261.208123
 21
23.718556
 31
0.0
  0
LINE
  5
15C
330
43
100
AcDbEntity
  8
002
 62
     3
370
     9
100
AcDbLine
 10
257.631311
 20
20.223601
 30
0.0
 11
259.359811
 21
21.952101
 31
0.0
  0
LINE
  5
15D
330
43
100
AcDbEntity
  8
002
 62
     3
370
     9
100
AcDbLine
 10
259.519293
 20
22.111583
 30
0.0
 11
261.198745
 21
23.791036
 31
0.0
  0
LINE
  5
15E
330
43
100
AcDbEntity
  8
002
 62
     3
370
     9
100
AcDbLine
 10
257.545274
 20
20.21942
 30
0.0
 11
259.323048
 21
21.997195
 31
0.0
  0
LINE
  5
15F
330
43
100
AcDbEntity
  8
002
 62
     3
370
     9
100
AcDbLine
 10
259.607341
 20
22.281488
 30
0.0
 11
261.187329
 21
23.861475
 31
0.0
  0
LINE
  5
160
330
43
100
AcDbEntity
  8
002
 62
     3
370
     9
100
AcDbLine
 10
257.461089
 20
20.217092
 30
0.0
 11
257.775133
 21
20.531136
 31
0.0
  0
LINE
  5
161
330
43
100
AcDbEntity
  8
002
 62
     3
370
     9
100
AcDbLine
 10
257.872293
 20
20.628296
 30
0.0
 11
259.28591
 21
22.041913
 31
0.0
  0
LINE
  5
162
330
43
100
AcDbEntity
  8
002
 62
     3
370
     9
100
AcDbLine
 10
259.674303
 20
22.430306
 30
0.0
 11
261.174008
 21
23.930011
 31
0.0
  0
LINE
  5
163
330
43
100
AcDbEntity
  8
002
 62
     3
370
     9
100
AcDbLine
 10
257.37864
 20
20.216499
 30
0.0
 11
257.634041
 21
20.4719
 31
0.0
  0
LINE
  5
164
330
43
100
AcDbEntity
  8
002
 62
     3
370
     9
100
AcDbLine
 10
257.847243
 20
20.685102
 30
0.0
 11
259.248398
 21
22.086257
 31
0.0
  0
LINE
  5
165
330
43
100
AcDbEntity
  8
002
 62
     3
370
     9
100
AcDbLine
 10
259.727376
 20
22.565236
 30
0.0
 11
261.158899
 21
23.996758
 31
0.0
  0
LINE
  5
166
330
43
100
AcDbEntity
  8
002
 62
     3
370
     9
100
AcDbLine
 10
257.309946
 20
20.229662
 30
0.0
 11
257.505592
 21
20.425308
 31
0.0
  0
LINE
  5
167
330
43
100
AcDbEntity
  8
002
 62
     3
370
     9
100
AcDbLine
 10
257.821626
 20
20.741342
 30
0.0
 11
259.210512
 21
22.130228
 31
0.0
  0
LINE
  5
168
330
43
100
AcDbEntity
  8
002
 62
     3
370
     9
100
AcDbLine
 10
259.767795
 20
22.687511
 30
0.0
 11
261.142101
 21
24.061817
 31
0.0
  0
LINE
  5
169
330
43
100
AcDbEntity
  8
002
 62
     3
370
     9
100
AcDbLine
 10
257.276226
 20
20.277799
 30
0.0
 11
257.386456
 21
20.388028
 31
0.0
  0
LINE
  5
16A
330
43
100
AcDbEntity
  8
002
 62
     3
370
     9
100
AcDbLine
 10
257.795452
 20
20.797024
 30
0.0
 11
259.172254
 21
22.173826
 31
0.0
  0
LINE
  5
16B
330
43
100
AcDbEntity
  8
002
 62
     3
370
     9
100
AcDbLine
 10
259.792843
 20
22.794415
 30
0.0
 11
261.123135
 21
24.124707
 31
0.0
  0
LINE
  5
16C
330
43
100
AcDbEntity
  8
002
 62
     3
370
     9
100
AcDbLine
 10
257.768726
 20
20.852155
 30
0.0
 11
259.133624
 21
22.217053
 31
0.0
  0
LINE
  5
16D
330
43
100
AcDbEntity
  8
002
 62
     3
370
     9
100
AcDbLine
 10
259.808789
 20
22.892218
 30
0.0
 11
261.10166
 21
24.185089
 31
0.0
  0
LINE
  5
16E
330
43
100
AcDbEntity
  8
002
 62
     3
370
     9
100
AcDbLine
 10
257.741455
 20
20.906741
 30
0.0
 11
259.094622
 21
22.259908
 31
0.0
  0
LINE
  5
16F
330
43
100
AcDbEntity
  8
002
 62
     3
370
     9
100
AcDbLine
 10
259.817832
 20
22.983117
 30
0.0
 11
261.07863
 21
24.243916
 31
0.0
  0
LINE
  5
170
330
43
100
AcDbEntity
  8
002
 62
     3
370
     9
100
AcDbLine
 10
257.713647
 20
20.960789
 30
0.0
 11
259.05525
 21
22.302392
 31
0.0
  0
LINE
  5
171
330
43
100
AcDbEntity
  8
002
 62
     3
370
     9
100
AcDbLine
 10
259.821348
 20
23.06849
 30
0.0
 11
261.054108
 21
24.30125
 31
0.0
  0
LINE
  5
172
330
43
100
AcDbEntity
  8
002
 62
     3
370
     9
100
AcDbLine
 10
257.685307
 20
21.014305
 30
0.0
 11
259.015507
 21
22.344505
 31
0.0
  0
LINE
  5
173
330
43
100
AcDbEntity
  8
002
 62
     3
370
     9
100
AcDbLine
 10
259.820269
 20
23.149267
 30
0.0
 11
261.028148
 21
24.357147
 31
0.0
  0
LINE
  5
174
330
43
100
AcDbEntity
  8
002
 62
     3
370
     9
100
AcDbLine
 10
257.65644
 20
21.067295
 30
0.0
 11
258.975394
 21
22.386249
 31
0.0
  0
LINE
  5
175
330
43
100
AcDbEntity
  8
002
 62
     3
370
     9
100
AcDbLine
 10
259.810951
 20
23.221806
 30
0.0
 11
261.000798
 21
24.411652
 31
0.0
  0
LINE
  5
176
330
43
100
AcDbEntity
  8
002
 62
     3
370
     9
100
AcDbLine
 10
257.627053
 20
21.119764
 30
0.0
 11
258.934911
 21
22.427622
 31
0.0
  0
LINE
  5
177
330
43
100
AcDbEntity
  8
002
 62
     3
370
     9
100
AcDbLine
 10
259.796753
 20
23.289464
 30
0.0
 11
260.972097
 21
24.464809
 31
0.0
  0
LINE
  5
178
330
43
100
AcDbEntity
  8
002
 62
     3
370
     9
100
AcDbLine
 10
257.59715
 20
21.171718
 30
0.0
 11
258.894058
 21
22.468625
 31
0.0
  0
LINE
  5
179
330
43
100
AcDbEntity
  8
002
 62
     3
370
     9
100
AcDbLine
 10
259.778539
 20
23.353107
 30
0.0
 11
260.942083
 21
24.516651
 31
0.0
  0
LINE
  5
17A
330
43
100
AcDbEntity
  8
002
 62
     3
370
     9
100
AcDbLine
 10
257.566737
 20
21.223161
 30
0.0
 11
258.852835
 21
22.509259
 31
0.0
  0
LINE
  5
17B
330
43
100
AcDbEntity
  8
002
 62
     3
370
     9
100
AcDbLine
 10
259.756758
 20
23.413182
 30
0.0
 11
260.910786
 21
24.56721
 31
0.0
  0
LINE
  5
17C
330
43
100
AcDbEntity
  8
002
 62
     3
370
     9
100
AcDbLine
 10
257.535817
 20
21.274098
 30
0.0
 11
258.811242
 21
22.549523
 31
0.0
  0
LINE
  5
17D
330
43
100
AcDbEntity
  8
002
 62
     3
370
     9
100
AcDbLine
 10
259.731734
 20
23.470015
 30
0.0
 11
260.878232
 21
24.616512
 31
0.0
  0
LINE
  5
17E
330
43
100
AcDbEntity
  8
002
 62
     3
370
     9
100
AcDbLine
 10
257.504396
 20
21.324533
 30
0.0
 11
258.769279
 21
22.589416
 31
0.0
  0
LINE
  5
17F
330
43
100
AcDbEntity
  8
002
 62
     3
370
     9
100
AcDbLine
 10
259.70371
 20
23.523847
 30
0.0
 11
260.844443
 21
24.66458
 31
0.0
  0
LINE
  5
180
330
43
100
AcDbEntity
  8
002
 62
     3
370
     9
100
AcDbLine
 10
257.472477
 20
21.37447
 30
0.0
 11
258.726946
 21
22.628939
 31
0.0
  0
LINE
  5
181
330
43
100
AcDbEntity
  8
002
 62
     3
370
     9
100
AcDbLine
 10
259.672864
 20
23.574858
 30
0.0
 11
260.809439
 21
24.711432
 31
0.0
  0
LINE
  5
182
330
43
100
AcDbEntity
  8
002
 62
     3
370
     9
100
AcDbLine
 10
257.440064
 20
21.423914
 30
0.0
 11
258.684242
 21
22.668091
 31
0.0
  0
LINE
  5
183
330
43
100
AcDbEntity
  8
002
 62
     3
370
     9
100
AcDbLine
 10
259.639326
 20
23.623176
 30
0.0
 11
260.773234
 21
24.757084
 31
0.0
  0
LINE
  5
184
330
43
100
AcDbEntity
  8
002
 62
     3
370
     9
100
AcDbLine
 10
257.40716
 20
21.472866
 30
0.0
 11
258.641166
 21
22.706873
 31
0.0
  0
LINE
  5
185
330
43
100
AcDbEntity
  8
002
 62
     3
370
     9
100
AcDbLine
 10
259.603185
 20
23.668892
 30
0.0
 11
260.73584
 21
24.801547
 31
0.0
  0
LINE
  5
186
330
43
100
AcDbEntity
  8
002
 62
     3
370
     9
100
AcDbLine
 10
257.373769
 20
21.521332
 30
0.0
 11
258.597719
 21
22.745282
 31
0.0
  0
LINE
  5
187
330
43
100
AcDbEntity
  8
002
 62
     3
370
     9
100
AcDbLine
 10
259.564498
 20
23.712061
 30
0.0
 11
260.697267
 21
24.84483
 31
0.0
  0
LINE
  5
188
330
43
100
AcDbEntity
  8
002
 62
     3
370
     9
100
AcDbLine
 10
257.339894
 20
21.569313
 30
0.0
 11
258.5539
 21
22.783319
 31
0.0
  0
LINE
  5
189
330
43
100
AcDbEntity
  8
002
 62
     3
370
     9
100
AcDbLine
 10
259.523291
 20
23.75271
 30
0.0
 11
260.657519
 21
24.886939
 31
0.0
  0
LINE
  5
18A
330
43
100
AcDbEntity
  8
002
 62
     3
370
     9
100
AcDbLine
 10
257.305538
 20
21.616814
 30
0.0
 11
258.509708
 21
22.820983
 31
0.0
  0
LINE
  5
18B
330
43
100
AcDbEntity
  8
002
 62
     3
370
     9
100
AcDbLine
 10
259.479559
 20
23.790835
 30
0.0
 11
260.616601
 21
24.927876
 31
0.0
  0
LINE
  5
18C
330
43
100
AcDbEntity
  8
002
 62
     3
370
     9
100
AcDbLine
 10
257.270703
 20
21.663835
 30
0.0
 11
258.465142
 21
22.858274
 31
0.0
  0
LINE
  5
18D
330
43
100
AcDbEntity
  8
002
 62
     3
370
     9
100
AcDbLine
 10
259.433272
 20
23.826404
 30
0.0
 11
260.574511
 21
24.967643
 31
0.0
  0
LINE
  5
18E
330
43
100
AcDbEntity
  8
002
 62
     3
370
     9
100
AcDbLine
 10
257.235392
 20
21.710381
 30
0.0
 11
258.420201
 21
22.895189
 31
0.0
  0
LINE
  5
18F
330
43
100
AcDbEntity
  8
002
 62
     3
370
     9
100
AcDbLine
 10
259.384366
 20
23.859354
 30
0.0
 11
260.531247
 21
25.006236
 31
0.0
  0
LINE
  5
190
330
43
100
AcDbEntity
  8
002
 62
     3
370
     9
100
AcDbLine
 10
254.141657
 20
18.698502
 30
0.0
 11
254.360298
 21
18.917143
 31
0.0
  0
LINE
  5
191
330
43
100
AcDbEntity
  8
002
 62
     3
370
     9
100
AcDbLine
 10
257.199607
 20
21.756452
 30
0.0
 11
258.374884
 21
22.931729
 31
0.0
  0
LINE
  5
192
330
43
100
AcDbEntity
  8
002
 62
     3
370
     9
100
AcDbLine
 10
259.332741
 20
23.889586
 30
0.0
 11
260.486803
 21
25.043648
 31
0.0
  0
LINE
  5
193
330
43
100
AcDbEntity
  8
002
 62
     3
370
     9
100
AcDbLine
 10
254.059801
 20
18.698502
 30
0.0
 11
254.575779
 21
19.21448
 31
0.0
  0
LINE
  5
194
330
43
100
AcDbEntity
  8
002
 62
     3
370
     9
100
AcDbLine
 10
257.163351
 20
21.802052
 30
0.0
 11
258.329191
 21
22.967892
 31
0.0
  0
LINE
  5
195
330
43
100
AcDbEntity
  8
002
 62
     3
370
     9
100
AcDbLine
 10
259.27826
 20
23.916962
 30
0.0
 11
260.441171
 21
25.079873
 31
0.0
  0
LINE
  5
196
330
43
100
AcDbEntity
  8
002
 62
     3
370
     9
100
AcDbLine
 10
253.977945
 20
18.698502
 30
0.0
 11
254.793365
 21
19.513923
 31
0.0
  0
LINE
  5
197
330
43
100
AcDbEntity
  8
002
 62
     3
370
     9
100
AcDbLine
 10
257.126624
 20
21.847182
 30
0.0
 11
258.283119
 21
23.003677
 31
0.0
  0
LINE
  5
198
330
43
100
AcDbEntity
  8
002
 62
     3
370
     9
100
AcDbLine
 10
259.220731
 20
23.941289
 30
0.0
 11
260.394339
 21
25.114897
 31
0.0
  0
LINE
  5
199
330
43
100
AcDbEntity
  8
002
 62
     3
370
     9
100
AcDbLine
 10
253.896088
 20
18.698502
 30
0.0
 11
255.013107
 21
19.815521
 31
0.0
  0
LINE
  5
19A
330
43
100
AcDbEntity
  8
002
 62
     3
370
     9
100
AcDbLine
 10
257.089428
 20
21.891843
 30
0.0
 11
258.236668
 21
23.039083
 31
0.0
  0
LINE
  5
19B
330
43
100
AcDbEntity
  8
002
 62
     3
370
     9
100
AcDbLine
 10
259.159896
 20
23.962311
 30
0.0
 11
260.346291
 21
25.148705
 31
0.0
  0
LINE
  5
19C
330
43
100
AcDbEntity
  8
002
 62
     3
370
     9
100
AcDbLine
 10
253.814232
 20
18.698502
 30
0.0
 11
255.235059
 21
20.11933
 31
0.0
  0
LINE
  5
19D
330
43
100
AcDbEntity
  8
002
 62
     3
370
     9
100
AcDbLine
 10
257.051766
 20
21.936037
 30
0.0
 11
258.189837
 21
23.074108
 31
0.0
  0
LINE
  5
19E
330
43
100
AcDbEntity
  8
002
 62
     3
370
     9
100
AcDbLine
 10
259.095406
 20
23.979677
 30
0.0
 11
260.297008
 21
25.181279
 31
0.0
  0
LINE
  5
19F
330
43
100
AcDbEntity
  8
002
 62
     3
370
     9
100
AcDbLine
 10
253.732375
 20
18.698502
 30
0.0
 11
255.459277
 21
20.425404
 31
0.0
  0
LINE
  5
1A0
330
43
100
AcDbEntity
  8
002
 62
     3
370
     9
100
AcDbLine
 10
257.013638
 20
21.979765
 30
0.0
 11
258.142623
 21
23.10875
 31
0.0
  0
LINE
  5
1A1
330
43
100
AcDbEntity
  8
002
 62
     3
370
     9
100
AcDbLine
 10
259.02678
 20
23.992907
 30
0.0
 11
260.24647
 21
25.212597
 31
0.0
  0
LINE
  5
1A2
330
43
100
AcDbEntity
  8
002
 62
     3
370
     9
100
AcDbLine
 10
253.650519
 20
18.698502
 30
0.0
 11
255.685819
 21
20.733803
 31
0.0
  0
LINE
  5
1A3
330
43
100
AcDbEntity
  8
002
 62
     3
370
     9
100
AcDbLine
 10
256.975046
 20
22.023029
 30
0.0
 11
258.095025
 21
23.143009
 31
0.0
  0
LINE
  5
1A4
330
43
100
AcDbEntity
  8
002
 62
     3
370
     9
100
AcDbLine
 10
258.953337
 20
24.001321
 30
0.0
 11
260.194649
 21
25.242632
 31
0.0
  0
LINE
  5
1A5
330
43
100
AcDbEntity
  8
002
 62
     3
370
     9
100
AcDbLine
 10
253.568662
 20
18.698502
 30
0.0
 11
255.914746
 21
21.044586
 31
0.0
  0
LINE
  5
1A6
330
43
100
AcDbEntity
  8
002
 62
     3
370
     9
100
AcDbLine
 10
256.935989
 20
22.065829
 30
0.0
 11
258.047042
 21
23.176882
 31
0.0
  0
LINE
  5
1A7
330
43
100
AcDbEntity
  8
002
 62
     3
370
     9
100
AcDbLine
 10
258.874071
 20
24.003911
 30
0.0
 11
260.141514
 21
25.271354
 31
0.0
  0
LINE
  5
1A8
330
43
100
AcDbEntity
  8
002
 62
     3
370
     9
100
AcDbLine
 10
253.486806
 20
18.698502
 30
0.0
 11
256.14612
 21
21.357817
 31
0.0
  0
LINE
  5
1A9
330
43
100
AcDbEntity
  8
002
 62
     3
370
     9
100
AcDbLine
 10
256.89647
 20
22.108166
 30
0.0
 11
257.998671
 21
23.210368
 31
0.0
  0
LINE
  5
1AA
330
43
100
AcDbEntity
  8
002
 62
     3
370
     9
100
AcDbLine
 10
258.787478
 20
23.999175
 30
0.0
 11
260.087031
 21
25.298727
 31
0.0
  0
LINE
  5
1AB
330
43
100
AcDbEntity
  8
002
 62
     3
370
     9
100
AcDbLine
 10
253.404949
 20
18.698502
 30
0.0
 11
256.38001
 21
21.673563
 31
0.0
  0
LINE
  5
1AC
330
43
100
AcDbEntity
  8
002
 62
     3
370
     9
100
AcDbLine
 10
256.856488
 20
22.150041
 30
0.0
 11
257.949911
 21
23.243464
 31
0.0
  0
LINE
  5
1AD
330
43
100
AcDbEntity
  8
002
 62
     3
370
     9
100
AcDbLine
 10
258.694135
 20
23.987688
 30
0.0
 11
260.031157
 21
25.32471
 31
0.0
  0
LINE
  5
1AE
330
43
100
AcDbEntity
  8
002
 62
     3
370
     9
100
AcDbLine
 10
253.323093
 20
18.698502
 30
0.0
 11
256.616483
 21
21.991892
 31
0.0
  0
LINE
  5
1AF
330
43
100
AcDbEntity
  8
002
 62
     3
370
     9
100
AcDbLine
 10
256.816044
 20
22.191454
 30
0.0
 11
257.90076
 21
23.276169
 31
0.0
  0
LINE
  5
1B0
330
43
100
AcDbEntity
  8
002
 62
     3
370
     9
100
AcDbLine
 10
258.592878
 20
23.968287
 30
0.0
 11
259.973846
 21
25.349256
 31
0.0
  0
LINE
  5
1B1
330
43
100
AcDbEntity
  8
002
 62
     3
370
     9
100
AcDbLine
 10
253.241236
 20
18.698502
 30
0.0
 11
257.851214
 21
23.30848
 31
0.0
  0
LINE
  5
1B2
330
43
100
AcDbEntity
  8
002
 62
     3
370
     9
100
AcDbLine
 10
258.480755
 20
23.938021
 30
0.0
 11
259.915375
 21
25.372641
 31
0.0
  0
LINE
  5
1B3
330
43
100
AcDbEntity
  8
002
 62
     3
370
     9
100
AcDbLine
 10
253.15938
 20
18.698502
 30
0.0
 11
257.801273
 21
23.340396
 31
0.0
  0
LINE
  5
1B4
330
43
100
AcDbEntity
  8
002
 62
     3
370
     9
100
AcDbLine
 10
258.351945
 20
23.891067
 30
0.0
 11
259.855976
 21
25.395098
 31
0.0
  0
LINE
  5
1B5
330
43
100
AcDbEntity
  8
002
 62
     3
370
     9
100
AcDbLine
 10
253.077524
 20
18.698502
 30
0.0
 11
257.750934
 21
23.371913
 31
0.0
  0
LINE
  5
1B6
330
43
100
AcDbEntity
  8
002
 62
     3
370
     9
100
AcDbLine
 10
258.19093
 20
23.811909
 30
0.0
 11
259.795525
 21
25.416504
 31
0.0
  0
LINE
  5
1B7
330
43
100
AcDbEntity
  8
002
 62
     3
370
     9
100
AcDbLine
 10
252.995667
 20
18.698502
 30
0.0
 11
257.700194
 21
23.403029
 31
0.0
  0
LINE
  5
1B8
330
43
100
AcDbEntity
  8
002
 62
     3
370
     9
100
AcDbLine
 10
258.019846
 20
23.722682
 30
0.0
 11
259.73399
 21
25.436825
 31
0.0
  0
LINE
  5
1B9
330
43
100
AcDbEntity
  8
002
 62
     3
370
     9
100
AcDbLine
 10
252.913811
 20
18.698502
 30
0.0
 11
257.64905
 21
23.433742
 31
0.0
  0
LINE
  5
1BA
330
43
100
AcDbEntity
  8
002
 62
     3
370
     9
100
AcDbLine
 10
257.966723
 20
23.751415
 30
0.0
 11
259.671335
 21
25.456026
 31
0.0
  0
LINE
  5
1BB
330
43
100
AcDbEntity
  8
002
 62
     3
370
     9
100
AcDbLine
 10
252.831954
 20
18.698502
 30
0.0
 11
257.597499
 21
23.464048
 31
0.0
  0
LINE
  5
1BC
330
43
100
AcDbEntity
  8
002
 62
     3
370
     9
100
AcDbLine
 10
257.913218
 20
23.779766
 30
0.0
 11
259.60752
 21
25.474068
 31
0.0
  0
LINE
  5
1BD
330
43
100
AcDbEntity
  8
002
 62
     3
370
     9
100
AcDbLine
 10
252.750098
 20
18.698502
 30
0.0
 11
257.54554
 21
23.493944
 31
0.0
  0
LINE
  5
1BE
330
43
100
AcDbEntity
  8
002
 62
     3
370
     9
100
AcDbLine
 10
257.859327
 20
23.807732
 30
0.0
 11
259.542502
 21
25.490906
 31
0.0
  0
LINE
  5
1BF
330
43
100
AcDbEntity
  8
002
 62
     3
370
     9
100
AcDbLine
 10
252.668241
 20
18.698502
 30
0.0
 11
257.493168
 21
23.523429
 31
0.0
  0
LINE
  5
1C0
330
43
100
AcDbEntity
  8
002
 62
     3
370
     9
100
AcDbLine
 10
257.805048
 20
23.835309
 30
0.0
 11
259.476232
 21
25.506493
 31
0.0
  0
LINE
  5
1C1
330
43
100
AcDbEntity
  8
002
 62
     3
370
     9
100
AcDbLine
 10
252.586385
 20
18.698502
 30
0.0
 11
257.44038
 21
23.552497
 31
0.0
  0
LINE
  5
1C2
330
43
100
AcDbEntity
  8
002
 62
     3
370
     9
100
AcDbLine
 10
257.750378
 20
23.862496
 30
0.0
 11
259.408657
 21
25.520775
 31
0.0
  0
LINE
  5
1C3
330
43
100
AcDbEntity
  8
002
 62
     3
370
     9
100
AcDbLine
 10
252.504528
 20
18.698502
 30
0.0
 11
257.387173
 21
23.581147
 31
0.0
  0
LINE
  5
1C4
330
43
100
AcDbEntity
  8
002
 62
     3
370
     9
100
AcDbLine
 10
257.695313
 20
23.889287
 30
0.0
 11
259.339718
 21
25.533692
 31
0.0
  0
LINE
  5
1C5
330
43
100
AcDbEntity
  8
002
 62
     3
370
     9
100
AcDbLine
 10
252.422672
 20
18.698502
 30
0.0
 11
257.333543
 21
23.609373
 31
0.0
  0
LINE
  5
1C6
330
43
100
AcDbEntity
  8
002
 62
     3
370
     9
100
AcDbLine
 10
257.639848
 20
23.915679
 30
0.0
 11
259.269347
 21
25.545178
 31
0.0
  0
LINE
  5
1C7
330
43
100
AcDbEntity
  8
002
 62
     3
370
     9
100
AcDbLine
 10
252.340816
 20
18.698502
 30
0.0
 11
257.279486
 21
23.637173
 31
0.0
  0
LINE
  5
1C8
330
43
100
AcDbEntity
  8
002
 62
     3
370
     9
100
AcDbLine
 10
257.583982
 20
23.941669
 30
0.0
 11
259.19747
 21
25.555157
 31
0.0
  0
LINE
  5
1C9
330
43
100
AcDbEntity
  8
002
 62
     3
370
     9
100
AcDbLine
 10
252.258959
 20
18.698502
 30
0.0
 11
257.225
 21
23.664543
 31
0.0
  0
LINE
  5
1CA
330
43
100
AcDbEntity
  8
002
 62
     3
370
     9
100
AcDbLine
 10
257.52771
 20
23.967253
 30
0.0
 11
259.124001
 21
25.563545
 31
0.0
  0
LINE
  5
1CB
330
43
100
AcDbEntity
  8
002
 62
     3
370
     9
100
AcDbLine
 10
252.177103
 20
18.698502
 30
0.0
 11
257.170078
 21
23.691478
 31
0.0
  0
LINE
  5
1CC
330
43
100
AcDbEntity
  8
002
 62
     3
370
     9
100
AcDbLine
 10
257.471027
 20
23.992427
 30
0.0
 11
259.048846
 21
25.570246
 31
0.0
  0
LINE
  5
1CD
330
43
100
AcDbEntity
  8
002
 62
     3
370
     9
100
AcDbLine
 10
252.095246
 20
18.698502
 30
0.0
 11
257.114718
 21
23.717975
 31
0.0
  0
LINE
  5
1CE
330
43
100
AcDbEntity
  8
002
 62
     3
370
     9
100
AcDbLine
 10
257.41393
 20
24.017186
 30
0.0
 11
258.971894
 21
25.575151
 31
0.0
  0
LINE
  5
1CF
330
43
100
AcDbEntity
  8
002
 62
     3
370
     9
100
AcDbLine
 10
252.01339
 20
18.698502
 30
0.0
 11
257.058853
 21
23.743966
 31
0.0
  0
LINE
  5
1D0
330
43
100
AcDbEntity
  8
002
 62
     3
370
     9
100
AcDbLine
 10
257.356414
 20
24.041527
 30
0.0
 11
258.893021
 21
25.578133
 31
0.0
  0
LINE
  5
1D1
330
43
100
AcDbEntity
  8
002
 62
     3
370
     9
100
AcDbLine
 10
251.931533
 20
18.698502
 30
0.0
 11
257.00242
 21
23.769389
 31
0.0
  0
LINE
  5
1D2
330
43
100
AcDbEntity
  8
002
 62
     3
370
     9
100
AcDbLine
 10
257.298475
 20
24.065444
 30
0.0
 11
258.81208
 21
25.579049
 31
0.0
  0
LINE
  5
1D3
330
43
100
AcDbEntity
  8
002
 62
     3
370
     9
100
AcDbLine
 10
251.849677
 20
18.698502
 30
0.0
 11
256.945577
 21
23.794402
 31
0.0
  0
LINE
  5
1D4
330
43
100
AcDbEntity
  8
002
 62
     3
370
     9
100
AcDbLine
 10
257.240108
 20
24.088934
 30
0.0
 11
258.728903
 21
25.577728
 31
0.0
  0
LINE
  5
1D5
330
43
100
AcDbEntity
  8
002
 62
     3
370
     9
100
AcDbLine
 10
251.76782
 20
18.698502
 30
0.0
 11
256.88832
 21
23.819002
 31
0.0
  0
LINE
  5
1D6
330
43
100
AcDbEntity
  8
002
 62
     3
370
     9
100
AcDbLine
 10
257.181309
 20
24.111991
 30
0.0
 11
258.643289
 21
25.573971
 31
0.0
  0
LINE
  5
1D7
330
43
100
AcDbEntity
  8
002
 62
     3
370
     9
100
AcDbLine
 10
251.685964
 20
18.698502
 30
0.0
 11
256.830646
 21
23.843185
 31
0.0
  0
LINE
  5
1D8
330
43
100
AcDbEntity
  8
002
 62
     3
370
     9
100
AcDbLine
 10
257.122071
 20
24.134609
 30
0.0
 11
258.555
 21
25.567539
 31
0.0
  0
LINE
  5
1D9
330
43
100
AcDbEntity
  8
002
 62
     3
370
     9
100
AcDbLine
 10
251.604107
 20
18.698502
 30
0.0
 11
256.77255
 21
23.866945
 31
0.0
  0
LINE
  5
1DA
330
43
100
AcDbEntity
  8
002
 62
     3
370
     9
100
AcDbLine
 10
257.06239
 20
24.156785
 30
0.0
 11
258.4639
 21
25.558295
 31
0.0
  0
LINE
  5
1DB
330
43
100
AcDbEntity
  8
002
 62
     3
370
     9
100
AcDbLine
 10
251.522251
 20
18.698502
 30
0.0
 11
256.714026
 21
23.890278
 31
0.0
  0
LINE
  5
1DC
330
43
100
AcDbEntity
  8
002
 62
     3
370
     9
100
AcDbLine
 10
257.002261
 20
24.178512
 30
0.0
 11
258.370889
 21
25.547141
 31
0.0
  0
LINE
  5
1DD
330
43
100
AcDbEntity
  8
002
 62
     3
370
     9
100
AcDbLine
 10
251.440395
 20
18.698502
 30
0.0
 11
256.655071
 21
23.913179
 31
0.0
  0
LINE
  5
1DE
330
43
100
AcDbEntity
  8
002
 62
     3
370
     9
100
AcDbLine
 10
256.941676
 20
24.199784
 30
0.0
 11
258.275308
 21
25.533416
 31
0.0
  0
LINE
  5
1DF
330
43
100
AcDbEntity
  8
002
 62
     3
370
     9
100
AcDbLine
 10
251.358538
 20
18.698502
 30
0.0
 11
256.595679
 21
23.935643
 31
0.0
  0
LINE
  5
1E0
330
43
100
AcDbEntity
  8
002
 62
     3
370
     9
100
AcDbLine
 10
256.880632
 20
24.220596
 30
0.0
 11
258.176901
 21
25.516865
 31
0.0
  0
LINE
  5
1E1
330
43
100
AcDbEntity
  8
002
 62
     3
370
     9
100
AcDbLine
 10
251.521727
 20
18.943548
 30
0.0
 11
256.535844
 21
23.957665
 31
0.0
  0
LINE
  5
1E2
330
43
100
AcDbEntity
  8
002
 62
     3
370
     9
100
AcDbLine
 10
256.819121
 20
24.240941
 30
0.0
 11
258.075359
 21
25.49718
 31
0.0
  0
LINE
  5
1E3
330
43
100
AcDbEntity
  8
002
 62
     3
370
     9
100
AcDbLine
 10
251.898543
 20
19.40222
 30
0.0
 11
256.475562
 21
23.979239
 31
0.0
  0
LINE
  5
1E4
330
43
100
AcDbEntity
  8
002
 62
     3
370
     9
100
AcDbLine
 10
256.757136
 20
24.260813
 30
0.0
 11
257.970311
 21
25.473988
 31
0.0
  0
LINE
  5
1E5
330
43
100
AcDbEntity
  8
002
 62
     3
370
     9
100
AcDbLine
 10
252.275519
 20
19.861053
 30
0.0
 11
256.414826
 21
24.00036
 31
0.0
  0
LINE
  5
1E6
330
43
100
AcDbEntity
  8
002
 62
     3
370
     9
100
AcDbLine
 10
256.694672
 20
24.280205
 30
0.0
 11
257.861291
 21
25.446824
 31
0.0
  0
LINE
  5
1E7
330
43
100
AcDbEntity
  8
002
 62
     3
370
     9
100
AcDbLine
 10
252.652656
 20
20.320046
 30
0.0
 11
256.353631
 21
24.021021
 31
0.0
  0
LINE
  5
1E8
330
43
100
AcDbEntity
  8
002
 62
     3
370
     9
100
AcDbLine
 10
256.63172
 20
24.29911
 30
0.0
 11
257.747713
 21
25.415103
 31
0.0
  0
LINE
  5
1E9
330
43
100
AcDbEntity
  8
002
 62
     3
370
     9
100
AcDbLine
 10
253.029954
 20
20.7792
 30
0.0
 11
256.291969
 21
24.041216
 31
0.0
  0
LINE
  5
1EA
330
43
100
AcDbEntity
  8
002
 62
     3
370
     9
100
AcDbLine
 10
256.568274
 20
24.317521
 30
0.0
 11
257.628816
 21
25.378063
 31
0.0
  0
LINE
  5
1EB
330
43
100
AcDbEntity
  8
002
 62
     3
370
     9
100
AcDbLine
 10
253.407412
 20
21.238515
 30
0.0
 11
256.229836
 21
24.060939
 31
0.0
  0
LINE
  5
1EC
330
43
100
AcDbEntity
  8
002
 62
     3
370
     9
100
AcDbLine
 10
256.504327
 20
24.335429
 30
0.0
 11
257.503581
 21
25.334684
 31
0.0
  0
LINE
  5
1ED
330
43
100
AcDbEntity
  8
002
 62
     3
370
     9
100
AcDbLine
 10
253.785033
 20
21.697992
 30
0.0
 11
256.167223
 21
24.080182
 31
0.0
  0
LINE
  5
1EE
330
43
100
AcDbEntity
  8
002
 62
     3
370
     9
100
AcDbLine
 10
256.439868
 20
24.352828
 30
0.0
 11
257.370587
 21
25.283547
 31
0.0
  0
LINE
  5
1EF
330
43
100
AcDbEntity
  8
002
 62
     3
370
     9
100
AcDbLine
 10
254.162814
 20
22.15763
 30
0.0
 11
256.104124
 21
24.09894
 31
0.0
  0
LINE
  5
1F0
330
43
100
AcDbEntity
  8
002
 62
     3
370
     9
100
AcDbLine
 10
256.374892
 20
24.369708
 30
0.0
 11
257.22775
 21
25.222565
 31
0.0
  0
LINE
  5
1F1
330
43
100
AcDbEntity
  8
002
 62
     3
370
     9
100
AcDbLine
 10
254.540757
 20
22.61743
 30
0.0
 11
256.040531
 21
24.117204
 31
0.0
  0
LINE
  5
1F2
330
43
100
AcDbEntity
  8
002
 62
     3
370
     9
100
AcDbLine
 10
256.309388
 20
24.38606
 30
0.0
 11
257.07177
 21
25.148443
 31
0.0
  0
LINE
  5
1F3
330
43
100
AcDbEntity
  8
002
 62
     3
370
     9
100
AcDbLine
 10
254.918863
 20
23.077391
 30
0.0
 11
255.976438
 21
24.134967
 31
0.0
  0
LINE
  5
1F4
330
43
100
AcDbEntity
  8
002
 62
     3
370
     9
100
AcDbLine
 10
256.243348
 20
24.401877
 30
0.0
 11
256.896836
 21
25.055365
 31
0.0
  0
LINE
  5
1F5
330
43
100
AcDbEntity
  8
002
 62
     3
370
     9
100
AcDbLine
 10
255.136305
 20
23.37669
 30
0.0
 11
255.911835
 21
24.15222
 31
0.0
  0
LINE
  5
1F6
330
43
100
AcDbEntity
  8
002
 62
     3
370
     9
100
AcDbLine
 10
256.176762
 20
24.417147
 30
0.0
 11
256.690616
 21
24.931001
 31
0.0
  0
LINE
  5
1F7
330
43
100
AcDbEntity
  8
002
 62
     3
370
     9
100
AcDbLine
 10
255.08009
 20
23.402332
 30
0.0
 11
255.846715
 21
24.168956
 31
0.0
  0
LINE
  5
1F8
330
43
100
AcDbEntity
  8
002
 62
     3
370
     9
100
AcDbLine
 10
256.109619
 20
24.431861
 30
0.0
 11
256.413909
 21
24.736151
 31
0.0
  0
LINE
  5
1F9
330
43
100
AcDbEntity
  8
002
 62
     3
370
     9
100
AcDbLine
 10
255.023425
 20
23.427523
 30
0.0
 11
255.781068
 21
24.185166
 31
0.0
  0
LINE
  5
1FA
330
43
100
AcDbEntity
  8
002
 62
     3
370
     9
100
AcDbLine
 10
254.966302
 20
23.452257
 30
0.0
 11
255.714885
 21
24.20084
 31
0.0
  0
LINE
  5
1FB
330
43
100
AcDbEntity
  8
002
 62
     3
370
     9
100
AcDbLine
 10
254.908718
 20
23.476529
 30
0.0
 11
255.648158
 21
24.215969
 31
0.0
  0
LINE
  5
1FC
330
43
100
AcDbEntity
  8
002
 62
     3
370
     9
100
AcDbLine
 10
254.850667
 20
23.500335
 30
0.0
 11
255.580876
 21
24.230543
 31
0.0
  0
LINE
  5
1FD
330
43
100
AcDbEntity
  8
002
 62
     3
370
     9
100
AcDbLine
 10
254.792143
 20
23.523667
 30
0.0
 11
255.513028
 21
24.244552
 31
0.0
  0
LINE
  5
1FE
330
43
100
AcDbEntity
  8
002
 62
     3
370
     9
100
AcDbLine
 10
254.73314
 20
23.54652
 30
0.0
 11
255.444603
 21
24.257984
 31
0.0
  0
LINE
  5
1FF
330
43
100
AcDbEntity
  8
002
 62
     3
370
     9
100
AcDbLine
 10
254.673652
 20
23.568888
 30
0.0
 11
255.375591
 21
24.270828
 31
0.0
  0
LINE
  5
200
330
43
100
AcDbEntity
  8
002
 62
     3
370
     9
100
AcDbLine
 10
254.613671
 20
23.590764
 30
0.0
 11
255.305978
 21
24.283072
 31
0.0
  0
LINE
  5
201
330
43
100
AcDbEntity
  8
002
 62
     3
370
     9
100
AcDbLine
 10
254.553192
 20
23.612142
 30
0.0
 11
255.235753
 21
24.294703
 31
0.0
  0
LINE
  5
202
330
43
100
AcDbEntity
  8
002
 62
     3
370
     9
100
AcDbLine
 10
254.492207
 20
23.633013
 30
0.0
 11
255.164902
 21
24.305708
 31
0.0
  0
LINE
  5
203
330
43
100
AcDbEntity
  8
002
 62
     3
370
     9
100
AcDbLine
 10
254.430708
 20
23.65337
 30
0.0
 11
255.09341
 21
24.316073
 31
0.0
  0
LINE
  5
204
330
43
100
AcDbEntity
  8
002
 62
     3
370
     9
100
AcDbLine
 10
254.368688
 20
23.673207
 30
0.0
 11
255.021264
 21
24.325783
 31
0.0
  0
LINE
  5
205
330
43
100
AcDbEntity
  8
002
 62
     3
370
     9
100
AcDbLine
 10
254.306138
 20
23.692513
 30
0.0
 11
254.948448
 21
24.334823
 31
0.0
  0
LINE
  5
206
330
43
100
AcDbEntity
  8
002
 62
     3
370
     9
100
AcDbLine
 10
254.24305
 20
23.711282
 30
0.0
 11
254.874945
 21
24.343177
 31
0.0
  0
LINE
  5
207
330
43
100
AcDbEntity
  8
002
 62
     3
370
     9
100
AcDbLine
 10
254.179414
 20
23.729503
 30
0.0
 11
254.800738
 21
24.350826
 31
0.0
  0
LINE
  5
208
330
43
100
AcDbEntity
  8
002
 62
     3
370
     9
100
AcDbLine
 10
254.115222
 20
23.747167
 30
0.0
 11
254.725809
 21
24.357754
 31
0.0
  0
LINE
  5
209
330
43
100
AcDbEntity
  8
002
 62
     3
370
     9
100
AcDbLine
 10
254.050463
 20
23.764264
 30
0.0
 11
254.650138
 21
24.36394
 31
0.0
  0
LINE
  5
20A
330
43
100
AcDbEntity
  8
002
 62
     3
370
     9
100
AcDbLine
 10
253.985127
 20
23.780785
 30
0.0
 11
254.573706
 21
24.369364
 31
0.0
  0
LINE
  5
20B
330
43
100
AcDbEntity
  8
002
 62
     3
370
     9
100
AcDbLine
 10
253.919203
 20
23.796717
 30
0.0
 11
254.49649
 21
24.374004
 31
0.0
  0
LINE
  5
20C
330
43
100
AcDbEntity
  8
002
 62
     3
370
     9
100
AcDbLine
 10
253.852679
 20
23.81205
 30
0.0
 11
254.418467
 21
24.377838
 31
0.0
  0
LINE
  5
20D
330
43
100
AcDbEntity
  8
002
 62
     3
370
     9
100
AcDbLine
 10
253.785543
 20
23.82677
 30
0.0
 11
254.339614
 21
24.380841
 31
0.0
  0
LINE
  5
20E
330
43
100
AcDbEntity
  8
002
 62
     3
370
     9
100
AcDbLine
 10
253.717783
 20
23.840867
 30
0.0
 11
254.259904
 21
24.382987
 31
0.0
  0
LINE
  5
20F
330
43
100
AcDbEntity
  8
002
 62
     3
370
     9
100
AcDbLine
 10
253.649386
 20
23.854326
 30
0.0
 11
254.179308
 21
24.384248
 31
0.0
  0
LINE
  5
210
330
43
100
AcDbEntity
  8
002
 62
     3
370
     9
100
AcDbLine
 10
253.580336
 20
23.867133
 30
0.0
 11
254.097799
 21
24.384595
 31
0.0
  0
LINE
  5
211
330
43
100
AcDbEntity
  8
002
 62
     3
370
     9
100
AcDbLine
 10
253.51062
 20
23.879273
 30
0.0
 11
254.015343
 21
24.383996
 31
0.0
  0
LINE
  5
212
330
43
100
AcDbEntity
  8
002
 62
     3
370
     9
100
AcDbLine
 10
253.440221
 20
23.89073
 30
0.0
 11
253.931907
 21
24.382417
 31
0.0
  0
LINE
  5
213
330
43
100
AcDbEntity
  8
002
 62
     3
370
     9
100
AcDbLine
 10
253.369123
 20
23.901489
 30
0.0
 11
253.847455
 21
24.379821
 31
0.0
  0
LINE
  5
214
330
43
100
AcDbEntity
  8
002
 62
     3
370
     9
100
AcDbLine
 10
253.297309
 20
23.911531
 30
0.0
 11
253.761947
 21
24.376169
 31
0.0
  0
LINE
  5
215
330
43
100
AcDbEntity
  8
002
 62
     3
370
     9
100
AcDbLine
 10
253.224759
 20
23.920838
 30
0.0
 11
253.675341
 21
24.371419
 31
0.0
  0
LINE
  5
216
330
43
100
AcDbEntity
  8
002
 62
     3
370
     9
100
AcDbLine
 10
253.151454
 20
23.92939
 30
0.0
 11
253.58759
 21
24.365525
 31
0.0
  0
LINE
  5
217
330
43
100
AcDbEntity
  8
002
 62
     3
370
     9
100
AcDbLine
 10
253.077374
 20
23.937166
 30
0.0
 11
253.498646
 21
24.358438
 31
0.0
  0
LINE
  5
218
330
43
100
AcDbEntity
  8
002
 62
     3
370
     9
100
AcDbLine
 10
253.002496
 20
23.944144
 30
0.0
 11
253.408455
 21
24.350103
 31
0.0
  0
LINE
  5
219
330
43
100
AcDbEntity
  8
002
 62
     3
370
     9
100
AcDbLine
 10
252.926796
 20
23.950301
 30
0.0
 11
253.316958
 21
24.340462
 31
0.0
  0
LINE
  5
21A
330
43
100
AcDbEntity
  8
002
 62
     3
370
     9
100
AcDbLine
 10
252.85025
 20
23.955611
 30
0.0
 11
253.22409
 21
24.329451
 31
0.0
  0
LINE
  5
21B
330
43
100
AcDbEntity
  8
002
 62
     3
370
     9
100
AcDbLine
 10
252.77283
 20
23.960048
 30
0.0
 11
253.129781
 21
24.316998
 31
0.0
  0
LINE
  5
21C
330
43
100
AcDbEntity
  8
002
 62
     3
370
     9
100
AcDbLine
 10
252.694508
 20
23.963582
 30
0.0
 11
253.033954
 21
24.303028
 31
0.0
  0
LINE
  5
21D
330
43
100
AcDbEntity
  8
002
 62
     3
370
     9
100
AcDbLine
 10
252.615253
 20
23.966183
 30
0.0
 11
252.936524
 21
24.287454
 31
0.0
  0
LINE
  5
21E
330
43
100
AcDbEntity
  8
002
 62
     3
370
     9
100
AcDbLine
 10
252.535032
 20
23.967819
 30
0.0
 11
252.837395
 21
24.270182
 31
0.0
  0
LINE
  5
21F
330
43
100
AcDbEntity
  8
002
 62
     3
370
     9
100
AcDbLine
 10
252.45381
 20
23.968453
 30
0.0
 11
252.736462
 21
24.251105
 31
0.0
  0
LINE
  5
220
330
43
100
AcDbEntity
  8
002
 62
     3
370
     9
100
AcDbLine
 10
252.371548
 20
23.968047
 30
0.0
 11
252.633606
 21
24.230105
 31
0.0
  0
LINE
  5
221
330
43
100
AcDbEntity
  8
002
 62
     3
370
     9
100
AcDbLine
 10
252.288205
 20
23.966561
 30
0.0
 11
252.528694
 21
24.20705
 31
0.0
  0
LINE
  5
222
330
43
100
AcDbEntity
  8
002
 62
     3
370
     9
100
AcDbLine
 10
252.204173
 20
23.964385
 30
0.0
 11
252.421575
 21
24.181787
 31
0.0
  0
LINE
  5
223
330
43
100
AcDbEntity
  8
002
 62
     3
370
     9
100
AcDbLine
 10
252.14941
 20
23.991479
 30
0.0
 11
252.312076
 21
24.154145
 31
0.0
  0
LINE
  5
224
330
43
100
AcDbEntity
  8
002
 62
     3
370
     9
100
AcDbLine
 10
252.130461
 20
24.054387
 30
0.0
 11
252.200001
 21
24.123926
 31
0.0
  0
LINE
  5
225
330
43
100
AcDbEntity
  8
002
 62
     3
370
     9
100
AcDbLine
 10
260.445468
 20
18.699367
 30
0.0
 11
260.506147
 21
18.760045
 31
0.0
  0
LINE
  5
226
330
43
100
AcDbEntity
  8
002
 62
     3
370
     9
100
AcDbLine
 10
260.363579
 20
18.699334
 30
0.0
 11
260.504858
 21
18.840613
 31
0.0
  0
LINE
  5
227
330
43
100
AcDbEntity
  8
002
 62
     3
370
     9
100
AcDbLine
 10
260.28169
 20
18.699301
 30
0.0
 11
260.50231
 21
18.919921
 31
0.0
  0
LINE
  5
228
330
43
100
AcDbEntity
  8
002
 62
     3
370
     9
100
AcDbLine
 10
260.199801
 20
18.699269
 30
0.0
 11
260.498558
 21
18.998026
 31
0.0
  0
LINE
  5
229
330
43
100
AcDbEntity
  8
002
 62
     3
370
     9
100
AcDbLine
 10
260.117912
 20
18.699236
 30
0.0
 11
260.493654
 21
19.074979
 31
0.0
  0
LINE
  5
22A
330
43
100
AcDbEntity
  8
002
 62
     3
370
     9
100
AcDbLine
 10
260.036023
 20
18.699203
 30
0.0
 11
260.487644
 21
19.150824
 31
0.0
  0
LINE
  5
22B
330
43
100
AcDbEntity
  8
002
 62
     3
370
     9
100
AcDbLine
 10
259.954134
 20
18.699171
 30
0.0
 11
260.480569
 21
19.225607
 31
0.0
  0
LINE
  5
22C
330
43
100
AcDbEntity
  8
002
 62
     3
370
     9
100
AcDbLine
 10
259.872244
 20
18.699138
 30
0.0
 11
260.472471
 21
19.299364
 31
0.0
  0
LINE
  5
22D
330
43
100
AcDbEntity
  8
002
 62
     3
370
     9
100
AcDbLine
 10
259.790355
 20
18.699105
 30
0.0
 11
260.463383
 21
19.372133
 31
0.0
  0
LINE
  5
22E
330
43
100
AcDbEntity
  8
002
 62
     3
370
     9
100
AcDbLine
 10
259.708466
 20
18.699073
 30
0.0
 11
260.453341
 21
19.443948
 31
0.0
  0
LINE
  5
22F
330
43
100
AcDbEntity
  8
002
 62
     3
370
     9
100
AcDbLine
 10
259.626577
 20
18.69904
 30
0.0
 11
260.442376
 21
19.514839
 31
0.0
  0
LINE
  5
230
330
43
100
AcDbEntity
  8
002
 62
     3
370
     9
100
AcDbLine
 10
259.544688
 20
18.699008
 30
0.0
 11
260.430515
 21
19.584835
 31
0.0
  0
LINE
  5
231
330
43
100
AcDbEntity
  8
002
 62
     3
370
     9
100
AcDbLine
 10
259.462799
 20
18.698975
 30
0.0
 11
260.417787
 21
19.653963
 31
0.0
  0
LINE
  5
232
330
43
100
AcDbEntity
  8
002
 62
     3
370
     9
100
AcDbLine
 10
259.38091
 20
18.698942
 30
0.0
 11
260.404216
 21
19.722248
 31
0.0
  0
LINE
  5
233
330
43
100
AcDbEntity
  8
002
 62
     3
370
     9
100
AcDbLine
 10
259.299021
 20
18.69891
 30
0.0
 11
260.389825
 21
19.789714
 31
0.0
  0
LINE
  5
234
330
43
100
AcDbEntity
  8
002
 62
     3
370
     9
100
AcDbLine
 10
259.217132
 20
18.698877
 30
0.0
 11
260.374637
 21
19.856382
 31
0.0
  0
LINE
  5
235
330
43
100
AcDbEntity
  8
002
 62
     3
370
     9
100
AcDbLine
 10
259.135243
 20
18.698844
 30
0.0
 11
260.358671
 21
19.922273
 31
0.0
  0
LINE
  5
236
330
43
100
AcDbEntity
  8
002
 62
     3
370
     9
100
AcDbLine
 10
259.053354
 20
18.698812
 30
0.0
 11
260.341948
 21
19.987406
 31
0.0
  0
LINE
  5
237
330
43
100
AcDbEntity
  8
002
 62
     3
370
     9
100
AcDbLine
 10
258.971465
 20
18.698779
 30
0.0
 11
260.324484
 21
20.051799
 31
0.0
  0
LINE
  5
238
330
43
100
AcDbEntity
  8
002
 62
     3
370
     9
100
AcDbLine
 10
258.889575
 20
18.698746
 30
0.0
 11
260.306298
 21
20.115469
 31
0.0
  0
LINE
  5
239
330
43
100
AcDbEntity
  8
002
 62
     3
370
     9
100
AcDbLine
 10
258.807686
 20
18.698714
 30
0.0
 11
260.287405
 21
20.178432
 31
0.0
  0
LINE
  5
23A
330
43
100
AcDbEntity
  8
002
 62
     3
370
     9
100
AcDbLine
 10
258.725797
 20
18.698681
 30
0.0
 11
260.267819
 21
20.240703
 31
0.0
  0
LINE
  5
23B
330
43
100
AcDbEntity
  8
002
 62
     3
370
     9
100
AcDbLine
 10
258.643908
 20
18.698649
 30
0.0
 11
260.247556
 21
20.302296
 31
0.0
  0
LINE
  5
23C
330
43
100
AcDbEntity
  8
002
 62
     3
370
     9
100
AcDbLine
 10
258.562019
 20
18.698616
 30
0.0
 11
260.226627
 21
20.363224
 31
0.0
  0
LINE
  5
23D
330
43
100
AcDbEntity
  8
002
 62
     3
370
     9
100
AcDbLine
 10
258.48013
 20
18.698583
 30
0.0
 11
260.205047
 21
20.4235
 31
0.0
  0
LINE
  5
23E
330
43
100
AcDbEntity
  8
002
 62
     3
370
     9
100
AcDbLine
 10
258.398241
 20
18.698551
 30
0.0
 11
260.182826
 21
20.483136
 31
0.0
  0
LINE
  5
23F
330
43
100
AcDbEntity
  8
002
 62
     3
370
     9
100
AcDbLine
 10
258.316352
 20
18.698518
 30
0.0
 11
260.159976
 21
20.542142
 31
0.0
  0
LINE
  5
240
330
43
100
AcDbEntity
  8
002
 62
     3
370
     9
100
AcDbLine
 10
258.277381
 20
18.741404
 30
0.0
 11
260.136508
 21
20.60053
 31
0.0
  0
LINE
  5
241
330
43
100
AcDbEntity
  8
002
 62
     3
370
     9
100
AcDbLine
 10
258.275978
 20
18.821857
 30
0.0
 11
260.11243
 21
20.658309
 31
0.0
  0
LINE
  5
242
330
43
100
AcDbEntity
  8
002
 62
     3
370
     9
100
AcDbLine
 10
258.273286
 20
18.901021
 30
0.0
 11
260.078849
 21
20.706585
 31
0.0
  0
LINE
  5
243
330
43
100
AcDbEntity
  8
002
 62
     3
370
     9
100
AcDbLine
 10
258.269364
 20
18.978956
 30
0.0
 11
259.898236
 21
20.607828
 31
0.0
  0
LINE
  5
244
330
43
100
AcDbEntity
  8
002
 62
     3
370
     9
100
AcDbLine
 10
258.264265
 20
19.055714
 30
0.0
 11
259.737893
 21
20.529342
 31
0.0
  0
LINE
  5
245
330
43
100
AcDbEntity
  8
002
 62
     3
370
     9
100
AcDbLine
 10
258.258037
 20
19.131342
 30
0.0
 11
259.591436
 21
20.464741
 31
0.0
  0
LINE
  5
246
330
43
100
AcDbEntity
  8
002
 62
     3
370
     9
100
AcDbLine
 10
258.250725
 20
19.205886
 30
0.0
 11
259.455303
 21
20.410464
 31
0.0
  0
LINE
  5
247
330
43
100
AcDbEntity
  8
002
 62
     3
370
     9
100
AcDbLine
 10
258.242369
 20
19.279386
 30
0.0
 11
259.327263
 21
20.36428
 31
0.0
  0
LINE
  5
248
330
43
100
AcDbEntity
  8
002
 62
     3
370
     9
100
AcDbLine
 10
258.233006
 20
19.35188
 30
0.0
 11
259.205807
 21
20.324682
 31
0.0
  0
LINE
  5
249
330
43
100
AcDbEntity
  8
002
 62
     3
370
     9
100
AcDbLine
 10
258.222671
 20
19.423402
 30
0.0
 11
259.089861
 21
20.290592
 31
0.0
  0
LINE
  5
24A
330
43
100
AcDbEntity
  8
002
 62
     3
370
     9
100
AcDbLine
 10
258.211397
 20
19.493984
 30
0.0
 11
258.978622
 21
20.26121
 31
0.0
  0
LINE
  5
24B
330
43
100
AcDbEntity
  8
002
 62
     3
370
     9
100
AcDbLine
 10
258.199213
 20
19.563657
 30
0.0
 11
258.871477
 21
20.235921
 31
0.0
  0
LINE
  5
24C
330
43
100
AcDbEntity
  8
002
 62
     3
370
     9
100
AcDbLine
 10
258.186147
 20
19.632447
 30
0.0
 11
258.76794
 21
20.21424
 31
0.0
  0
LINE
  5
24D
330
43
100
AcDbEntity
  8
002
 62
     3
370
     9
100
AcDbLine
 10
258.172225
 20
19.700381
 30
0.0
 11
258.667621
 21
20.195777
 31
0.0
  0
LINE
  5
24E
330
43
100
AcDbEntity
  8
002
 62
     3
370
     9
100
AcDbLine
 10
258.15747
 20
19.767483
 30
0.0
 11
258.5702
 21
20.180213
 31
0.0
  0
LINE
  5
24F
330
43
100
AcDbEntity
  8
002
 62
     3
370
     9
100
AcDbLine
 10
258.141905
 20
19.833775
 30
0.0
 11
258.475412
 21
20.167281
 31
0.0
  0
LINE
  5
250
330
43
100
AcDbEntity
  8
002
 62
     3
370
     9
100
AcDbLine
 10
258.125551
 20
19.899277
 30
0.0
 11
258.383032
 21
20.156758
 31
0.0
  0
LINE
  5
251
330
43
100
AcDbEntity
  8
002
 62
     3
370
     9
100
AcDbLine
 10
258.108428
 20
19.964011
 30
0.0
 11
258.29287
 21
20.148452
 31
0.0
  0
LINE
  5
252
330
43
100
AcDbEntity
  8
002
 62
     3
370
     9
100
AcDbLine
 10
258.090554
 20
20.027993
 30
0.0
 11
258.204761
 21
20.1422
 31
0.0
  0
LINE
  5
253
330
43
100
AcDbEntity
  8
002
 62
     3
370
     9
100
AcDbLine
 10
258.071947
 20
20.091242
 30
0.0
 11
258.118563
 21
20.137858
 31
0.0
  0
TEXT
  5
254
330
43
100
AcDbEntity
  8
002
 62
     3
370
    30
100
AcDbText
 10
251.5
 20
13.4
 30
0.0
 40
2.2
  1
ＴＥＬ　（０２５８）８２－４１２３（チャック事業部）
 41
0.588557
100
AcDbText
  0
ENDBLK
  5
45
330
43
100
AcDbEntity
  8
0
100
AcDbBlockEnd
  0
BLOCK
  5
256
330
255
100
AcDbEntity
  8
0
100
AcDbBlockBegin
  2
JZB-2
 70
     0
 10
0.0
 20
0.0
 30
0.0
  3
JZB-2
  1

  0
LINE
  5
258
330
255
100
AcDbEntity
  8
001
370
    30
100
AcDbLine
 10
110.962439
 20
213.796129
 30
0.0
 11
110.962439
 21
219.796129
 31
0.0
  0
LINE
  5
259
330
255
100
AcDbEntity
  8
001
370
    30
100
AcDbLine
 10
111.962439
 20
220.796129
 30
0.0
 11
111.962439
 21
212.796129
 31
0.0
  0
LINE
  5
25A
330
255
100
AcDbEntity
  8
001
370
    30
100
AcDbLine
 10
111.962439
 20
212.796129
 30
0.0
 11
170.962439
 21
212.796129
 31
0.0
  0
LINE
  5
25B
330
255
100
AcDbEntity
  8
001
370
    30
100
AcDbLine
 10
111.962439
 20
220.796129
 30
0.0
 11
170.962439
 21
220.796129
 31
0.0
  0
LINE
  5
25C
330
255
100
AcDbEntity
  8
001
370
    30
100
AcDbLine
 10
111.962439
 20
220.796129
 30
0.0
 11
110.962439
 21
219.796129
 31
0.0
  0
LINE
  5
25D
330
255
100
AcDbEntity
  8
001
370
    30
100
AcDbLine
 10
110.962439
 20
213.796129
 30
0.0
 11
111.962439
 21
212.796129
 31
0.0
  0
LINE
  5
25E
330
255
100
AcDbEntity
  8
001
 62
     3
370
     9
100
AcDbLine
 10
138.962439
 20
220.196129
 30
0.0
 11
140.001669
 21
220.796129
 31
0.0
  0
LINE
  5
25F
330
255
100
AcDbEntity
  8
001
 62
     3
370
     9
100
AcDbLine
 10
138.962439
 20
213.396129
 30
0.0
 11
140.001669
 21
212.796129
 31
0.0
  0
LINE
  5
260
330
255
100
AcDbEntity
  8
001
370
     9
100
AcDbLine
 10
111.362439
 20
220.196129
 30
0.0
 11
138.962439
 21
220.196129
 31
0.0
  0
LINE
  5
261
330
255
100
AcDbEntity
  8
001
370
     9
100
AcDbLine
 10
111.362439
 20
213.396129
 30
0.0
 11
138.962439
 21
213.396129
 31
0.0
  0
LINE
  5
262
330
255
100
AcDbEntity
  8
001
370
    30
100
AcDbLine
 10
138.962439
 20
220.796129
 30
0.0
 11
138.962439
 21
212.796129
 31
0.0
  0
LINE
  5
263
330
255
100
AcDbEntity
  8
001
370
    30
100
AcDbLine
 10
170.962439
 20
223.296129
 30
0.0
 11
170.962439
 21
210.296129
 31
0.0
  0
LINE
  5
264
330
255
100
AcDbEntity
  8
001
370
    30
100
AcDbLine
 10
177.962439
 20
223.296129
 30
0.0
 11
177.962439
 21
210.296129
 31
0.0
  0
LINE
  5
265
330
255
100
AcDbEntity
  8
001
370
    30
100
AcDbLine
 10
177.962439
 20
210.296129
 30
0.0
 11
178.962439
 21
212.028179
 31
0.0
  0
LINE
  5
266
330
255
100
AcDbEntity
  8
001
370
    30
100
AcDbLine
 10
177.962439
 20
223.296129
 30
0.0
 11
178.962439
 21
221.564078
 31
0.0
  0
LINE
  5
267
330
255
100
AcDbEntity
  8
001
370
    30
100
AcDbLine
 10
170.962439
 20
223.296129
 30
0.0
 11
177.962439
 21
223.296129
 31
0.0
  0
LINE
  5
268
330
255
100
AcDbEntity
  8
001
370
    30
100
AcDbLine
 10
178.962439
 20
221.564078
 30
0.0
 11
178.962439
 21
212.028179
 31
0.0
  0
LINE
  5
269
330
255
100
AcDbEntity
  8
001
370
    30
100
AcDbLine
 10
170.962439
 20
210.296129
 30
0.0
 11
177.962439
 21
210.296129
 31
0.0
  0
LINE
  5
26A
330
255
100
AcDbEntity
  8
001
  6
CENTER
 62
     3
370
     9
100
AcDbLine
 10
109.581005
 20
216.796129
 30
0.0
 11
181.114444
 21
216.796129
 31
0.0
  0
ENDBLK
  5
257
330
255
100
AcDbEntity
  8
0
100
AcDbBlockEnd
  0
BLOCK
  5
26C
330
26B
100
AcDbEntity
  8
0
100
AcDbBlockBegin
  2
JZB-3
 70
     0
 10
0.0
 20
0.0
 30
0.0
  3
JZB-3
  1

  0
LINE
  5
26E
330
26B
100
AcDbEntity
  8
001
370
    30
100
AcDbLine
 10
175.462439
 20
190.496129
 30
0.0
 11
175.462439
 21
195.096129
 31
0.0
  0
LINE
  5
26F
330
26B
100
AcDbEntity
  8
001
370
    30
100
AcDbLine
 10
174.762439
 20
189.796129
 30
0.0
 11
174.762439
 21
195.796129
 31
0.0
  0
LINE
  5
270
330
26B
100
AcDbEntity
  8
001
370
    30
100
AcDbLine
 10
174.762439
 20
195.796129
 30
0.0
 11
130.462439
 21
195.796129
 31
0.0
  0
LINE
  5
271
330
26B
100
AcDbEntity
  8
001
370
    30
100
AcDbLine
 10
174.762439
 20
189.796129
 30
0.0
 11
130.462439
 21
189.796129
 31
0.0
  0
LINE
  5
272
330
26B
100
AcDbEntity
  8
001
370
    30
100
AcDbLine
 10
174.762439
 20
195.796129
 30
0.0
 11
175.462439
 21
195.096129
 31
0.0
  0
LINE
  5
273
330
26B
100
AcDbEntity
  8
001
370
    30
100
AcDbLine
 10
175.462439
 20
190.496129
 30
0.0
 11
174.762439
 21
189.796129
 31
0.0
  0
LINE
  5
274
330
26B
100
AcDbEntity
  8
001
370
    30
100
AcDbLine
 10
151.462439
 20
195.796129
 30
0.0
 11
151.462439
 21
189.796129
 31
0.0
  0
LINE
  5
275
330
26B
100
AcDbEntity
  8
001
370
    30
100
AcDbLine
 10
130.462439
 20
187.796129
 30
0.0
 11
130.462439
 21
197.796129
 31
0.0
  0
LINE
  5
276
330
26B
100
AcDbEntity
  8
001
370
    30
100
AcDbLine
 10
124.962439
 20
197.796129
 30
0.0
 11
124.962439
 21
187.796129
 31
0.0
  0
LINE
  5
277
330
26B
100
AcDbEntity
  8
001
370
    30
100
AcDbLine
 10
130.462439
 20
197.796129
 30
0.0
 11
124.962439
 21
197.796129
 31
0.0
  0
LINE
  5
278
330
26B
100
AcDbEntity
  8
001
370
    30
100
AcDbLine
 10
130.462439
 20
187.796129
 30
0.0
 11
124.962439
 21
187.796129
 31
0.0
  0
LINE
  5
279
330
26B
100
AcDbEntity
  8
001
370
    30
100
AcDbLine
 10
124.962439
 20
197.796129
 30
0.0
 11
124.462439
 21
196.930103
 31
0.0
  0
LINE
  5
27A
330
26B
100
AcDbEntity
  8
001
370
    30
100
AcDbLine
 10
124.962439
 20
187.796129
 30
0.0
 11
124.462439
 21
188.662154
 31
0.0
  0
LINE
  5
27B
330
26B
100
AcDbEntity
  8
001
370
    30
100
AcDbLine
 10
124.462439
 20
188.662154
 30
0.0
 11
124.462439
 21
196.930103
 31
0.0
  0
LINE
  5
27C
330
26B
100
AcDbEntity
  8
001
370
     9
100
AcDbLine
 10
151.462439
 20
190.296129
 30
0.0
 11
150.596414
 21
189.796129
 31
0.0
  0
LINE
  5
27D
330
26B
100
AcDbEntity
  8
001
370
     9
100
AcDbLine
 10
175.262439
 20
190.296129
 30
0.0
 11
151.462439
 21
190.296129
 31
0.0
  0
LINE
  5
27E
330
26B
100
AcDbEntity
  8
001
370
     9
100
AcDbLine
 10
151.462439
 20
195.296129
 30
0.0
 11
150.596414
 21
195.796129
 31
0.0
  0
LINE
  5
27F
330
26B
100
AcDbEntity
  8
001
370
     9
100
AcDbLine
 10
175.262439
 20
195.296129
 30
0.0
 11
151.462439
 21
195.296129
 31
0.0
  0
ENDBLK
  5
26D
330
26B
100
AcDbEntity
  8
0
100
AcDbBlockEnd
  0
BLOCK
  5
281
330
280
100
AcDbEntity
  8
0
100
AcDbBlockBegin
  2
JZB-4
 70
     0
 10
0.0
 20
0.0
 30
0.0
  3
JZB-4
  1

  0
LINE
  5
283
330
280
100
AcDbEntity
  8
001
370
    30
100
AcDbLine
 10
331.192807
 20
218.511129
 30
0.0
 11
331.192807
 21
215.081129
 31
0.0
  0
LINE
  5
284
330
280
100
AcDbEntity
  8
001
370
    30
100
AcDbLine
 10
325.251873
 20
215.081129
 30
0.0
 11
325.251873
 21
218.511129
 31
0.0
  0
LINE
  5
285
330
280
100
AcDbEntity
  8
001
370
    30
100
AcDbLine
 10
325.251873
 20
218.511129
 30
0.0
 11
328.22234
 21
220.226129
 31
0.0
  0
LINE
  5
286
330
280
100
AcDbEntity
  8
001
370
    30
100
AcDbLine
 10
328.22234
 20
213.366129
 30
0.0
 11
331.192807
 21
215.081129
 31
0.0
  0
LINE
  5
287
330
280
100
AcDbEntity
  8
001
370
    30
100
AcDbLine
 10
328.22234
 20
213.366129
 30
0.0
 11
325.251873
 21
215.081129
 31
0.0
  0
LINE
  5
288
330
280
100
AcDbEntity
  8
001
370
    30
100
AcDbLine
 10
328.22234
 20
220.226129
 30
0.0
 11
331.192807
 21
218.511129
 31
0.0
  0
CIRCLE
  5
289
330
280
100
AcDbEntity
  8
001
370
    30
100
AcDbCircle
 10
328.22234
 20
216.796129
 30
0.0
 40
6.5
  0
ENDBLK
  5
282
330
280
100
AcDbEntity
  8
0
100
AcDbBlockEnd
  0
BLOCK
  5
28B
330
28A
100
AcDbEntity
  8
0
100
AcDbBlockBegin
  2
JZB-5
 70
     0
 10
0.0
 20
0.0
 30
0.0
  3
JZB-5
  1

  0
LINE
  5
28D
330
28A
100
AcDbEntity
  8
001
370
    30
100
AcDbLine
 10
287.086133
 20
196.476129
 30
0.0
 11
290.0566
 21
194.761129
 31
0.0
  0
LINE
  5
28E
330
28A
100
AcDbEntity
  8
001
370
    30
100
AcDbLine
 10
287.086133
 20
189.616129
 30
0.0
 11
284.115666
 21
191.331129
 31
0.0
  0
LINE
  5
28F
330
28A
100
AcDbEntity
  8
001
370
    30
100
AcDbLine
 10
284.115666
 20
191.331129
 30
0.0
 11
284.115666
 21
194.761129
 31
0.0
  0
LINE
  5
290
330
28A
100
AcDbEntity
  8
001
370
    30
100
AcDbLine
 10
290.0566
 20
191.331129
 30
0.0
 11
290.0566
 21
194.761129
 31
0.0
  0
LINE
  5
291
330
28A
100
AcDbEntity
  8
001
370
    30
100
AcDbLine
 10
290.0566
 20
191.331129
 30
0.0
 11
287.086133
 21
189.616129
 31
0.0
  0
LINE
  5
292
330
28A
100
AcDbEntity
  8
001
370
    30
100
AcDbLine
 10
284.115666
 20
194.761129
 30
0.0
 11
287.086133
 21
196.476129
 31
0.0
  0
CIRCLE
  5
293
330
28A
100
AcDbEntity
  8
001
370
    30
100
AcDbCircle
 10
287.086133
 20
193.046129
 30
0.0
 40
6.5
  0
ENDBLK
  5
28C
330
28A
100
AcDbEntity
  8
0
100
AcDbBlockEnd
  0
BLOCK
  5
295
330
294
100
AcDbEntity
  8
0
100
AcDbBlockBegin
  2
JZB-6
 70
     0
 10
0.0
 20
0.0
 30
0.0
  3
JZB-6
  1

  0
LINE
  5
297
330
294
100
AcDbEntity
  8
001
370
    30
100
AcDbLine
 10
284.115666
 20
147.261129
 30
0.0
 11
287.086133
 21
148.976129
 31
0.0
  0
LINE
  5
298
330
294
100
AcDbEntity
  8
001
370
    30
100
AcDbLine
 10
290.0566
 20
143.831129
 30
0.0
 11
287.086133
 21
142.116129
 31
0.0
  0
LINE
  5
299
330
294
100
AcDbEntity
  8
001
370
    30
100
AcDbLine
 10
287.086133
 20
142.116129
 30
0.0
 11
284.115666
 21
143.831129
 31
0.0
  0
LINE
  5
29A
330
294
100
AcDbEntity
  8
001
370
    30
100
AcDbLine
 10
290.0566
 20
147.261129
 30
0.0
 11
287.086133
 21
148.976129
 31
0.0
  0
LINE
  5
29B
330
294
100
AcDbEntity
  8
001
370
    30
100
AcDbLine
 10
290.0566
 20
147.261129
 30
0.0
 11
290.0566
 21
143.831129
 31
0.0
  0
LINE
  5
29C
330
294
100
AcDbEntity
  8
001
370
    30
100
AcDbLine
 10
284.115666
 20
143.831129
 30
0.0
 11
284.115666
 21
147.261129
 31
0.0
  0
CIRCLE
  5
29D
330
294
100
AcDbEntity
  8
001
370
    30
100
AcDbCircle
 10
287.086133
 20
145.546129
 30
0.0
 40
6.5
  0
ENDBLK
  5
296
330
294
100
AcDbEntity
  8
0
100
AcDbBlockEnd
  0
BLOCK
  5
29F
330
29E
100
AcDbEntity
  8
0
100
AcDbBlockBegin
  2
JZB-7
 70
     0
 10
0.0
 20
0.0
 30
0.0
  3
JZB-7
  1

  0
LINE
  5
2A1
330
29E
100
AcDbEntity
  8
001
370
    30
100
AcDbLine
 10
325.251873
 20
120.081129
 30
0.0
 11
325.251873
 21
123.511129
 31
0.0
  0
LINE
  5
2A2
330
29E
100
AcDbEntity
  8
001
370
    30
100
AcDbLine
 10
331.192807
 20
123.511129
 30
0.0
 11
331.192807
 21
120.081129
 31
0.0
  0
LINE
  5
2A3
330
29E
100
AcDbEntity
  8
001
370
    30
100
AcDbLine
 10
331.192807
 20
120.081129
 30
0.0
 11
328.22234
 21
118.366129
 31
0.0
  0
LINE
  5
2A4
330
29E
100
AcDbEntity
  8
001
370
    30
100
AcDbLine
 10
328.22234
 20
125.226129
 30
0.0
 11
325.251873
 21
123.511129
 31
0.0
  0
LINE
  5
2A5
330
29E
100
AcDbEntity
  8
001
370
    30
100
AcDbLine
 10
328.22234
 20
125.226129
 30
0.0
 11
331.192807
 21
123.511129
 31
0.0
  0
LINE
  5
2A6
330
29E
100
AcDbEntity
  8
001
370
    30
100
AcDbLine
 10
328.22234
 20
118.366129
 30
0.0
 11
325.251873
 21
120.081129
 31
0.0
  0
CIRCLE
  5
2A7
330
29E
100
AcDbEntity
  8
001
370
    30
100
AcDbCircle
 10
328.22234
 20
121.796129
 30
0.0
 40
6.5
  0
ENDBLK
  5
2A0
330
29E
100
AcDbEntity
  8
0
100
AcDbBlockEnd
  0
BLOCK
  5
2A9
330
2A8
100
AcDbEntity
  8
0
100
AcDbBlockBegin
  2
JZB-8
 70
     0
 10
0.0
 20
0.0
 30
0.0
  3
JZB-8
  1

  0
LINE
  5
2AB
330
2A8
100
AcDbEntity
  8
001
370
    30
100
AcDbLine
 10
369.358547
 20
142.116129
 30
0.0
 11
366.38808
 21
143.831129
 31
0.0
  0
LINE
  5
2AC
330
2A8
100
AcDbEntity
  8
001
370
    30
100
AcDbLine
 10
369.358547
 20
148.976129
 30
0.0
 11
372.329014
 21
147.261129
 31
0.0
  0
LINE
  5
2AD
330
2A8
100
AcDbEntity
  8
001
370
    30
100
AcDbLine
 10
372.329014
 20
147.261129
 30
0.0
 11
372.329014
 21
143.831129
 31
0.0
  0
LINE
  5
2AE
330
2A8
100
AcDbEntity
  8
001
370
    30
100
AcDbLine
 10
366.38808
 20
147.261129
 30
0.0
 11
366.38808
 21
143.831129
 31
0.0
  0
LINE
  5
2AF
330
2A8
100
AcDbEntity
  8
001
370
    30
100
AcDbLine
 10
366.38808
 20
147.261129
 30
0.0
 11
369.358547
 21
148.976129
 31
0.0
  0
LINE
  5
2B0
330
2A8
100
AcDbEntity
  8
001
370
    30
100
AcDbLine
 10
372.329014
 20
143.831129
 30
0.0
 11
369.358547
 21
142.116129
 31
0.0
  0
CIRCLE
  5
2B1
330
2A8
100
AcDbEntity
  8
001
370
    30
100
AcDbCircle
 10
369.358547
 20
145.546129
 30
0.0
 40
6.5
  0
ENDBLK
  5
2AA
330
2A8
100
AcDbEntity
  8
0
100
AcDbBlockEnd
  0
BLOCK
  5
2B3
330
2B2
100
AcDbEntity
  8
0
100
AcDbBlockBegin
  2
JZB-9
 70
     0
 10
0.0
 20
0.0
 30
0.0
  3
JZB-9
  1

  0
LINE
  5
2B5
330
2B2
100
AcDbEntity
  8
001
370
    30
100
AcDbLine
 10
372.329014
 20
191.331129
 30
0.0
 11
369.358547
 21
189.616129
 31
0.0
  0
LINE
  5
2B6
330
2B2
100
AcDbEntity
  8
001
370
    30
100
AcDbLine
 10
366.38808
 20
194.761129
 30
0.0
 11
369.358547
 21
196.476129
 31
0.0
  0
LINE
  5
2B7
330
2B2
100
AcDbEntity
  8
001
370
    30
100
AcDbLine
 10
369.358547
 20
196.476129
 30
0.0
 11
372.329014
 21
194.761129
 31
0.0
  0
LINE
  5
2B8
330
2B2
100
AcDbEntity
  8
001
370
    30
100
AcDbLine
 10
366.38808
 20
191.331129
 30
0.0
 11
369.358547
 21
189.616129
 31
0.0
  0
LINE
  5
2B9
330
2B2
100
AcDbEntity
  8
001
370
    30
100
AcDbLine
 10
366.38808
 20
191.331129
 30
0.0
 11
366.38808
 21
194.761129
 31
0.0
  0
LINE
  5
2BA
330
2B2
100
AcDbEntity
  8
001
370
    30
100
AcDbLine
 10
372.329014
 20
194.761129
 30
0.0
 11
372.329014
 21
191.331129
 31
0.0
  0
CIRCLE
  5
2BB
330
2B2
100
AcDbEntity
  8
001
370
    30
100
AcDbCircle
 10
369.358547
 20
193.046129
 30
0.0
 40
6.5
  0
ENDBLK
  5
2B4
330
2B2
100
AcDbEntity
  8
0
100
AcDbBlockEnd
  0
BLOCK
  5
2BD
330
2BC
100
AcDbEntity
  8
0
100
AcDbBlockBegin
  2
DIM-10
 70
     0
 10
0.0
 20
0.0
 30
0.0
  3
DIM-10
  1

  0
TEXT
  5
2BF
330
2BC
100
AcDbEntity
  8
001
 62
     3
370
     9
100
AcDbText
 10
179.36
 20
14.42376
 30
0.0
 40
1.6
  1
１
 41
0.666667
100
AcDbText
  0
POLYLINE
  5
2C0
330
2BC
100
AcDbEntity
  8
001
 62
     3
370
     9
100
AcDb2dPolyline
 66
     1
 10
0.0
 20
0.0
 30
0.0
  0
VERTEX
  5
2C2
330
2C0
100
AcDbEntity
  8
001
 62
     3
370
     9
100
AcDbVertex
100
AcDb2dVertex
 10
178.4
 20
14.3
 30
0.0
  0
VERTEX
  5
2C3
330
2C0
100
AcDbEntity
  8
001
 62
     3
370
     9
100
AcDbVertex
100
AcDb2dVertex
 10
181.6
 20
14.3
 30
0.0
  0
VERTEX
  5
2C4
330
2C0
100
AcDbEntity
  8
001
 62
     3
370
     9
100
AcDbVertex
100
AcDb2dVertex
 10
180.0
 20
17.071281
 30
0.0
  0
VERTEX
  5
2C5
330
2C0
100
AcDbEntity
  8
001
 62
     3
370
     9
100
AcDbVertex
100
AcDb2dVertex
 10
178.4
 20
14.3
 30
0.0
  0
SEQEND
  5
2C1
330
2C0
100
AcDbEntity
  8
001
370
     9
  0
ENDBLK
  5
2BE
330
2BC
100
AcDbEntity
  8
0
100
AcDbBlockEnd
  0
BLOCK
  5
2C7
330
2C6
100
AcDbEntity
  8
0
100
AcDbBlockBegin
  2
DIM-11
 70
     0
 10
0.0
 20
0.0
 30
0.0
  3
DIM-11
  1

  0
TEXT
  5
2C9
330
2C6
100
AcDbEntity
  8
001
 62
     3
370
     9
100
AcDbText
 10
179.36
 20
18.22376
 30
0.0
 40
1.6
  1
２
 41
0.666667
100
AcDbText
  0
POLYLINE
  5
2CA
330
2C6
100
AcDbEntity
  8
001
 62
     3
370
     9
100
AcDb2dPolyline
 66
     1
 10
0.0
 20
0.0
 30
0.0
  0
VERTEX
  5
2CC
330
2CA
100
AcDbEntity
  8
001
 62
     3
370
     9
100
AcDbVertex
100
AcDb2dVertex
 10
178.4
 20
18.1
 30
0.0
  0
VERTEX
  5
2CD
330
2CA
100
AcDbEntity
  8
001
 62
     3
370
     9
100
AcDbVertex
100
AcDb2dVertex
 10
181.6
 20
18.1
 30
0.0
  0
VERTEX
  5
2CE
330
2CA
100
AcDbEntity
  8
001
 62
     3
370
     9
100
AcDbVertex
100
AcDb2dVertex
 10
180.0
 20
20.871281
 30
0.0
  0
VERTEX
  5
2CF
330
2CA
100
AcDbEntity
  8
001
 62
     3
370
     9
100
AcDbVertex
100
AcDb2dVertex
 10
178.4
 20
18.1
 30
0.0
  0
SEQEND
  5
2CB
330
2CA
100
AcDbEntity
  8
001
370
     9
  0
ENDBLK
  5
2C8
330
2C6
100
AcDbEntity
  8
0
100
AcDbBlockEnd
  0
BLOCK
  5
2D1
330
2D0
100
AcDbEntity
  8
0
100
AcDbBlockBegin
  2
DIM-12
 70
     0
 10
0.0
 20
0.0
 30
0.0
  3
DIM-12
  1

  0
TEXT
  5
2D3
330
2D0
100
AcDbEntity
  8
001
 62
     3
370
     9
100
AcDbText
 10
179.36
 20
22.02376
 30
0.0
 40
1.6
  1
３
 41
0.666667
100
AcDbText
  0
POLYLINE
  5
2D4
330
2D0
100
AcDbEntity
  8
001
 62
     3
370
     9
100
AcDb2dPolyline
 66
     1
 10
0.0
 20
0.0
 30
0.0
  0
VERTEX
  5
2D6
330
2D4
100
AcDbEntity
  8
001
 62
     3
370
     9
100
AcDbVertex
100
AcDb2dVertex
 10
178.4
 20
21.9
 30
0.0
  0
VERTEX
  5
2D7
330
2D4
100
AcDbEntity
  8
001
 62
     3
370
     9
100
AcDbVertex
100
AcDb2dVertex
 10
181.6
 20
21.9
 30
0.0
  0
VERTEX
  5
2D8
330
2D4
100
AcDbEntity
  8
001
 62
     3
370
     9
100
AcDbVertex
100
AcDb2dVertex
 10
180.0
 20
24.671281
 30
0.0
  0
VERTEX
  5
2D9
330
2D4
100
AcDbEntity
  8
001
 62
     3
370
     9
100
AcDbVertex
100
AcDb2dVertex
 10
178.4
 20
21.9
 30
0.0
  0
SEQEND
  5
2D5
330
2D4
100
AcDbEntity
  8
001
370
     9
  0
ENDBLK
  5
2D2
330
2D0
100
AcDbEntity
  8
0
100
AcDbBlockEnd
  0
BLOCK
  5
2DB
330
2DA
100
AcDbEntity
  8
0
100
AcDbBlockBegin
  2
DIM-13
 70
     0
 10
0.0
 20
0.0
 30
0.0
  3
DIM-13
  1

  0
TEXT
  5
2DD
330
2DA
100
AcDbEntity
  8
001
 62
     3
370
     9
100
AcDbText
 10
179.36
 20
25.82376
 30
0.0
 40
1.6
  1
４
 41
0.666667
100
AcDbText
  0
POLYLINE
  5
2DE
330
2DA
100
AcDbEntity
  8
001
 62
     3
370
     9
100
AcDb2dPolyline
 66
     1
 10
0.0
 20
0.0
 30
0.0
  0
VERTEX
  5
2E0
330
2DE
100
AcDbEntity
  8
001
 62
     3
370
     9
100
AcDbVertex
100
AcDb2dVertex
 10
178.4
 20
25.7
 30
0.0
  0
VERTEX
  5
2E1
330
2DE
100
AcDbEntity
  8
001
 62
     3
370
     9
100
AcDbVertex
100
AcDb2dVertex
 10
181.6
 20
25.7
 30
0.0
  0
VERTEX
  5
2E2
330
2DE
100
AcDbEntity
  8
001
 62
     3
370
     9
100
AcDbVertex
100
AcDb2dVertex
 10
180.0
 20
28.471281
 30
0.0
  0
VERTEX
  5
2E3
330
2DE
100
AcDbEntity
  8
001
 62
     3
370
     9
100
AcDbVertex
100
AcDb2dVertex
 10
178.4
 20
25.7
 30
0.0
  0
SEQEND
  5
2DF
330
2DE
100
AcDbEntity
  8
001
370
     9
  0
ENDBLK
  5
2DC
330
2DA
100
AcDbEntity
  8
0
100
AcDbBlockEnd
  0
BLOCK
  5
2E5
330
2E4
100
AcDbEntity
  8
0
100
AcDbBlockBegin
  2
DIM-14
 70
     0
 10
0.0
 20
0.0
 30
0.0
  3
DIM-14
  1

  0
TEXT
  5
2E7
330
2E4
100
AcDbEntity
  8
001
 62
     3
370
     9
100
AcDbText
 10
179.36
 20
29.62376
 30
0.0
 40
1.6
  1
５
 41
0.666667
100
AcDbText
  0
POLYLINE
  5
2E8
330
2E4
100
AcDbEntity
  8
001
 62
     3
370
     9
100
AcDb2dPolyline
 66
     1
 10
0.0
 20
0.0
 30
0.0
  0
VERTEX
  5
2EA
330
2E8
100
AcDbEntity
  8
001
 62
     3
370
     9
100
AcDbVertex
100
AcDb2dVertex
 10
178.4
 20
29.5
 30
0.0
  0
VERTEX
  5
2EB
330
2E8
100
AcDbEntity
  8
001
 62
     3
370
     9
100
AcDbVertex
100
AcDb2dVertex
 10
181.6
 20
29.5
 30
0.0
  0
VERTEX
  5
2EC
330
2E8
100
AcDbEntity
  8
001
 62
     3
370
     9
100
AcDbVertex
100
AcDb2dVertex
 10
180.0
 20
32.271281
 30
0.0
  0
VERTEX
  5
2ED
330
2E8
100
AcDbEntity
  8
001
 62
     3
370
     9
100
AcDbVertex
100
AcDb2dVertex
 10
178.4
 20
29.5
 30
0.0
  0
SEQEND
  5
2E9
330
2E8
100
AcDbEntity
  8
001
370
     9
  0
ENDBLK
  5
2E6
330
2E4
100
AcDbEntity
  8
0
100
AcDbBlockEnd
  0
BLOCK
  5
2EF
330
2EE
100
AcDbEntity
  8
0
100
AcDbBlockBegin
  2
DIM-15
 70
     0
 10
0.0
 20
0.0
 30
0.0
  3
DIM-15
  1

  0
TEXT
  5
2F1
330
2EE
100
AcDbEntity
  8
001
 62
     3
370
     9
100
AcDbText
 10
179.36
 20
33.42376
 30
0.0
 40
1.6
  1
６
 41
0.666667
100
AcDbText
  0
POLYLINE
  5
2F2
330
2EE
100
AcDbEntity
  8
001
 62
     3
370
     9
100
AcDb2dPolyline
 66
     1
 10
0.0
 20
0.0
 30
0.0
  0
VERTEX
  5
2F4
330
2F2
100
AcDbEntity
  8
001
 62
     3
370
     9
100
AcDbVertex
100
AcDb2dVertex
 10
178.4
 20
33.3
 30
0.0
  0
VERTEX
  5
2F5
330
2F2
100
AcDbEntity
  8
001
 62
     3
370
     9
100
AcDbVertex
100
AcDb2dVertex
 10
181.6
 20
33.3
 30
0.0
  0
VERTEX
  5
2F6
330
2F2
100
AcDbEntity
  8
001
 62
     3
370
     9
100
AcDbVertex
100
AcDb2dVertex
 10
180.0
 20
36.071281
 30
0.0
  0
VERTEX
  5
2F7
330
2F2
100
AcDbEntity
  8
001
 62
     3
370
     9
100
AcDbVertex
100
AcDb2dVertex
 10
178.4
 20
33.3
 30
0.0
  0
SEQEND
  5
2F3
330
2F2
100
AcDbEntity
  8
001
370
     9
  0
ENDBLK
  5
2F0
330
2EE
100
AcDbEntity
  8
0
100
AcDbBlockEnd
  0
BLOCK
  5
2F9
330
2F8
100
AcDbEntity
  8
0
100
AcDbBlockBegin
  2
DIM-16
 70
     0
 10
0.0
 20
0.0
 30
0.0
  3
DIM-16
  1

  0
TEXT
  5
2FB
330
2F8
100
AcDbEntity
  8
001
 62
     3
370
     9
100
AcDbText
 10
179.36
 20
37.22376
 30
0.0
 40
1.6
  1
７
 41
0.666667
100
AcDbText
  0
POLYLINE
  5
2FC
330
2F8
100
AcDbEntity
  8
001
 62
     3
370
     9
100
AcDb2dPolyline
 66
     1
 10
0.0
 20
0.0
 30
0.0
  0
VERTEX
  5
2FE
330
2FC
100
AcDbEntity
  8
001
 62
     3
370
     9
100
AcDbVertex
100
AcDb2dVertex
 10
178.4
 20
37.1
 30
0.0
  0
VERTEX
  5
2FF
330
2FC
100
AcDbEntity
  8
001
 62
     3
370
     9
100
AcDbVertex
100
AcDb2dVertex
 10
181.6
 20
37.1
 30
0.0
  0
VERTEX
  5
300
330
2FC
100
AcDbEntity
  8
001
 62
     3
370
     9
100
AcDbVertex
100
AcDb2dVertex
 10
180.0
 20
39.871281
 30
0.0
  0
VERTEX
  5
301
330
2FC
100
AcDbEntity
  8
001
 62
     3
370
     9
100
AcDbVertex
100
AcDb2dVertex
 10
178.4
 20
37.1
 30
0.0
  0
SEQEND
  5
2FD
330
2FC
100
AcDbEntity
  8
001
370
     9
  0
ENDBLK
  5
2FA
330
2F8
100
AcDbEntity
  8
0
100
AcDbBlockEnd
  0
BLOCK
  5
303
330
302
100
AcDbEntity
  8
0
100
AcDbBlockBegin
  2
DIM-17
 70
     0
 10
0.0
 20
0.0
 30
0.0
  3
DIM-17
  1

  0
TEXT
  5
305
330
302
100
AcDbEntity
  8
001
 62
     3
370
     9
100
AcDbText
 10
179.36
 20
41.02376
 30
0.0
 40
1.6
  1
８
 41
0.666667
100
AcDbText
  0
POLYLINE
  5
306
330
302
100
AcDbEntity
  8
001
 62
     3
370
     9
100
AcDb2dPolyline
 66
     1
 10
0.0
 20
0.0
 30
0.0
  0
VERTEX
  5
308
330
306
100
AcDbEntity
  8
001
 62
     3
370
     9
100
AcDbVertex
100
AcDb2dVertex
 10
178.4
 20
40.9
 30
0.0
  0
VERTEX
  5
309
330
306
100
AcDbEntity
  8
001
 62
     3
370
     9
100
AcDbVertex
100
AcDb2dVertex
 10
181.6
 20
40.9
 30
0.0
  0
VERTEX
  5
30A
330
306
100
AcDbEntity
  8
001
 62
     3
370
     9
100
AcDbVertex
100
AcDb2dVertex
 10
180.0
 20
43.671281
 30
0.0
  0
VERTEX
  5
30B
330
306
100
AcDbEntity
  8
001
 62
     3
370
     9
100
AcDbVertex
100
AcDb2dVertex
 10
178.4
 20
40.9
 30
0.0
  0
SEQEND
  5
307
330
306
100
AcDbEntity
  8
001
370
     9
  0
ENDBLK
  5
304
330
302
100
AcDbEntity
  8
0
100
AcDbBlockEnd
  0
BLOCK
  5
30D
330
30C
100
AcDbEntity
  8
0
100
AcDbBlockBegin
  2
DIM-18
 70
     0
 10
0.0
 20
0.0
 30
0.0
  3
DIM-18
  1

  0
TEXT
  5
30F
330
30C
100
AcDbEntity
  8
001
 62
     3
370
     9
100
AcDbText
 10
179.36
 20
44.82376
 30
0.0
 40
1.6
  1
９
 41
0.666667
100
AcDbText
  0
POLYLINE
  5
310
330
30C
100
AcDbEntity
  8
001
 62
     3
370
     9
100
AcDb2dPolyline
 66
     1
 10
0.0
 20
0.0
 30
0.0
  0
VERTEX
  5
312
330
310
100
AcDbEntity
  8
001
 62
     3
370
     9
100
AcDbVertex
100
AcDb2dVertex
 10
178.4
 20
44.7
 30
0.0
  0
VERTEX
  5
313
330
310
100
AcDbEntity
  8
001
 62
     3
370
     9
100
AcDbVertex
100
AcDb2dVertex
 10
181.6
 20
44.7
 30
0.0
  0
VERTEX
  5
314
330
310
100
AcDbEntity
  8
001
 62
     3
370
     9
100
AcDbVertex
100
AcDb2dVertex
 10
180.0
 20
47.471281
 30
0.0
  0
VERTEX
  5
315
330
310
100
AcDbEntity
  8
001
 62
     3
370
     9
100
AcDbVertex
100
AcDb2dVertex
 10
178.4
 20
44.7
 30
0.0
  0
SEQEND
  5
311
330
310
100
AcDbEntity
  8
001
370
     9
  0
ENDBLK
  5
30E
330
30C
100
AcDbEntity
  8
0
100
AcDbBlockEnd
  0
BLOCK
  5
317
330
316
100
AcDbEntity
  8
0
100
AcDbBlockBegin
  2
*D19
 70
     1
 10
0.0
 20
0.0
 30
0.0
  3
*D19
  1

  0
LINE
  5
319
330
316
100
AcDbEntity
  8
001
 62
     3
370
     9
100
AcDbLine
 10
111.962439
 20
148.296129
 30
0.0
 11
68.238554
 21
148.296129
 31
0.0
  0
LINE
  5
31A
330
316
100
AcDbEntity
  8
001
 62
     3
370
     9
100
AcDbLine
 10
111.962439
 20
190.296129
 30
0.0
 11
68.238554
 21
190.296129
 31
0.0
  0
LINE
  5
31B
330
316
100
AcDbEntity
  8
001
 62
     3
370
     9
100
AcDbLine
 10
69.438554
 20
148.296129
 30
0.0
 11
69.438554
 21
190.296129
 31
0.0
  0
POLYLINE
  5
31C
330
316
100
AcDbEntity
  8
001
 62
     3
370
     9
100
AcDb2dPolyline
 66
     1
 10
0.0
 20
0.0
 30
0.0
  0
VERTEX
  5
31E
330
31C
100
AcDbEntity
  8
001
 62
     3
370
     9
100
AcDbVertex
100
AcDb2dVertex
 10
69.974453
 20
150.296129
 30
0.0
  0
VERTEX
  5
31F
330
31C
100
AcDbEntity
  8
001
 62
     3
370
     9
100
AcDbVertex
100
AcDb2dVertex
 10
69.438554
 20
148.296129
 30
0.0
  0
VERTEX
  5
320
330
31C
100
AcDbEntity
  8
001
 62
     3
370
     9
100
AcDbVertex
100
AcDb2dVertex
 10
68.902656
 20
150.296129
 30
0.0
  0
SEQEND
  5
31D
330
31C
100
AcDbEntity
  8
001
370
     9
  0
POLYLINE
  5
321
330
316
100
AcDbEntity
  8
001
 62
     3
370
     9
100
AcDb2dPolyline
 66
     1
 10
0.0
 20
0.0
 30
0.0
  0
VERTEX
  5
323
330
321
100
AcDbEntity
  8
001
 62
     3
370
     9
100
AcDbVertex
100
AcDb2dVertex
 10
68.902656
 20
188.296129
 30
0.0
  0
VERTEX
  5
324
330
321
100
AcDbEntity
  8
001
 62
     3
370
     9
100
AcDbVertex
100
AcDb2dVertex
 10
69.438554
 20
190.296129
 30
0.0
  0
VERTEX
  5
325
330
321
100
AcDbEntity
  8
001
 62
     3
370
     9
100
AcDbVertex
100
AcDb2dVertex
 10
69.974453
 20
188.296129
 30
0.0
  0
SEQEND
  5
322
330
321
100
AcDbEntity
  8
001
370
     9
  0
TEXT
  5
326
330
316
100
AcDbEntity
  8
001
 62
     3
370
     9
100
AcDbText
 10
68.438554
 20
165.096129
 30
0.0
 40
3.5
  1
%%c４２
 50
90.000003
 41
0.705882
100
AcDbText
  0
POINT
  5
327
330
316
100
AcDbEntity
  8
001
 62
     3
370
     9
100
AcDbPoint
 10
111.962439
 20
148.296129
 30
0.0
  0
POINT
  5
328
330
316
100
AcDbEntity
  8
001
 62
     3
370
     9
100
AcDbPoint
 10
111.962439
 20
190.296129
 30
0.0
  0
POINT
  5
329
330
316
100
AcDbEntity
  8
001
 62
     3
370
     9
100
AcDbPoint
 10
69.438554
 20
190.296129
 30
0.0
  0
ENDBLK
  5
318
330
316
100
AcDbEntity
  8
0
100
AcDbBlockEnd
  0
BLOCK
  5
32B
330
32A
100
AcDbEntity
  8
0
100
AcDbBlockBegin
  2
*D20
 70
     1
 10
0.0
 20
0.0
 30
0.0
  3
*D20
  1

  0
LINE
  5
32D
330
32A
100
AcDbEntity
  8
001
 62
     3
370
     9
100
AcDbLine
 10
122.462439
 20
129.296129
 30
0.0
 11
58.238554
 21
129.296129
 31
0.0
  0
LINE
  5
32E
330
32A
100
AcDbEntity
  8
001
 62
     3
370
     9
100
AcDbLine
 10
122.462439
 20
209.296129
 30
0.0
 11
58.238554
 21
209.296129
 31
0.0
  0
LINE
  5
32F
330
32A
100
AcDbEntity
  8
001
 62
     3
370
     9
100
AcDbLine
 10
59.438554
 20
129.296129
 30
0.0
 11
59.438554
 21
209.296129
 31
0.0
  0
POLYLINE
  5
330
330
32A
100
AcDbEntity
  8
001
 62
     3
370
     9
100
AcDb2dPolyline
 66
     1
 10
0.0
 20
0.0
 30
0.0
  0
VERTEX
  5
332
330
330
100
AcDbEntity
  8
001
 62
     3
370
     9
100
AcDbVertex
100
AcDb2dVertex
 10
59.974453
 20
131.296129
 30
0.0
  0
VERTEX
  5
333
330
330
100
AcDbEntity
  8
001
 62
     3
370
     9
100
AcDbVertex
100
AcDb2dVertex
 10
59.438554
 20
129.296129
 30
0.0
  0
VERTEX
  5
334
330
330
100
AcDbEntity
  8
001
 62
     3
370
     9
100
AcDbVertex
100
AcDb2dVertex
 10
58.902656
 20
131.296129
 30
0.0
  0
SEQEND
  5
331
330
330
100
AcDbEntity
  8
001
370
     9
  0
POLYLINE
  5
335
330
32A
100
AcDbEntity
  8
001
 62
     3
370
     9
100
AcDb2dPolyline
 66
     1
 10
0.0
 20
0.0
 30
0.0
  0
VERTEX
  5
337
330
335
100
AcDbEntity
  8
001
 62
     3
370
     9
100
AcDbVertex
100
AcDb2dVertex
 10
58.902656
 20
207.296129
 30
0.0
  0
VERTEX
  5
338
330
335
100
AcDbEntity
  8
001
 62
     3
370
     9
100
AcDbVertex
100
AcDb2dVertex
 10
59.438554
 20
209.296129
 30
0.0
  0
VERTEX
  5
339
330
335
100
AcDbEntity
  8
001
 62
     3
370
     9
100
AcDbVertex
100
AcDb2dVertex
 10
59.974453
 20
207.296129
 30
0.0
  0
SEQEND
  5
336
330
335
100
AcDbEntity
  8
001
370
     9
  0
TEXT
  5
33A
330
32A
100
AcDbEntity
  8
001
 62
     3
370
     9
100
AcDbText
 10
58.438554
 20
162.296129
 30
0.0
 40
3.5
  1
%%c８０ｆ６
 50
90.000003
 41
0.689655
100
AcDbText
  0
POINT
  5
33B
330
32A
100
AcDbEntity
  8
001
 62
     3
370
     9
100
AcDbPoint
 10
122.462439
 20
129.296129
 30
0.0
  0
POINT
  5
33C
330
32A
100
AcDbEntity
  8
001
 62
     3
370
     9
100
AcDbPoint
 10
122.462439
 20
209.296129
 30
0.0
  0
POINT
  5
33D
330
32A
100
AcDbEntity
  8
001
 62
     3
370
     9
100
AcDbPoint
 10
59.438554
 20
209.296129
 30
0.0
  0
ENDBLK
  5
32C
330
32A
100
AcDbEntity
  8
0
100
AcDbBlockEnd
  0
BLOCK
  5
33F
330
33E
100
AcDbEntity
  8
0
100
AcDbBlockBegin
  2
*D21
 70
     1
 10
0.0
 20
0.0
 30
0.0
  3
*D21
  1

  0
LINE
  5
341
330
33E
100
AcDbEntity
  8
001
 62
     3
370
     9
100
AcDbLine
 10
127.962439
 20
226.796129
 30
0.0
 11
48.238554
 21
226.796129
 31
0.0
  0
LINE
  5
342
330
33E
100
AcDbEntity
  8
001
 62
     3
370
     9
100
AcDbLine
 10
127.962439
 20
111.796129
 30
0.0
 11
48.238554
 21
111.796129
 31
0.0
  0
LINE
  5
343
330
33E
100
AcDbEntity
  8
001
 62
     3
370
     9
100
AcDbLine
 10
49.438554
 20
226.796129
 30
0.0
 11
49.438554
 21
111.796129
 31
0.0
  0
POLYLINE
  5
344
330
33E
100
AcDbEntity
  8
001
 62
     3
370
     9
100
AcDb2dPolyline
 66
     1
 10
0.0
 20
0.0
 30
0.0
  0
VERTEX
  5
346
330
344
100
AcDbEntity
  8
001
 62
     3
370
     9
100
AcDbVertex
100
AcDb2dVertex
 10
48.902656
 20
224.796129
 30
0.0
  0
VERTEX
  5
347
330
344
100
AcDbEntity
  8
001
 62
     3
370
     9
100
AcDbVertex
100
AcDb2dVertex
 10
49.438554
 20
226.796129
 30
0.0
  0
VERTEX
  5
348
330
344
100
AcDbEntity
  8
001
 62
     3
370
     9
100
AcDbVertex
100
AcDb2dVertex
 10
49.974453
 20
224.796129
 30
0.0
  0
SEQEND
  5
345
330
344
100
AcDbEntity
  8
001
370
     9
  0
POLYLINE
  5
349
330
33E
100
AcDbEntity
  8
001
 62
     3
370
     9
100
AcDb2dPolyline
 66
     1
 10
0.0
 20
0.0
 30
0.0
  0
VERTEX
  5
34B
330
349
100
AcDbEntity
  8
001
 62
     3
370
     9
100
AcDbVertex
100
AcDb2dVertex
 10
49.974453
 20
113.796129
 30
0.0
  0
VERTEX
  5
34C
330
349
100
AcDbEntity
  8
001
 62
     3
370
     9
100
AcDbVertex
100
AcDb2dVertex
 10
49.438554
 20
111.796129
 30
0.0
  0
VERTEX
  5
34D
330
349
100
AcDbEntity
  8
001
 62
     3
370
     9
100
AcDbVertex
100
AcDb2dVertex
 10
48.902656
 20
113.796129
 30
0.0
  0
SEQEND
  5
34A
330
349
100
AcDbEntity
  8
001
370
     9
  0
TEXT
  5
34E
330
33E
100
AcDbEntity
  8
001
 62
     3
370
     9
100
AcDbText
 10
48.438554
 20
163.696129
 30
0.0
 40
3.5
  1
%%c１１５
 50
90.000003
 41
0.695652
100
AcDbText
  0
POINT
  5
34F
330
33E
100
AcDbEntity
  8
001
 62
     3
370
     9
100
AcDbPoint
 10
127.962439
 20
226.796129
 30
0.0
  0
POINT
  5
350
330
33E
100
AcDbEntity
  8
001
 62
     3
370
     9
100
AcDbPoint
 10
127.962439
 20
111.796129
 30
0.0
  0
POINT
  5
351
330
33E
100
AcDbEntity
  8
001
 62
     3
370
     9
100
AcDbPoint
 10
49.438554
 20
111.796129
 30
0.0
  0
ENDBLK
  5
340
330
33E
100
AcDbEntity
  8
0
100
AcDbBlockEnd
  0
BLOCK
  5
353
330
352
100
AcDbEntity
  8
0
100
AcDbBlockBegin
  2
DIM-19
 70
     0
 10
0.0
 20
0.0
 30
0.0
  3
DIM-19
  1

  0
TEXT
  5
355
330
352
100
AcDbEntity
  8
001
 62
     4
370
    30
100
AcDbText
 10
70.588902
 20
197.219417
 30
0.0
 40
3.5
  1
Ｍ３４×Ｐ１．５
 41
0.833333
100
AcDbText
  0
POLYLINE
  5
356
330
352
100
AcDbEntity
  8
001
 62
     3
370
     9
100
AcDb2dPolyline
 66
     1
 10
0.0
 20
0.0
 30
0.0
  0
VERTEX
  5
358
330
356
100
AcDbEntity
  8
001
 62
     3
370
     9
100
AcDbVertex
100
AcDb2dVertex
 10
114.092472
 20
184.98348
 30
0.0
  0
VERTEX
  5
359
330
356
100
AcDbEntity
  8
001
 62
     3
370
     9
100
AcDbVertex
100
AcDb2dVertex
 10
115.907918
 20
185.979141
 30
0.0
  0
VERTEX
  5
35A
330
356
100
AcDbEntity
  8
001
 62
     3
370
     9
100
AcDbVertex
100
AcDb2dVertex
 10
114.833526
 20
184.20915
 30
0.0
  0
SEQEND
  5
357
330
356
100
AcDbEntity
  8
001
370
     9
  0
POLYLINE
  5
35B
330
352
100
AcDbEntity
  8
001
 62
     3
370
     9
100
AcDb2dPolyline
 66
     1
 10
0.0
 20
0.0
 30
0.0
  0
VERTEX
  5
35D
330
35B
100
AcDbEntity
  8
001
 62
     3
370
     9
100
AcDbVertex
100
AcDb2dVertex
 10
115.907918
 20
185.979141
 30
0.0
  0
VERTEX
  5
35E
330
35B
100
AcDbEntity
  8
001
 62
     3
370
     9
100
AcDbVertex
100
AcDb2dVertex
 10
108.366601
 20
178.761899
 30
0.0
  0
VERTEX
  5
35F
330
35B
100
AcDbEntity
  8
001
 62
     3
370
     9
100
AcDbVertex
100
AcDb2dVertex
 10
99.588902
 20
196.219417
 30
0.0
  0
VERTEX
  5
360
330
35B
100
AcDbEntity
  8
001
 62
     3
370
     9
100
AcDbVertex
100
AcDb2dVertex
 10
69.588902
 20
196.219417
 30
0.0
  0
SEQEND
  5
35C
330
35B
100
AcDbEntity
  8
001
370
     9
  0
ENDBLK
  5
354
330
352
100
AcDbEntity
  8
0
100
AcDbBlockEnd
  0
BLOCK
  5
362
330
361
100
AcDbEntity
  8
0
100
AcDbBlockBegin
  2
*D23
 70
     1
 10
0.0
 20
0.0
 30
0.0
  3
*D23
  1

  0
LINE
  5
364
330
361
100
AcDbEntity
  8
001
 62
     3
370
     9
100
AcDbLine
 10
110.962439
 20
174.922757
 30
0.0
 11
124.962439
 21
174.922757
 31
0.0
  0
POLYLINE
  5
365
330
361
100
AcDbEntity
  8
001
 62
     3
370
     9
100
AcDb2dPolyline
 66
     1
 10
0.0
 20
0.0
 30
0.0
  0
VERTEX
  5
367
330
365
100
AcDbEntity
  8
001
 62
     3
370
     9
100
AcDbVertex
100
AcDb2dVertex
 10
112.962439
 20
174.386859
 30
0.0
  0
VERTEX
  5
368
330
365
100
AcDbEntity
  8
001
 62
     3
370
     9
100
AcDbVertex
100
AcDb2dVertex
 10
110.962439
 20
174.922757
 30
0.0
  0
VERTEX
  5
369
330
365
100
AcDbEntity
  8
001
 62
     3
370
     9
100
AcDbVertex
100
AcDb2dVertex
 10
112.962439
 20
175.458656
 30
0.0
  0
SEQEND
  5
366
330
365
100
AcDbEntity
  8
001
370
     9
  0
POLYLINE
  5
36A
330
361
100
AcDbEntity
  8
001
 62
     3
370
     9
100
AcDb2dPolyline
 66
     1
 10
0.0
 20
0.0
 30
0.0
  0
VERTEX
  5
36C
330
36A
100
AcDbEntity
  8
001
 62
     3
370
     9
100
AcDbVertex
100
AcDb2dVertex
 10
122.962439
 20
175.458656
 30
0.0
  0
VERTEX
  5
36D
330
36A
100
AcDbEntity
  8
001
 62
     3
370
     9
100
AcDbVertex
100
AcDb2dVertex
 10
124.962439
 20
174.922757
 30
0.0
  0
VERTEX
  5
36E
330
36A
100
AcDbEntity
  8
001
 62
     3
370
     9
100
AcDbVertex
100
AcDb2dVertex
 10
122.962439
 20
174.386859
 30
0.0
  0
SEQEND
  5
36B
330
36A
100
AcDbEntity
  8
001
370
     9
  0
TEXT
  5
36F
330
361
100
AcDbEntity
  8
001
 62
     3
370
     9
100
AcDbText
 10
114.397594
 20
175.922757
 30
0.0
 40
3.5
  1
１４
 41
0.666667
100
AcDbText
  0
POINT
  5
370
330
361
100
AcDbEntity
  8
001
 62
     3
370
     9
100
AcDbPoint
 10
110.962439
 20
198.296129
 30
0.0
  0
POINT
  5
371
330
361
100
AcDbEntity
  8
001
 62
     3
370
     9
100
AcDbPoint
 10
124.962439
 20
193.746129
 30
0.0
  0
POINT
  5
372
330
361
100
AcDbEntity
  8
001
 62
     3
370
     9
100
AcDbPoint
 10
124.962439
 20
174.922757
 30
0.0
  0
ENDBLK
  5
363
330
361
100
AcDbEntity
  8
0
100
AcDbBlockEnd
  0
BLOCK
  5
374
330
373
100
AcDbEntity
  8
0
100
AcDbBlockBegin
  2
DIM-20
 70
     0
 10
0.0
 20
0.0
 30
0.0
  3
DIM-20
  1

  0
TEXT
  5
376
330
373
100
AcDbEntity
  8
001
 62
     4
370
    30
100
AcDbText
 10
84.21911
 20
242.508109
 30
0.0
 40
4.0
  1
６－Ｍ８
 41
0.833333
100
AcDbText
  0
POLYLINE
  5
377
330
373
100
AcDbEntity
  8
001
 62
     3
370
     9
100
AcDb2dPolyline
 66
     1
 10
0.0
 20
0.0
 30
0.0
  0
VERTEX
  5
379
330
377
100
AcDbEntity
  8
001
 62
     3
370
     9
100
AcDbVertex
100
AcDb2dVertex
 10
118.126444
 20
222.662115
 30
0.0
  0
VERTEX
  5
37A
330
377
100
AcDbEntity
  8
001
 62
     3
370
     9
100
AcDbVertex
100
AcDb2dVertex
 10
119.023819
 20
220.796129
 30
0.0
  0
VERTEX
  5
37B
330
377
100
AcDbEntity
  8
001
 62
     3
370
     9
100
AcDbVertex
100
AcDb2dVertex
 10
117.313676
 20
221.963433
 30
0.0
  0
SEQEND
  5
378
330
377
100
AcDbEntity
  8
001
370
     9
  0
POLYLINE
  5
37C
330
373
100
AcDbEntity
  8
001
 62
     3
370
     9
100
AcDb2dPolyline
 66
     1
 10
0.0
 20
0.0
 30
0.0
  0
VERTEX
  5
37E
330
37C
100
AcDbEntity
  8
001
 62
     3
370
     9
100
AcDbVertex
100
AcDb2dVertex
 10
119.023819
 20
220.796129
 30
0.0
  0
VERTEX
  5
37F
330
37C
100
AcDbEntity
  8
001
 62
     3
370
     9
100
AcDbVertex
100
AcDb2dVertex
 10
101.21911
 20
241.508109
 30
0.0
  0
VERTEX
  5
380
330
37C
100
AcDbEntity
  8
001
 62
     3
370
     9
100
AcDbVertex
100
AcDb2dVertex
 10
83.21911
 20
241.508109
 30
0.0
  0
SEQEND
  5
37D
330
37C
100
AcDbEntity
  8
001
370
     9
  0
ENDBLK
  5
375
330
373
100
AcDbEntity
  8
0
100
AcDbBlockEnd
  0
BLOCK
  5
382
330
381
100
AcDbEntity
  8
0
100
AcDbBlockBegin
  2
*D25
 70
     1
 10
0.0
 20
0.0
 30
0.0
  3
*D25
  1

  0
LINE
  5
384
330
381
100
AcDbEntity
  8
001
 62
     3
370
     9
100
AcDbLine
 10
374.582472
 20
179.639639
 30
0.0
 11
281.862208
 21
158.952618
 31
0.0
  0
POLYLINE
  5
385
330
381
100
AcDbEntity
  8
001
 62
     3
370
     9
100
AcDb2dPolyline
 66
     1
 10
0.0
 20
0.0
 30
0.0
  0
VERTEX
  5
387
330
385
100
AcDbEntity
  8
001
 62
     3
370
     9
100
AcDbVertex
100
AcDb2dVertex
 10
372.51377
 20
179.727161
 30
0.0
  0
VERTEX
  5
388
330
385
100
AcDbEntity
  8
001
 62
     3
370
     9
100
AcDbVertex
100
AcDb2dVertex
 10
374.582472
 20
179.639639
 30
0.0
  0
VERTEX
  5
389
330
385
100
AcDbEntity
  8
001
 62
     3
370
     9
100
AcDbVertex
100
AcDb2dVertex
 10
372.747162
 20
178.681084
 30
0.0
  0
SEQEND
  5
386
330
385
100
AcDbEntity
  8
001
370
     9
  0
POLYLINE
  5
38A
330
381
100
AcDbEntity
  8
001
 62
     3
370
     9
100
AcDb2dPolyline
 66
     1
 10
0.0
 20
0.0
 30
0.0
  0
VERTEX
  5
38C
330
38A
100
AcDbEntity
  8
001
 62
     3
370
     9
100
AcDbVertex
100
AcDb2dVertex
 10
283.93091
 20
158.865096
 30
0.0
  0
VERTEX
  5
38D
330
38A
100
AcDbEntity
  8
001
 62
     3
370
     9
100
AcDbVertex
100
AcDb2dVertex
 10
281.862208
 20
158.952618
 30
0.0
  0
VERTEX
  5
38E
330
38A
100
AcDbEntity
  8
001
 62
     3
370
     9
100
AcDbVertex
100
AcDb2dVertex
 10
283.697518
 20
159.911173
 30
0.0
  0
SEQEND
  5
38B
330
38A
100
AcDbEntity
  8
001
370
     9
  0
TEXT
  5
38F
330
381
100
AcDbEntity
  8
001
 62
     3
370
     9
100
AcDbText
 10
356.466424
 20
176.622315
 30
0.0
 40
3.5
  1
%%c９５
 50
12.57739
 41
0.705882
100
AcDbText
  0
POINT
  5
390
330
381
100
AcDbEntity
  8
001
 62
     3
370
     9
100
AcDbPoint
 10
374.582472
 20
179.639639
 30
0.0
  0
POINT
  5
391
330
381
100
AcDbEntity
  8
001
 62
     3
370
     9
100
AcDbPoint
 10
281.862208
 20
158.952618
 30
0.0
  0
ENDBLK
  5
383
330
381
100
AcDbEntity
  8
0
100
AcDbBlockEnd
  0
BLOCK
  5
393
330
392
100
AcDbEntity
  8
0
100
AcDbBlockBegin
  2
*D26
 70
     1
 10
0.0
 20
0.0
 30
0.0
  3
*D26
  1

  0
LINE
  5
395
330
392
100
AcDbEntity
  8
001
 62
     3
370
     9
100
AcDbLine
 10
128.962439
 20
156.046129
 30
0.0
 11
78.238554
 21
156.046129
 31
0.0
  0
LINE
  5
396
330
392
100
AcDbEntity
  8
001
 62
     3
370
     9
100
AcDbLine
 10
128.962439
 20
182.546129
 30
0.0
 11
78.238554
 21
182.546129
 31
0.0
  0
LINE
  5
397
330
392
100
AcDbEntity
  8
001
 62
     3
370
     9
100
AcDbLine
 10
79.438554
 20
156.046129
 30
0.0
 11
79.438554
 21
182.546129
 31
0.0
  0
POLYLINE
  5
398
330
392
100
AcDbEntity
  8
001
 62
     3
370
     9
100
AcDb2dPolyline
 66
     1
 10
0.0
 20
0.0
 30
0.0
  0
VERTEX
  5
39A
330
398
100
AcDbEntity
  8
001
 62
     3
370
     9
100
AcDbVertex
100
AcDb2dVertex
 10
79.974453
 20
158.046129
 30
0.0
  0
VERTEX
  5
39B
330
398
100
AcDbEntity
  8
001
 62
     3
370
     9
100
AcDbVertex
100
AcDb2dVertex
 10
79.438554
 20
156.046129
 30
0.0
  0
VERTEX
  5
39C
330
398
100
AcDbEntity
  8
001
 62
     3
370
     9
100
AcDbVertex
100
AcDb2dVertex
 10
78.902656
 20
158.046129
 30
0.0
  0
SEQEND
  5
399
330
398
100
AcDbEntity
  8
001
370
     9
  0
POLYLINE
  5
39D
330
392
100
AcDbEntity
  8
001
 62
     3
370
     9
100
AcDb2dPolyline
 66
     1
 10
0.0
 20
0.0
 30
0.0
  0
VERTEX
  5
39F
330
39D
100
AcDbEntity
  8
001
 62
     3
370
     9
100
AcDbVertex
100
AcDb2dVertex
 10
78.902656
 20
180.546129
 30
0.0
  0
VERTEX
  5
3A0
330
39D
100
AcDbEntity
  8
001
 62
     3
370
     9
100
AcDbVertex
100
AcDb2dVertex
 10
79.438554
 20
182.546129
 30
0.0
  0
VERTEX
  5
3A1
330
39D
100
AcDbEntity
  8
001
 62
     3
370
     9
100
AcDbVertex
100
AcDb2dVertex
 10
79.974453
 20
180.546129
 30
0.0
  0
SEQEND
  5
39E
330
39D
100
AcDbEntity
  8
001
370
     9
  0
TEXT
  5
3A2
330
392
100
AcDbEntity
  8
001
 62
     3
370
     9
100
AcDbText
 10
78.438554
 20
162.296129
 30
0.0
 40
3.5
  1
%%c２６．５
 50
90.000003
 41
0.689655
100
AcDbText
  0
POINT
  5
3A3
330
392
100
AcDbEntity
  8
001
 62
     3
370
     9
100
AcDbPoint
 10
128.962439
 20
156.046129
 30
0.0
  0
POINT
  5
3A4
330
392
100
AcDbEntity
  8
001
 62
     3
370
     9
100
AcDbPoint
 10
128.962439
 20
182.546129
 30
0.0
  0
POINT
  5
3A5
330
392
100
AcDbEntity
  8
001
 62
     3
370
     9
100
AcDbPoint
 10
79.438554
 20
182.546129
 30
0.0
  0
ENDBLK
  5
394
330
392
100
AcDbEntity
  8
0
100
AcDbBlockEnd
  0
BLOCK
  5
3A7
330
3A6
100
AcDbEntity
  8
0
100
AcDbBlockBegin
  2
*D27
 70
     1
 10
0.0
 20
0.0
 30
0.0
  3
*D27
  1

  0
LINE
  5
3A9
330
3A6
100
AcDbEntity
  8
001
 62
     3
370
     9
100
AcDbLine
 10
179.962439
 20
112.796129
 30
0.0
 11
179.962439
 21
85.451401
 31
0.0
  0
LINE
  5
3AA
330
3A6
100
AcDbEntity
  8
001
 62
     3
370
     9
100
AcDbLine
 10
126.962439
 20
112.796129
 30
0.0
 11
126.962439
 21
85.451401
 31
0.0
  0
LINE
  5
3AB
330
3A6
100
AcDbEntity
  8
001
 62
     3
370
     9
100
AcDbLine
 10
179.962439
 20
86.651401
 30
0.0
 11
126.962439
 21
86.651401
 31
0.0
  0
POLYLINE
  5
3AC
330
3A6
100
AcDbEntity
  8
001
 62
     3
370
     9
100
AcDb2dPolyline
 66
     1
 10
0.0
 20
0.0
 30
0.0
  0
VERTEX
  5
3AE
330
3AC
100
AcDbEntity
  8
001
 62
     3
370
     9
100
AcDbVertex
100
AcDb2dVertex
 10
177.962439
 20
87.187299
 30
0.0
  0
VERTEX
  5
3AF
330
3AC
100
AcDbEntity
  8
001
 62
     3
370
     9
100
AcDbVertex
100
AcDb2dVertex
 10
179.962439
 20
86.651401
 30
0.0
  0
VERTEX
  5
3B0
330
3AC
100
AcDbEntity
  8
001
 62
     3
370
     9
100
AcDbVertex
100
AcDb2dVertex
 10
177.962439
 20
86.115503
 30
0.0
  0
SEQEND
  5
3AD
330
3AC
100
AcDbEntity
  8
001
370
     9
  0
POLYLINE
  5
3B1
330
3A6
100
AcDbEntity
  8
001
 62
     3
370
     9
100
AcDb2dPolyline
 66
     1
 10
0.0
 20
0.0
 30
0.0
  0
VERTEX
  5
3B3
330
3B1
100
AcDbEntity
  8
001
 62
     3
370
     9
100
AcDbVertex
100
AcDb2dVertex
 10
128.962439
 20
86.115503
 30
0.0
  0
VERTEX
  5
3B4
330
3B1
100
AcDbEntity
  8
001
 62
     3
370
     9
100
AcDbVertex
100
AcDb2dVertex
 10
126.962439
 20
86.651401
 30
0.0
  0
VERTEX
  5
3B5
330
3B1
100
AcDbEntity
  8
001
 62
     3
370
     9
100
AcDbVertex
100
AcDb2dVertex
 10
128.962439
 20
87.187299
 30
0.0
  0
SEQEND
  5
3B2
330
3B1
100
AcDbEntity
  8
001
370
     9
  0
TEXT
  5
3B6
330
3A6
100
AcDbEntity
  8
001
 62
     3
370
     9
100
AcDbText
 10
150.662439
 20
87.651401
 30
0.0
 40
3.5
  1
５３
 41
0.666667
100
AcDbText
  0
POINT
  5
3B7
330
3A6
100
AcDbEntity
  8
001
 62
     3
370
     9
100
AcDbPoint
 10
179.962439
 20
112.796129
 30
0.0
  0
POINT
  5
3B8
330
3A6
100
AcDbEntity
  8
001
 62
     3
370
     9
100
AcDbPoint
 10
126.962439
 20
112.796129
 30
0.0
  0
POINT
  5
3B9
330
3A6
100
AcDbEntity
  8
001
 62
     3
370
     9
100
AcDbPoint
 10
126.962439
 20
86.651401
 30
0.0
  0
ENDBLK
  5
3A8
330
3A6
100
AcDbEntity
  8
0
100
AcDbBlockEnd
  0
BLOCK
  5
3BB
330
3BA
100
AcDbEntity
  8
0
100
AcDbBlockBegin
  2
*D28
 70
     1
 10
0.0
 20
0.0
 30
0.0
  3
*D28
  1

  0
LINE
  5
3BD
330
3BA
100
AcDbEntity
  8
001
 62
     3
370
     9
100
AcDbLine
 10
126.962439
 20
112.796129
 30
0.0
 11
126.962439
 21
75.451401
 31
0.0
  0
LINE
  5
3BE
330
3BA
100
AcDbEntity
  8
001
 62
     3
370
     9
100
AcDbLine
 10
232.962439
 20
147.796129
 30
0.0
 11
232.962439
 21
75.451401
 31
0.0
  0
LINE
  5
3BF
330
3BA
100
AcDbEntity
  8
001
 62
     3
370
     9
100
AcDbLine
 10
126.962439
 20
76.651401
 30
0.0
 11
232.962439
 21
76.651401
 31
0.0
  0
POLYLINE
  5
3C0
330
3BA
100
AcDbEntity
  8
001
 62
     3
370
     9
100
AcDb2dPolyline
 66
     1
 10
0.0
 20
0.0
 30
0.0
  0
VERTEX
  5
3C2
330
3C0
100
AcDbEntity
  8
001
 62
     3
370
     9
100
AcDbVertex
100
AcDb2dVertex
 10
128.962439
 20
76.115503
 30
0.0
  0
VERTEX
  5
3C3
330
3C0
100
AcDbEntity
  8
001
 62
     3
370
     9
100
AcDbVertex
100
AcDb2dVertex
 10
126.962439
 20
76.651401
 30
0.0
  0
VERTEX
  5
3C4
330
3C0
100
AcDbEntity
  8
001
 62
     3
370
     9
100
AcDbVertex
100
AcDb2dVertex
 10
128.962439
 20
77.187299
 30
0.0
  0
SEQEND
  5
3C1
330
3C0
100
AcDbEntity
  8
001
370
     9
  0
POLYLINE
  5
3C5
330
3BA
100
AcDbEntity
  8
001
 62
     3
370
     9
100
AcDb2dPolyline
 66
     1
 10
0.0
 20
0.0
 30
0.0
  0
VERTEX
  5
3C7
330
3C5
100
AcDbEntity
  8
001
 62
     3
370
     9
100
AcDbVertex
100
AcDb2dVertex
 10
230.962439
 20
77.187299
 30
0.0
  0
VERTEX
  5
3C8
330
3C5
100
AcDbEntity
  8
001
 62
     3
370
     9
100
AcDbVertex
100
AcDb2dVertex
 10
232.962439
 20
76.651401
 30
0.0
  0
VERTEX
  5
3C9
330
3C5
100
AcDbEntity
  8
001
 62
     3
370
     9
100
AcDbVertex
100
AcDb2dVertex
 10
230.962439
 20
76.115503
 30
0.0
  0
SEQEND
  5
3C6
330
3C5
100
AcDbEntity
  8
001
370
     9
  0
TEXT
  5
3CA
330
3BA
100
AcDbEntity
  8
001
 62
     3
370
     9
100
AcDbText
 10
175.762439
 20
77.651401
 30
0.0
 40
3.5
  1
１０６
 41
0.666667
100
AcDbText
  0
POINT
  5
3CB
330
3BA
100
AcDbEntity
  8
001
 62
     3
370
     9
100
AcDbPoint
 10
126.962439
 20
112.796129
 30
0.0
  0
POINT
  5
3CC
330
3BA
100
AcDbEntity
  8
001
 62
     3
370
     9
100
AcDbPoint
 10
232.962439
 20
147.796129
 30
0.0
  0
POINT
  5
3CD
330
3BA
100
AcDbEntity
  8
001
 62
     3
370
     9
100
AcDbPoint
 10
232.962439
 20
76.651401
 30
0.0
  0
ENDBLK
  5
3BC
330
3BA
100
AcDbEntity
  8
0
100
AcDbBlockEnd
  0
BLOCK
  5
3CF
330
3CE
100
AcDbEntity
  8
0
100
AcDbBlockBegin
  2
*D29
 70
     1
 10
0.0
 20
0.0
 30
0.0
  3
*D29
  1

  0
LINE
  5
3D1
330
3CE
100
AcDbEntity
  8
001
 62
     3
370
     9
100
AcDbLine
 10
110.962439
 20
149.296129
 30
0.0
 11
110.962439
 21
75.451401
 31
0.0
  0
LINE
  5
3D2
330
3CE
100
AcDbEntity
  8
001
 62
     3
370
     9
100
AcDbLine
 10
126.962439
 20
112.796129
 30
0.0
 11
126.962439
 21
75.451401
 31
0.0
  0
LINE
  5
3D3
330
3CE
100
AcDbEntity
  8
001
 62
     3
370
     9
100
AcDbLine
 10
110.962439
 20
76.651401
 30
0.0
 11
126.962439
 21
76.651401
 31
0.0
  0
POLYLINE
  5
3D4
330
3CE
100
AcDbEntity
  8
001
 62
     3
370
     9
100
AcDb2dPolyline
 66
     1
 10
0.0
 20
0.0
 30
0.0
  0
VERTEX
  5
3D6
330
3D4
100
AcDbEntity
  8
001
 62
     3
370
     9
100
AcDbVertex
100
AcDb2dVertex
 10
112.962439
 20
76.115503
 30
0.0
  0
VERTEX
  5
3D7
330
3D4
100
AcDbEntity
  8
001
 62
     3
370
     9
100
AcDbVertex
100
AcDb2dVertex
 10
110.962439
 20
76.651401
 30
0.0
  0
VERTEX
  5
3D8
330
3D4
100
AcDbEntity
  8
001
 62
     3
370
     9
100
AcDbVertex
100
AcDb2dVertex
 10
112.962439
 20
77.187299
 30
0.0
  0
SEQEND
  5
3D5
330
3D4
100
AcDbEntity
  8
001
370
     9
  0
POLYLINE
  5
3D9
330
3CE
100
AcDbEntity
  8
001
 62
     3
370
     9
100
AcDb2dPolyline
 66
     1
 10
0.0
 20
0.0
 30
0.0
  0
VERTEX
  5
3DB
330
3D9
100
AcDbEntity
  8
001
 62
     3
370
     9
100
AcDbVertex
100
AcDb2dVertex
 10
124.962439
 20
77.187299
 30
0.0
  0
VERTEX
  5
3DC
330
3D9
100
AcDbEntity
  8
001
 62
     3
370
     9
100
AcDbVertex
100
AcDb2dVertex
 10
126.962439
 20
76.651401
 30
0.0
  0
VERTEX
  5
3DD
330
3D9
100
AcDbEntity
  8
001
 62
     3
370
     9
100
AcDbVertex
100
AcDb2dVertex
 10
124.962439
 20
76.115503
 30
0.0
  0
SEQEND
  5
3DA
330
3D9
100
AcDbEntity
  8
001
370
     9
  0
TEXT
  5
3DE
330
3CE
100
AcDbEntity
  8
001
 62
     3
370
     9
100
AcDbText
 10
116.162439
 20
77.651401
 30
0.0
 40
3.5
  1
１６
 41
0.666667
100
AcDbText
  0
POINT
  5
3DF
330
3CE
100
AcDbEntity
  8
001
 62
     3
370
     9
100
AcDbPoint
 10
110.962439
 20
149.296129
 30
0.0
  0
POINT
  5
3E0
330
3CE
100
AcDbEntity
  8
001
 62
     3
370
     9
100
AcDbPoint
 10
126.962439
 20
112.796129
 30
0.0
  0
POINT
  5
3E1
330
3CE
100
AcDbEntity
  8
001
 62
     3
370
     9
100
AcDbPoint
 10
126.962439
 20
76.651401
 30
0.0
  0
ENDBLK
  5
3D0
330
3CE
100
AcDbEntity
  8
0
100
AcDbBlockEnd
  0
BLOCK
  5
3E3
330
3E2
100
AcDbEntity
  8
0
100
AcDbBlockBegin
  2
*D30
 70
     1
 10
0.0
 20
0.0
 30
0.0
  3
*D30
  1

  0
LINE
  5
3E5
330
3E2
100
AcDbEntity
  8
001
 62
     3
370
     9
100
AcDbLine
 10
229.962439
 20
130.296129
 30
0.0
 11
253.783814
 21
130.296129
 31
0.0
  0
LINE
  5
3E6
330
3E2
100
AcDbEntity
  8
001
 62
     3
370
     9
100
AcDbLine
 10
229.962439
 20
208.296129
 30
0.0
 11
253.783814
 21
208.296129
 31
0.0
  0
LINE
  5
3E7
330
3E2
100
AcDbEntity
  8
001
 62
     3
370
     9
100
AcDbLine
 10
252.583814
 20
130.296129
 30
0.0
 11
252.583814
 21
208.296129
 31
0.0
  0
POLYLINE
  5
3E8
330
3E2
100
AcDbEntity
  8
001
 62
     3
370
     9
100
AcDb2dPolyline
 66
     1
 10
0.0
 20
0.0
 30
0.0
  0
VERTEX
  5
3EA
330
3E8
100
AcDbEntity
  8
001
 62
     3
370
     9
100
AcDbVertex
100
AcDb2dVertex
 10
253.119712
 20
132.296129
 30
0.0
  0
VERTEX
  5
3EB
330
3E8
100
AcDbEntity
  8
001
 62
     3
370
     9
100
AcDbVertex
100
AcDb2dVertex
 10
252.583814
 20
130.296129
 30
0.0
  0
VERTEX
  5
3EC
330
3E8
100
AcDbEntity
  8
001
 62
     3
370
     9
100
AcDbVertex
100
AcDb2dVertex
 10
252.047915
 20
132.296129
 30
0.0
  0
SEQEND
  5
3E9
330
3E8
100
AcDbEntity
  8
001
370
     9
  0
POLYLINE
  5
3ED
330
3E2
100
AcDbEntity
  8
001
 62
     3
370
     9
100
AcDb2dPolyline
 66
     1
 10
0.0
 20
0.0
 30
0.0
  0
VERTEX
  5
3EF
330
3ED
100
AcDbEntity
  8
001
 62
     3
370
     9
100
AcDbVertex
100
AcDb2dVertex
 10
252.047915
 20
206.296129
 30
0.0
  0
VERTEX
  5
3F0
330
3ED
100
AcDbEntity
  8
001
 62
     3
370
     9
100
AcDbVertex
100
AcDb2dVertex
 10
252.583814
 20
208.296129
 30
0.0
  0
VERTEX
  5
3F1
330
3ED
100
AcDbEntity
  8
001
 62
     3
370
     9
100
AcDbVertex
100
AcDb2dVertex
 10
253.119712
 20
206.296129
 30
0.0
  0
SEQEND
  5
3EE
330
3ED
100
AcDbEntity
  8
001
370
     9
  0
TEXT
  5
3F2
330
3E2
100
AcDbEntity
  8
001
 62
     3
370
     9
100
AcDbText
 10
251.583814
 20
165.096129
 30
0.0
 40
3.5
  1
%%c７８
 50
90.000003
 41
0.705882
100
AcDbText
  0
POINT
  5
3F3
330
3E2
100
AcDbEntity
  8
001
 62
     3
370
     9
100
AcDbPoint
 10
229.962439
 20
130.296129
 30
0.0
  0
POINT
  5
3F4
330
3E2
100
AcDbEntity
  8
001
 62
     3
370
     9
100
AcDbPoint
 10
229.962439
 20
208.296129
 30
0.0
  0
POINT
  5
3F5
330
3E2
100
AcDbEntity
  8
001
 62
     3
370
     9
100
AcDbPoint
 10
252.583814
 20
208.296129
 30
0.0
  0
ENDBLK
  5
3E4
330
3E2
100
AcDbEntity
  8
0
100
AcDbBlockEnd
  0
BLOCK
  5
3F7
330
3F6
100
AcDbEntity
  8
0
100
AcDbBlockBegin
  2
*D31
 70
     1
 10
0.0
 20
0.0
 30
0.0
  3
*D31
  1

  0
LINE
  5
3F9
330
3F6
100
AcDbEntity
  8
001
 62
     3
370
     9
100
AcDbLine
 10
144.962439
 20
187.796129
 30
0.0
 11
144.962439
 21
247.20532
 31
0.0
  0
LINE
  5
3FA
330
3F6
100
AcDbEntity
  8
001
 62
     3
370
     9
100
AcDbLine
 10
232.962439
 20
190.796129
 30
0.0
 11
232.962439
 21
247.20532
 31
0.0
  0
LINE
  5
3FB
330
3F6
100
AcDbEntity
  8
001
 62
     3
370
     9
100
AcDbLine
 10
144.962439
 20
246.00532
 30
0.0
 11
232.962439
 21
246.00532
 31
0.0
  0
POLYLINE
  5
3FC
330
3F6
100
AcDbEntity
  8
001
 62
     3
370
     9
100
AcDb2dPolyline
 66
     1
 10
0.0
 20
0.0
 30
0.0
  0
VERTEX
  5
3FE
330
3FC
100
AcDbEntity
  8
001
 62
     3
370
     9
100
AcDbVertex
100
AcDb2dVertex
 10
146.962439
 20
245.469422
 30
0.0
  0
VERTEX
  5
3FF
330
3FC
100
AcDbEntity
  8
001
 62
     3
370
     9
100
AcDbVertex
100
AcDb2dVertex
 10
144.962439
 20
246.00532
 30
0.0
  0
VERTEX
  5
400
330
3FC
100
AcDbEntity
  8
001
 62
     3
370
     9
100
AcDbVertex
100
AcDb2dVertex
 10
146.962439
 20
246.541219
 30
0.0
  0
SEQEND
  5
3FD
330
3FC
100
AcDbEntity
  8
001
370
     9
  0
POLYLINE
  5
401
330
3F6
100
AcDbEntity
  8
001
 62
     3
370
     9
100
AcDb2dPolyline
 66
     1
 10
0.0
 20
0.0
 30
0.0
  0
VERTEX
  5
403
330
401
100
AcDbEntity
  8
001
 62
     3
370
     9
100
AcDbVertex
100
AcDb2dVertex
 10
230.962439
 20
246.541219
 30
0.0
  0
VERTEX
  5
404
330
401
100
AcDbEntity
  8
001
 62
     3
370
     9
100
AcDbVertex
100
AcDb2dVertex
 10
232.962439
 20
246.00532
 30
0.0
  0
VERTEX
  5
405
330
401
100
AcDbEntity
  8
001
 62
     3
370
     9
100
AcDbVertex
100
AcDb2dVertex
 10
230.962439
 20
245.469422
 30
0.0
  0
SEQEND
  5
402
330
401
100
AcDbEntity
  8
001
370
     9
  0
TEXT
  5
406
330
3F6
100
AcDbEntity
  8
001
 62
     3
370
     9
100
AcDbText
 10
186.162439
 20
247.00532
 30
0.0
 40
3.5
  1
８８
 41
0.666667
100
AcDbText
  0
POINT
  5
407
330
3F6
100
AcDbEntity
  8
001
 62
     3
370
     9
100
AcDbPoint
 10
144.962439
 20
187.796129
 30
0.0
  0
POINT
  5
408
330
3F6
100
AcDbEntity
  8
001
 62
     3
370
     9
100
AcDbPoint
 10
232.962439
 20
190.796129
 30
0.0
  0
POINT
  5
409
330
3F6
100
AcDbEntity
  8
001
 62
     3
370
     9
100
AcDbPoint
 10
232.962439
 20
246.00532
 30
0.0
  0
ENDBLK
  5
3F8
330
3F6
100
AcDbEntity
  8
0
100
AcDbBlockEnd
  0
BLOCK
  5
40B
330
40A
100
AcDbEntity
  8
0
100
AcDbBlockBegin
  2
*D32
 70
     1
 10
0.0
 20
0.0
 30
0.0
  3
*D32
  1

  0
LINE
  5
40D
330
40A
100
AcDbEntity
  8
001
 62
     3
370
     9
100
AcDbLine
 10
110.962439
 20
219.546129
 30
0.0
 11
110.962439
 21
247.20532
 31
0.0
  0
LINE
  5
40E
330
40A
100
AcDbEntity
  8
001
 62
     3
370
     9
100
AcDbLine
 10
126.962439
 20
225.796129
 30
0.0
 11
126.962439
 21
247.20532
 31
0.0
  0
LINE
  5
40F
330
40A
100
AcDbEntity
  8
001
 62
     3
370
     9
100
AcDbLine
 10
110.962439
 20
246.00532
 30
0.0
 11
126.962439
 21
246.00532
 31
0.0
  0
POLYLINE
  5
410
330
40A
100
AcDbEntity
  8
001
 62
     3
370
     9
100
AcDb2dPolyline
 66
     1
 10
0.0
 20
0.0
 30
0.0
  0
VERTEX
  5
412
330
410
100
AcDbEntity
  8
001
 62
     3
370
     9
100
AcDbVertex
100
AcDb2dVertex
 10
112.962439
 20
245.469422
 30
0.0
  0
VERTEX
  5
413
330
410
100
AcDbEntity
  8
001
 62
     3
370
     9
100
AcDbVertex
100
AcDb2dVertex
 10
110.962439
 20
246.00532
 30
0.0
  0
VERTEX
  5
414
330
410
100
AcDbEntity
  8
001
 62
     3
370
     9
100
AcDbVertex
100
AcDb2dVertex
 10
112.962439
 20
246.541219
 30
0.0
  0
SEQEND
  5
411
330
410
100
AcDbEntity
  8
001
370
     9
  0
POLYLINE
  5
415
330
40A
100
AcDbEntity
  8
001
 62
     3
370
     9
100
AcDb2dPolyline
 66
     1
 10
0.0
 20
0.0
 30
0.0
  0
VERTEX
  5
417
330
415
100
AcDbEntity
  8
001
 62
     3
370
     9
100
AcDbVertex
100
AcDb2dVertex
 10
124.962439
 20
246.541219
 30
0.0
  0
VERTEX
  5
418
330
415
100
AcDbEntity
  8
001
 62
     3
370
     9
100
AcDbVertex
100
AcDb2dVertex
 10
126.962439
 20
246.00532
 30
0.0
  0
VERTEX
  5
419
330
415
100
AcDbEntity
  8
001
 62
     3
370
     9
100
AcDbVertex
100
AcDb2dVertex
 10
124.962439
 20
245.469422
 30
0.0
  0
SEQEND
  5
416
330
415
100
AcDbEntity
  8
001
370
     9
  0
TEXT
  5
41A
330
40A
100
AcDbEntity
  8
001
 62
     3
370
     9
100
AcDbText
 10
116.162439
 20
247.00532
 30
0.0
 40
3.5
  1
１６
 41
0.666667
100
AcDbText
  0
POINT
  5
41B
330
40A
100
AcDbEntity
  8
001
 62
     3
370
     9
100
AcDbPoint
 10
110.962439
 20
219.546129
 30
0.0
  0
POINT
  5
41C
330
40A
100
AcDbEntity
  8
001
 62
     3
370
     9
100
AcDbPoint
 10
126.962439
 20
225.796129
 30
0.0
  0
POINT
  5
41D
330
40A
100
AcDbEntity
  8
001
 62
     3
370
     9
100
AcDbPoint
 10
126.962439
 20
246.00532
 30
0.0
  0
ENDBLK
  5
40C
330
40A
100
AcDbEntity
  8
0
100
AcDbBlockEnd
  0
BLOCK
  5
41F
330
41E
100
AcDbEntity
  8
0
100
AcDbBlockBegin
  2
*D33
 70
     1
 10
0.0
 20
0.0
 30
0.0
  3
*D33
  1

  0
LINE
  5
421
330
41E
100
AcDbEntity
  8
001
 62
     3
370
     9
100
AcDbLine
 10
121.962439
 20
129.796129
 30
0.0
 11
121.962439
 21
85.451401
 31
0.0
  0
LINE
  5
422
330
41E
100
AcDbEntity
  8
001
 62
     3
370
     9
100
AcDbLine
 10
126.962439
 20
112.796129
 30
0.0
 11
126.962439
 21
85.451401
 31
0.0
  0
LINE
  5
423
330
41E
100
AcDbEntity
  8
001
 62
     3
370
     9
100
AcDbLine
 10
121.962439
 20
86.651401
 30
0.0
 11
126.962439
 21
86.651401
 31
0.0
  0
POLYLINE
  5
424
330
41E
100
AcDbEntity
  8
001
 62
     3
370
     9
100
AcDb2dPolyline
 66
     1
 10
0.0
 20
0.0
 30
0.0
  0
VERTEX
  5
426
330
424
100
AcDbEntity
  8
001
 62
     3
370
     9
100
AcDbVertex
100
AcDb2dVertex
 10
123.962439
 20
86.115503
 30
0.0
  0
VERTEX
  5
427
330
424
100
AcDbEntity
  8
001
 62
     3
370
     9
100
AcDbVertex
100
AcDb2dVertex
 10
121.962439
 20
86.651401
 30
0.0
  0
VERTEX
  5
428
330
424
100
AcDbEntity
  8
001
 62
     3
370
     9
100
AcDbVertex
100
AcDb2dVertex
 10
123.962439
 20
87.187299
 30
0.0
  0
SEQEND
  5
425
330
424
100
AcDbEntity
  8
001
370
     9
  0
POLYLINE
  5
429
330
41E
100
AcDbEntity
  8
001
 62
     3
370
     9
100
AcDb2dPolyline
 66
     1
 10
0.0
 20
0.0
 30
0.0
  0
VERTEX
  5
42B
330
429
100
AcDbEntity
  8
001
 62
     3
370
     9
100
AcDbVertex
100
AcDb2dVertex
 10
124.962439
 20
87.187299
 30
0.0
  0
VERTEX
  5
42C
330
429
100
AcDbEntity
  8
001
 62
     3
370
     9
100
AcDbVertex
100
AcDb2dVertex
 10
126.962439
 20
86.651401
 30
0.0
  0
VERTEX
  5
42D
330
429
100
AcDbEntity
  8
001
 62
     3
370
     9
100
AcDbVertex
100
AcDb2dVertex
 10
124.962439
 20
86.115503
 30
0.0
  0
SEQEND
  5
42A
330
429
100
AcDbEntity
  8
001
370
     9
  0
TEXT
  5
42E
330
41E
100
AcDbEntity
  8
001
 62
     3
370
     9
100
AcDbText
 10
123.062439
 20
87.651401
 30
0.0
 40
3.5
  1
５
 41
0.666667
100
AcDbText
  0
POINT
  5
42F
330
41E
100
AcDbEntity
  8
001
 62
     3
370
     9
100
AcDbPoint
 10
121.962439
 20
129.796129
 30
0.0
  0
POINT
  5
430
330
41E
100
AcDbEntity
  8
001
 62
     3
370
     9
100
AcDbPoint
 10
126.962439
 20
112.796129
 30
0.0
  0
POINT
  5
431
330
41E
100
AcDbEntity
  8
001
 62
     3
370
     9
100
AcDbPoint
 10
126.962439
 20
86.651401
 30
0.0
  0
ENDBLK
  5
420
330
41E
100
AcDbEntity
  8
0
100
AcDbBlockEnd
  0
BLOCK
  5
433
330
432
100
AcDbEntity
  8
0
100
AcDbBlockBegin
  2
*D34
 70
     1
 10
0.0
 20
0.0
 30
0.0
  3
*D34
  1

  0
LINE
  5
435
330
432
100
AcDbEntity
  8
001
 62
     3
370
     9
100
AcDbLine
 10
120.462439
 20
140.796129
 30
0.0
 11
120.462439
 21
95.451401
 31
0.0
  0
LINE
  5
436
330
432
100
AcDbEntity
  8
001
 62
     3
370
     9
100
AcDbLine
 10
126.962439
 20
112.796129
 30
0.0
 11
126.962439
 21
95.451401
 31
0.0
  0
LINE
  5
437
330
432
100
AcDbEntity
  8
001
 62
     3
370
     9
100
AcDbLine
 10
120.462439
 20
96.651401
 30
0.0
 11
126.962439
 21
96.651401
 31
0.0
  0
POLYLINE
  5
438
330
432
100
AcDbEntity
  8
001
 62
     3
370
     9
100
AcDb2dPolyline
 66
     1
 10
0.0
 20
0.0
 30
0.0
  0
VERTEX
  5
43A
330
438
100
AcDbEntity
  8
001
 62
     3
370
     9
100
AcDbVertex
100
AcDb2dVertex
 10
122.462439
 20
96.115503
 30
0.0
  0
VERTEX
  5
43B
330
438
100
AcDbEntity
  8
001
 62
     3
370
     9
100
AcDbVertex
100
AcDb2dVertex
 10
120.462439
 20
96.651401
 30
0.0
  0
VERTEX
  5
43C
330
438
100
AcDbEntity
  8
001
 62
     3
370
     9
100
AcDbVertex
100
AcDb2dVertex
 10
122.462439
 20
97.187299
 30
0.0
  0
SEQEND
  5
439
330
438
100
AcDbEntity
  8
001
370
     9
  0
POLYLINE
  5
43D
330
432
100
AcDbEntity
  8
001
 62
     3
370
     9
100
AcDb2dPolyline
 66
     1
 10
0.0
 20
0.0
 30
0.0
  0
VERTEX
  5
43F
330
43D
100
AcDbEntity
  8
001
 62
     3
370
     9
100
AcDbVertex
100
AcDb2dVertex
 10
124.962439
 20
97.187299
 30
0.0
  0
VERTEX
  5
440
330
43D
100
AcDbEntity
  8
001
 62
     3
370
     9
100
AcDbVertex
100
AcDb2dVertex
 10
126.962439
 20
96.651401
 30
0.0
  0
VERTEX
  5
441
330
43D
100
AcDbEntity
  8
001
 62
     3
370
     9
100
AcDbVertex
100
AcDb2dVertex
 10
124.962439
 20
96.115503
 30
0.0
  0
SEQEND
  5
43E
330
43D
100
AcDbEntity
  8
001
370
     9
  0
TEXT
  5
442
330
432
100
AcDbEntity
  8
001
 62
     3
370
     9
100
AcDbText
 10
129.738832
 20
97.651401
 30
0.0
 40
3.5
  1
６．５
 41
0.666667
100
AcDbText
  0
POINT
  5
443
330
432
100
AcDbEntity
  8
001
 62
     3
370
     9
100
AcDbPoint
 10
120.462439
 20
140.796129
 30
0.0
  0
POINT
  5
444
330
432
100
AcDbEntity
  8
001
 62
     3
370
     9
100
AcDbPoint
 10
126.962439
 20
112.796129
 30
0.0
  0
POINT
  5
445
330
432
100
AcDbEntity
  8
001
 62
     3
370
     9
100
AcDbPoint
 10
126.962439
 20
96.651401
 30
0.0
  0
LINE
  5
446
330
432
100
AcDbEntity
  8
001
 62
     3
370
     9
100
AcDbLine
 10
126.962439
 20
96.651401
 30
0.0
 11
139.638832
 21
96.651401
 31
0.0
  0
ENDBLK
  5
434
330
432
100
AcDbEntity
  8
0
100
AcDbBlockEnd
  0
BLOCK
  5
448
330
447
100
AcDbEntity
  8
0
100
AcDbBlockBegin
  2
DIM-21
 70
     0
 10
0.0
 20
0.0
 30
0.0
  3
DIM-21
  1

  0
TEXT
  5
44A
330
447
100
AcDbEntity
  8
001
 62
     4
370
    30
100
AcDbText
 10
128.676052
 20
65.924868
 30
0.0
 40
3.5
  1
ＭＩＮ＝１５
 41
0.833333
100
AcDbText
  0
POLYLINE
  5
44B
330
447
100
AcDbEntity
  8
001
 62
     3
370
     9
100
AcDb2dPolyline
 66
     1
 10
0.0
 20
0.0
 30
0.0
  0
VERTEX
  5
44D
330
44B
100
AcDbEntity
  8
001
 62
     3
370
     9
100
AcDbVertex
100
AcDb2dVertex
 10
122.223703
 20
71.14481
 30
0.0
  0
VERTEX
  5
44E
330
44B
100
AcDbEntity
  8
001
 62
     3
370
     9
100
AcDbVertex
100
AcDb2dVertex
 10
121.430577
 20
73.057436
 30
0.0
  0
VERTEX
  5
44F
330
44B
100
AcDbEntity
  8
001
 62
     3
370
     9
100
AcDbVertex
100
AcDb2dVertex
 10
123.073757
 20
71.797617
 30
0.0
  0
SEQEND
  5
44C
330
44B
100
AcDbEntity
  8
001
370
     9
  0
POLYLINE
  5
450
330
447
100
AcDbEntity
  8
001
 62
     3
370
     9
100
AcDb2dPolyline
 66
     1
 10
0.0
 20
0.0
 30
0.0
  0
VERTEX
  5
452
330
450
100
AcDbEntity
  8
001
 62
     3
370
     9
100
AcDbVertex
100
AcDb2dVertex
 10
121.430577
 20
73.057436
 30
0.0
  0
VERTEX
  5
453
330
450
100
AcDbEntity
  8
001
 62
     3
370
     9
100
AcDbVertex
100
AcDb2dVertex
 10
127.676052
 20
64.924868
 30
0.0
  0
VERTEX
  5
454
330
450
100
AcDbEntity
  8
001
 62
     3
370
     9
100
AcDbVertex
100
AcDb2dVertex
 10
157.676052
 20
64.924868
 30
0.0
  0
SEQEND
  5
451
330
450
100
AcDbEntity
  8
001
370
     9
  0
TEXT
  5
455
330
447
100
AcDbEntity
  8
001
 62
     4
370
    30
100
AcDbText
 10
128.676052
 20
60.424868
 30
0.0
 40
3.5
  1
ＭＡＸ＝１８．５
 41
0.833333
100
AcDbText
  0
POLYLINE
  5
456
330
447
100
AcDbEntity
  8
001
 62
     3
370
     9
100
AcDb2dPolyline
 66
     1
 10
0.0
 20
0.0
 30
0.0
  0
VERTEX
  5
458
330
456
100
AcDbEntity
  8
001
 62
     3
370
     9
100
AcDbVertex
100
AcDb2dVertex
 10
127.676052
 20
64.924868
 30
0.0
  0
VERTEX
  5
459
330
456
100
AcDbEntity
  8
001
 62
     3
370
     9
100
AcDbVertex
100
AcDb2dVertex
 10
127.676052
 20
59.424868
 30
0.0
  0
VERTEX
  5
45A
330
456
100
AcDbEntity
  8
001
 62
     3
370
     9
100
AcDbVertex
100
AcDb2dVertex
 10
157.676052
 20
59.424868
 30
0.0
  0
SEQEND
  5
457
330
456
100
AcDbEntity
  8
001
370
     9
  0
ENDBLK
  5
449
330
447
100
AcDbEntity
  8
0
100
AcDbBlockEnd
  0
ENDSEC
  0
SECTION
  2
ENTITIES
  0
INSERT
  5
45B
330
1F
100
AcDbEntity
  8
002
  6
ByBlock
 62
     0
370
    -2
100
AcDbBlockReference
  2
JZB-1
 10
0.0
 20
0.0
 30
0.0
  0
INSERT
  5
45C
330
1F
100
AcDbEntity
  8
001
  6
ByBlock
 62
     0
370
    -2
100
AcDbBlockReference
  2
JZB-2
 10
0.0
 20
0.0
 30
0.0
  0
INSERT
  5
45D
330
1F
100
AcDbEntity
  8
001
  6
ByBlock
 62
     0
370
    -2
100
AcDbBlockReference
  2
JZB-3
 10
0.0
 20
0.0
 30
0.0
  0
INSERT
  5
45E
330
1F
100
AcDbEntity
  8
001
  6
ByBlock
 62
     0
370
    -2
100
AcDbBlockReference
  2
JZB-4
 10
0.0
 20
0.0
 30
0.0
  0
INSERT
  5
45F
330
1F
100
AcDbEntity
  8
001
  6
ByBlock
 62
     0
370
    -2
100
AcDbBlockReference
  2
JZB-5
 10
0.0
 20
0.0
 30
0.0
  0
INSERT
  5
460
330
1F
100
AcDbEntity
  8
001
  6
ByBlock
 62
     0
370
    -2
100
AcDbBlockReference
  2
JZB-6
 10
0.0
 20
0.0
 30
0.0
  0
INSERT
  5
461
330
1F
100
AcDbEntity
  8
001
  6
ByBlock
 62
     0
370
    -2
100
AcDbBlockReference
  2
JZB-7
 10
0.0
 20
0.0
 30
0.0
  0
INSERT
  5
462
330
1F
100
AcDbEntity
  8
001
  6
ByBlock
 62
     0
370
    -2
100
AcDbBlockReference
  2
JZB-8
 10
0.0
 20
0.0
 30
0.0
  0
INSERT
  5
463
330
1F
100
AcDbEntity
  8
001
  6
ByBlock
 62
     0
370
    -2
100
AcDbBlockReference
  2
JZB-9
 10
0.0
 20
0.0
 30
0.0
  0
INSERT
  5
464
330
1F
100
AcDbEntity
  8
001
  6
ByBlock
 62
     0
370
    -2
100
AcDbBlockReference
  2
DIM-10
 10
0.0
 20
0.0
 30
0.0
  0
INSERT
  5
465
330
1F
100
AcDbEntity
  8
001
  6
ByBlock
 62
     0
370
    -2
100
AcDbBlockReference
  2
DIM-11
 10
0.0
 20
0.0
 30
0.0
  0
INSERT
  5
466
330
1F
100
AcDbEntity
  8
001
  6
ByBlock
 62
     0
370
    -2
100
AcDbBlockReference
  2
DIM-12
 10
0.0
 20
0.0
 30
0.0
  0
INSERT
  5
467
330
1F
100
AcDbEntity
  8
001
  6
ByBlock
 62
     0
370
    -2
100
AcDbBlockReference
  2
DIM-13
 10
0.0
 20
0.0
 30
0.0
  0
INSERT
  5
468
330
1F
100
AcDbEntity
  8
001
  6
ByBlock
 62
     0
370
    -2
100
AcDbBlockReference
  2
DIM-14
 10
0.0
 20
0.0
 30
0.0
  0
INSERT
  5
469
330
1F
100
AcDbEntity
  8
001
  6
ByBlock
 62
     0
370
    -2
100
AcDbBlockReference
  2
DIM-15
 10
0.0
 20
0.0
 30
0.0
  0
INSERT
  5
46A
330
1F
100
AcDbEntity
  8
001
  6
ByBlock
 62
     0
370
    -2
100
AcDbBlockReference
  2
DIM-16
 10
0.0
 20
0.0
 30
0.0
  0
INSERT
  5
46B
330
1F
100
AcDbEntity
  8
001
  6
ByBlock
 62
     0
370
    -2
100
AcDbBlockReference
  2
DIM-17
 10
0.0
 20
0.0
 30
0.0
  0
INSERT
  5
46C
330
1F
100
AcDbEntity
  8
001
  6
ByBlock
 62
     0
370
    -2
100
AcDbBlockReference
  2
DIM-18
 10
0.0
 20
0.0
 30
0.0
  0
DIMENSION
  5
46D
330
1F
100
AcDbEntity
  8
001
 62
     3
370
     9
100
AcDbDimension
  2
*D19
 10
69.438554
 20
190.296129
 30
0.0
 11
66.688554
 21
169.296128
 31
0.0
 70
   160
 71
     5
 42
-1.0
  3
Standard
100
AcDbAlignedDimension
 13
111.962439
 23
148.296129
 33
0.0
 14
111.962439
 24
190.296129
 34
0.0
 50
90.0
100
AcDbRotatedDimension
  0
DIMENSION
  5
46E
330
1F
100
AcDbEntity
  8
001
 62
     3
370
     9
100
AcDbDimension
  2
*D20
 10
59.438554
 20
209.296129
 30
0.0
 11
56.688554
 21
169.296128
 31
0.0
 70
   160
 71
     5
 42
-1.0
  3
Standard
100
AcDbAlignedDimension
 13
122.462439
 23
129.296129
 33
0.0
 14
122.462439
 24
209.296129
 34
0.0
 50
90.0
100
AcDbRotatedDimension
  0
DIMENSION
  5
46F
330
1F
100
AcDbEntity
  8
001
 62
     3
370
     9
100
AcDbDimension
  2
*D21
 10
49.438554
 20
111.796129
 30
0.0
 11
46.688554
 21
169.296128
 31
0.0
 70
   160
 71
     5
 42
-1.0
  3
Standard
100
AcDbAlignedDimension
 13
127.962439
 23
226.796129
 33
0.0
 14
127.962439
 24
111.796129
 34
0.0
 50
270.0
100
AcDbRotatedDimension
  0
INSERT
  5
470
330
1F
100
AcDbEntity
  8
001
  6
ByBlock
 62
     0
370
    -2
100
AcDbBlockReference
  2
DIM-19
 10
0.0
 20
0.0
 30
0.0
  0
DIMENSION
  5
471
330
1F
100
AcDbEntity
  8
001
 62
     3
370
     9
100
AcDbDimension
  2
*D23
 10
124.962439
 20
174.922757
 30
0.0
 11
117.197594
 21
177.672757
 31
0.0
 70
   160
 71
     5
 42
-1.0
  3
Standard
100
AcDbAlignedDimension
 13
110.962439
 23
198.296129
 33
0.0
 14
124.962439
 24
193.746129
 34
0.0
 50
360.0
100
AcDbRotatedDimension
  0
INSERT
  5
472
330
1F
100
AcDbEntity
  8
001
  6
ByBlock
 62
     0
370
    -2
100
AcDbBlockReference
  2
DIM-20
 10
0.0
 20
0.0
 30
0.0
  0
DIMENSION
  5
473
330
1F
100
AcDbEntity
  8
001
 62
     3
370
     9
100
AcDbDimension
  2
*D25
 10
281.862208
 20
158.952618
 30
0.0
 11
360.184558
 21
179.244904
 31
0.0
 70
   163
 71
     5
 42
-1.0
  3
Standard
100
AcDbDiametricDimension
 15
374.582472
 25
179.639639
 35
0.0
 40
0.0
  0
DIMENSION
  5
474
330
1F
100
AcDbEntity
  8
001
 62
     3
370
     9
100
AcDbDimension
  2
*D26
 10
79.438554
 20
182.546129
 30
0.0
 11
76.688554
 21
169.296128
 31
0.0
 70
   160
 71
     5
 42
-1.0
  3
Standard
100
AcDbAlignedDimension
 13
128.962439
 23
156.046129
 33
0.0
 14
128.962439
 24
182.546129
 34
0.0
 50
90.0
100
AcDbRotatedDimension
  0
DIMENSION
  5
475
330
1F
100
AcDbEntity
  8
001
 62
     3
370
     9
100
AcDbDimension
  2
*D27
 10
126.962439
 20
86.651401
 30
0.0
 11
153.462439
 21
89.401401
 31
0.0
 70
   160
 71
     5
 42
-1.0
  3
Standard
100
AcDbAlignedDimension
 13
179.962439
 23
112.796129
 33
0.0
 14
126.962439
 24
112.796129
 34
0.0
 50
180.0
100
AcDbRotatedDimension
  0
DIMENSION
  5
476
330
1F
100
AcDbEntity
  8
001
 62
     3
370
     9
100
AcDbDimension
  2
*D28
 10
232.962439
 20
76.651401
 30
0.0
 11
179.962439
 21
79.401401
 31
0.0
 70
   160
 71
     5
 42
-1.0
  3
Standard
100
AcDbAlignedDimension
 13
126.962439
 23
112.796129
 33
0.0
 14
232.962439
 24
147.796129
 34
0.0
100
AcDbRotatedDimension
  0
DIMENSION
  5
477
330
1F
100
AcDbEntity
  8
001
 62
     3
370
     9
100
AcDbDimension
  2
*D29
 10
126.962439
 20
76.651401
 30
0.0
 11
118.962439
 21
79.401401
 31
0.0
 70
   160
 71
     5
 42
-1.0
  3
Standard
100
AcDbAlignedDimension
 13
110.962439
 23
149.296129
 33
0.0
 14
126.962439
 24
112.796129
 34
0.0
100
AcDbRotatedDimension
  0
DIMENSION
  5
478
330
1F
100
AcDbEntity
  8
001
 62
     3
370
     9
100
AcDbDimension
  2
*D30
 10
252.583814
 20
208.296129
 30
0.0
 11
249.833814
 21
169.296128
 31
0.0
 70
   160
 71
     5
 42
-1.0
  3
Standard
100
AcDbAlignedDimension
 13
229.962439
 23
130.296129
 33
0.0
 14
229.962439
 24
208.296129
 34
0.0
 50
90.0
100
AcDbRotatedDimension
  0
DIMENSION
  5
479
330
1F
100
AcDbEntity
  8
001
 62
     3
370
     9
100
AcDbDimension
  2
*D31
 10
232.962439
 20
246.00532
 30
0.0
 11
188.962439
 21
248.75532
 31
0.0
 70
   160
 71
     5
 42
-1.0
  3
Standard
100
AcDbAlignedDimension
 13
144.962439
 23
187.796129
 33
0.0
 14
232.962439
 24
190.796129
 34
0.0
100
AcDbRotatedDimension
  0
DIMENSION
  5
47A
330
1F
100
AcDbEntity
  8
001
 62
     3
370
     9
100
AcDbDimension
  2
*D32
 10
126.962439
 20
246.00532
 30
0.0
 11
118.962439
 21
248.75532
 31
0.0
 70
   160
 71
     5
 42
-1.0
  3
Standard
100
AcDbAlignedDimension
 13
110.962439
 23
219.546129
 33
0.0
 14
126.962439
 24
225.796129
 34
0.0
100
AcDbRotatedDimension
  0
DIMENSION
  5
47B
330
1F
100
AcDbEntity
  8
001
 62
     3
370
     9
100
AcDbDimension
  2
*D33
 10
126.962439
 20
86.651401
 30
0.0
 11
124.462439
 21
89.401401
 31
0.0
 70
   160
 71
     5
 42
-1.0
  3
Standard
100
AcDbAlignedDimension
 13
121.962439
 23
129.796129
 33
0.0
 14
126.962439
 24
112.796129
 34
0.0
100
AcDbRotatedDimension
  0
DIMENSION
  5
47C
330
1F
100
AcDbEntity
  8
001
 62
     3
370
     9
100
AcDbDimension
  2
*D34
 10
126.962439
 20
96.651401
 30
0.0
 11
133.938832
 21
99.401401
 31
0.0
 70
   160
 71
     5
 42
-1.0
  3
Standard
100
AcDbAlignedDimension
 13
120.462439
 23
140.796129
 33
0.0
 14
126.962439
 24
112.796129
 34
0.0
100
AcDbRotatedDimension
  0
TEXT
  5
47D
330
1F
100
AcDbEntity
  8
001
 62
     3
370
     9
100
AcDbText
 10
129.738832
 20
92.151401
 30
0.0
 40
3.5
  1
アンクランプ時
 41
0.666667
100
AcDbText
  0
INSERT
  5
47E
330
1F
100
AcDbEntity
  8
001
  6
ByBlock
 62
     0
370
    -2
100
AcDbBlockReference
  2
DIM-21
 10
0.0
 20
0.0
 30
0.0
  0
LINE
  5
47F
330
1F
100
AcDbEntity
  8
001
  6
HIDDEN
 62
     3
370
     9
100
AcDbLine
 10
404.0
 20
28.5
 30
0.0
 11
404.0
 21
21.0
 31
0.0
  0
LINE
  5
480
330
1F
100
AcDbEntity
  8
001
  6
HIDDEN
 62
     3
370
     9
100
AcDbLine
 10
394.0
 20
28.5
 30
0.0
 11
394.0
 21
21.0
 31
0.0
  0
LINE
  5
481
330
1F
100
AcDbEntity
  8
001
  6
HIDDEN
 62
     3
370
     9
100
AcDbLine
 10
379.0
 20
28.5
 30
0.0
 11
379.0
 21
21.0
 31
0.0
  0
LINE
  5
482
330
1F
100
AcDbEntity
  8
001
370
    30
100
AcDbLine
 10
175.5
 20
48.0
 30
0.0
 11
175.5
 21
10.0
 31
0.0
  0
LINE
  5
483
330
1F
100
AcDbEntity
  8
001
 62
     3
370
     9
100
AcDbLine
 10
175.5
 20
13.8
 30
0.0
 11
251.0
 21
13.8
 31
0.0
  0
LINE
  5
484
330
1F
100
AcDbEntity
  8
001
 62
     3
370
     9
100
AcDbLine
 10
184.5
 20
48.0
 30
0.0
 11
184.5
 21
10.0
 31
0.0
  0
LINE
  5
485
330
1F
100
AcDbEntity
  8
001
 62
     3
370
     9
100
AcDbLine
 10
219.5
 20
48.0
 30
0.0
 11
219.5
 21
10.0
 31
0.0
  0
LINE
  5
486
330
1F
100
AcDbEntity
  8
001
 62
     3
370
     9
100
AcDbLine
 10
239.5
 20
48.0
 30
0.0
 11
239.5
 21
10.0
 31
0.0
  0
LINE
  5
487
330
1F
100
AcDbEntity
  8
001
370
    30
100
AcDbLine
 10
251.0
 20
48.0
 30
0.0
 11
251.0
 21
10.0
 31
0.0
  0
LINE
  5
488
330
1F
100
AcDbEntity
  8
001
370
    30
100
AcDbLine
 10
348.0
 20
48.0
 30
0.0
 11
348.0
 21
10.0
 31
0.0
  0
LINE
  5
489
330
1F
100
AcDbEntity
  8
001
370
    30
100
AcDbLine
 10
251.0
 20
34.0
 30
0.0
 11
410.0
 21
34.0
 31
0.0
  0
LINE
  5
48A
330
1F
100
AcDbEntity
  8
001
370
    30
100
AcDbLine
 10
348.0
 20
21.0
 30
0.0
 11
410.0
 21
21.0
 31
0.0
  0
LINE
  5
48B
330
1F
100
AcDbEntity
  8
001
370
    30
100
AcDbLine
 10
251.0
 20
28.5
 30
0.0
 11
348.0
 21
28.5
 31
0.0
  0
LINE
  5
48C
330
1F
100
AcDbEntity
  8
001
 62
     3
370
     9
100
AcDbLine
 10
263.0
 20
34.0
 30
0.0
 11
263.0
 21
28.5
 31
0.0
  0
LINE
  5
48D
330
1F
100
AcDbEntity
  8
001
 62
     3
370
     9
100
AcDbLine
 10
308.0
 20
34.0
 30
0.0
 11
308.0
 21
28.5
 31
0.0
  0
LINE
  5
48E
330
1F
100
AcDbEntity
  8
001
 62
     3
370
     9
100
AcDbLine
 10
296.0
 20
34.0
 30
0.0
 11
296.0
 21
28.5
 31
0.0
  0
LINE
  5
48F
330
1F
100
AcDbEntity
  8
001
 62
     3
370
     9
100
AcDbLine
 10
354.0
 20
22.000394
 30
0.0
 11
354.0
 21
21.0
 31
0.0
  0
LINE
  5
490
330
1F
100
AcDbEntity
  8
001
 62
     3
370
     9
100
AcDbLine
 10
359.0
 20
22.000394
 30
0.0
 11
359.0
 21
21.0
 31
0.0
  0
LINE
  5
491
330
1F
100
AcDbEntity
  8
001
 62
     3
370
     9
100
AcDbLine
 10
364.0
 20
22.000394
 30
0.0
 11
364.0
 21
21.0
 31
0.0
  0
LINE
  5
492
330
1F
100
AcDbEntity
  8
001
 62
     3
370
     9
100
AcDbLine
 10
369.0
 20
22.000394
 30
0.0
 11
369.0
 21
21.0
 31
0.0
  0
LINE
  5
493
330
1F
100
AcDbEntity
  8
001
 62
     3
370
     9
100
AcDbLine
 10
384.0
 20
22.0
 30
0.0
 11
384.0
 21
21.0
 31
0.0
  0
LINE
  5
494
330
1F
100
AcDbEntity
  8
001
 62
     3
370
     9
100
AcDbLine
 10
389.0
 20
22.0
 30
0.0
 11
389.0
 21
21.0
 31
0.0
  0
LINE
  5
495
330
1F
100
AcDbEntity
  8
001
 62
     3
370
     9
100
AcDbLine
 10
399.0
 20
22.0
 30
0.0
 11
399.0
 21
21.0
 31
0.0
  0
LINE
  5
496
330
1F
100
AcDbEntity
  8
001
 62
     3
370
     9
100
AcDbLine
 10
374.0
 20
21.000394
 30
0.0
 11
374.0
 21
22.000394
 31
0.0
  0
LINE
  5
497
330
1F
100
AcDbEntity
  8
001
370
    30
100
AcDbLine
 10
330.0
 20
48.0
 30
0.0
 11
330.0
 21
34.0
 31
0.0
  0
LINE
  5
498
330
1F
100
AcDbEntity
  8
001
370
    30
100
AcDbLine
 10
302.0
 20
34.0
 30
0.0
 11
302.0
 21
48.0
 31
0.0
  0
LINE
  5
499
330
1F
100
AcDbEntity
  8
001
 62
     3
370
     9
100
AcDbLine
 10
175.5
 20
17.6
 30
0.0
 11
251.0
 21
17.6
 31
0.0
  0
LINE
  5
49A
330
1F
100
AcDbEntity
  8
001
 62
     3
370
     9
100
AcDbLine
 10
175.5
 20
21.4
 30
0.0
 11
251.0
 21
21.4
 31
0.0
  0
LINE
  5
49B
330
1F
100
AcDbEntity
  8
001
 62
     3
370
     9
100
AcDbLine
 10
175.5
 20
25.2
 30
0.0
 11
251.0
 21
25.2
 31
0.0
  0
LINE
  5
49C
330
1F
100
AcDbEntity
  8
001
 62
     3
370
     9
100
AcDbLine
 10
175.5
 20
29.0
 30
0.0
 11
251.0
 21
29.0
 31
0.0
  0
LINE
  5
49D
330
1F
100
AcDbEntity
  8
001
 62
     3
370
     9
100
AcDbLine
 10
175.5
 20
32.8
 30
0.0
 11
251.0
 21
32.8
 31
0.0
  0
LINE
  5
49E
330
1F
100
AcDbEntity
  8
001
 62
     3
370
     9
100
AcDbLine
 10
175.5
 20
36.6
 30
0.0
 11
251.0
 21
36.6
 31
0.0
  0
LINE
  5
49F
330
1F
100
AcDbEntity
  8
001
 62
     3
370
     9
100
AcDbLine
 10
175.5
 20
40.4
 30
0.0
 11
251.0
 21
40.4
 31
0.0
  0
LINE
  5
4A0
330
1F
100
AcDbEntity
  8
001
 62
     3
370
     9
100
AcDbLine
 10
175.5
 20
44.2
 30
0.0
 11
251.0
 21
44.2
 31
0.0
  0
LINE
  5
4A1
330
1F
100
AcDbEntity
  8
001
 62
     3
370
     9
100
AcDbLine
 10
323.0
 20
34.0
 30
0.0
 11
323.0
 21
28.5
 31
0.0
  0
TEXT
  5
4A2
330
1F
100
AcDbEntity
  8
001
 62
     3
370
    30
100
AcDbText
 10
310.0
 20
29.5
 30
0.0
 40
3.5
  1
１：１
 41
0.97619
100
AcDbText
  0
LINE
  5
4A3
330
1F
100
AcDbEntity
  8
001
370
    30
100
AcDbLine
 10
410.0
 20
10.0
 30
0.0
 11
410.0
 21
287.0
 31
0.0
  0
LINE
  5
4A4
330
1F
100
AcDbEntity
  8
001
370
    30
100
AcDbLine
 10
25.0
 20
287.0
 30
0.0
 11
25.0
 21
10.0
 31
0.0
  0
LINE
  5
4A5
330
1F
100
AcDbEntity
  8
001
370
    30
100
AcDbLine
 10
410.0
 20
287.0
 30
0.0
 11
25.0
 21
287.0
 31
0.0
  0
LINE
  5
4A6
330
1F
100
AcDbEntity
  8
001
370
    30
100
AcDbLine
 10
410.0
 20
10.0
 30
0.0
 11
25.0
 21
10.0
 31
0.0
  0
LINE
  5
4A7
330
1F
100
AcDbEntity
  8
001
 62
     3
370
     9
100
AcDbLine
 10
320.5
 20
28.5
 30
0.0
 11
320.5
 21
10.0
 31
0.0
  0
LINE
  5
4A8
330
1F
100
AcDbEntity
  8
001
 62
     3
370
     9
100
AcDbLine
 10
334.25
 20
28.5
 30
0.0
 11
334.25
 21
10.0
 31
0.0
  0
LINE
  5
4A9
330
1F
100
AcDbEntity
  8
001
370
    30
100
AcDbLine
 10
293.0
 20
28.5
 30
0.0
 11
293.0
 21
10.0
 31
0.0
  0
LINE
  5
4AA
330
1F
100
AcDbEntity
  8
001
 62
     3
370
     9
100
AcDbLine
 10
306.75
 20
28.5
 30
0.0
 11
306.75
 21
10.0
 31
0.0
  0
LINE
  5
4AB
330
1F
100
AcDbEntity
  8
001
 62
     3
370
     9
100
AcDbLine
 10
320.5
 20
10.0
 30
0.0
 11
334.25
 21
26.097561
 31
0.0
  0
LINE
  5
4AC
330
1F
100
AcDbEntity
  8
001
370
    30
100
AcDbLine
 10
175.5
 20
48.0
 30
0.0
 11
410.0
 21
48.0
 31
0.0
  0
TEXT
  5
4AD
330
1F
100
AcDbEntity
  8
001
 62
     3
370
    30
100
AcDbText
 10
331.00039
 20
45.000488
 30
0.0
 40
2.0
  1
ＱＵＡＮＴＩＴＹ
 41
0.530963
100
AcDbText
  0
TEXT
  5
4AE
330
1F
100
AcDbEntity
  8
001
 62
     3
370
    30
100
AcDbText
 10
303.00039
 20
45.000488
 30
0.0
 40
2.0
  1
ＭＡＴＥＲＩＡＬ
 41
0.540887
100
AcDbText
  0
TEXT
  5
4AF
330
1F
100
AcDbEntity
  8
001
 62
     3
370
    30
100
AcDbText
 10
252.00039
 20
45.000488
 30
0.0
 40
2.0
  1
ＭＯＤＥＬＳ
 41
0.61863
100
AcDbText
  0
TEXT
  5
4B0
330
1F
100
AcDbEntity
  8
001
 62
     3
370
    30
100
AcDbText
 10
253.20039
 20
30.250488
 30
0.0
 40
2.0
  1
ＤＡＴＥ
 41
0.813812
100
AcDbText
  0
TEXT
  5
4B1
330
1F
100
AcDbEntity
  8
001
 62
     3
370
    30
100
AcDbText
 10
297.20039
 20
30.250488
 30
0.0
 40
2.0
  1
ＳＣＡＬＥ
 41
0.813812
100
AcDbText
  0
TEXT
  5
4B2
330
1F
100
AcDbEntity
  8
001
 62
     3
370
    30
100
AcDbText
 10
295.197835
 20
26.2
 30
0.0
 40
1.6
  1
ＡＰＰＲＯＶＥＤ
 41
0.609006
100
AcDbText
  0
TEXT
  5
4B3
330
1F
100
AcDbEntity
  8
001
 62
     3
370
    30
100
AcDbText
 10
309.493504
 20
26.2
 30
0.0
 40
1.6
  1
ＣＨＥＣＫＥＤ
 41
0.614806
100
AcDbText
  0
TEXT
  5
4B4
330
1F
100
AcDbEntity
  8
001
 62
     3
370
    30
100
AcDbText
 10
322.990158
 20
26.2
 30
0.0
 40
1.6
  1
ＤＥＳＩＧＮＥＤ
 41
0.570943
100
AcDbText
  0
TEXT
  5
4B5
330
1F
100
AcDbEntity
  8
001
 62
     3
370
    30
100
AcDbText
 10
337.948426
 20
26.2
 30
0.0
 40
1.6
  1
ＤＲＡＷＮ
 41
0.661786
100
AcDbText
  0
TEXT
  5
4B6
330
1F
100
AcDbEntity
  8
001
 62
     3
370
    30
100
AcDbText
 10
349.00039
 20
31.250488
 30
0.0
 40
2.0
  1
ＤＲＡＷＩＮＧ　№
 41
0.604294
100
AcDbText
  0
TEXT
  5
4B7
330
1F
100
AcDbEntity
  8
001
 62
     3
370
    30
100
AcDbText
 10
226.693862
 20
10.9
 30
0.0
 40
2.0
  1
ＤＡＴＥ
 41
0.584612
100
AcDbText
  0
TEXT
  5
4B8
330
1F
100
AcDbEntity
  8
001
 62
     3
370
    30
100
AcDbText
 10
199.098739
 20
10.9
 30
0.0
 40
2.0
  1
ＮＯＴＥ
 41
0.604429
100
AcDbText
  0
TEXT
  5
4B9
330
1F
100
AcDbEntity
  8
001
 62
     3
370
    30
100
AcDbText
 10
176.83715
 20
10.9
 30
0.0
 40
2.0
  1
ＭＡＲＫ
 41
0.658927
100
AcDbText
  0
TEXT
  5
4BA
330
1F
100
AcDbEntity
  8
001
 62
     3
370
    30
100
AcDbText
 10
242.134712
 20
10.9
 30
0.0
 40
2.0
  1
ＮＡＭＥ
 41
0.649018
100
AcDbText
  0
TEXT
  5
4BB
330
1F
100
AcDbEntity
  8
001
 62
     3
370
    30
100
AcDbText
 10
348.826464
 20
18.837178
 30
0.0
 40
1.6
  1
ＵＳＥＲ’Ｓ　ＤＲＡＷＩＮＧ　№
 41
0.596716
100
AcDbText
  0
TEXT
  5
4BC
330
1F
100
AcDbEntity
  8
001
 62
     3
370
    30
100
AcDbText
 10
361.50491
 20
28.7
 30
0.0
 40
1.6
  1
Ｃｏｄｅ
 41
0.519555
100
AcDbText
  0
TEXT
  5
4BD
330
1F
100
AcDbEntity
  8
001
 62
     3
370
    30
100
AcDbText
 10
384.939484
 20
28.7
 30
0.0
 40
1.6
  1
Ｐａｒｔ
 41
0.406384
100
AcDbText
  0
TEXT
  5
4BE
330
1F
100
AcDbEntity
  8
001
 62
     3
370
    30
100
AcDbText
 10
395.859215
 20
28.7
 30
0.0
 40
1.6
  1
Ｐｒｏｃｅｓｓ
 41
0.467379
100
AcDbText
  0
TEXT
  5
4BF
330
1F
100
AcDbEntity
  8
001
 62
     3
370
    30
100
AcDbText
 10
405.974099
 20
28.7
 30
0.0
 40
1.6
  1
Ｖｅｒ
 41
0.45954
100
AcDbText
  0
TEXT
  5
4C0
330
1F
100
AcDbEntity
  8
001
370
    30
100
AcDbText
 10
328.197262
 20
28.75
 30
0.0
 40
5.0
  1
Ａ－３
 41
0.813779
100
AcDbText
  0
TEXT
  5
4C1
330
1F
100
AcDbEntity
  8
001
 62
     3
370
    30
100
AcDbText
 10
349.00039
 20
45.000488
 30
0.0
 40
2.0
  1
ＰＡＲＴ　ＮＡＭＥ
 41
0.605709
100
AcDbText
  0
TEXT
  5
4C2
330
1F
100
AcDbEntity
  8
001
 62
     3
370
    30
100
AcDbText
 10
372.25
 20
36.75
 30
0.0
 40
4.5
  1
組立図
 41
0.833333
100
AcDbText
  0
TEXT
  5
4C3
330
1F
100
AcDbEntity
  8
001
 62
     3
370
    30
100
AcDbText
 10
341.125
 20
24.0
 30
0.0
 40
5.0
  1
高
  7
TATEGAKI
100
AcDbText
  0
TEXT
  5
4C4
330
1F
100
AcDbEntity
  8
001
 62
     3
370
    30
100
AcDbText
 10
341.125
 20
16.5
 30
0.0
 40
5.0
  1
橋
  7
TATEGAKI
100
AcDbText
  0
TEXT
  5
4C5
330
1F
100
AcDbEntity
  8
001
 62
     3
370
    30
100
AcDbText
 10
255.361111
 20
37.25
 30
0.0
 40
4.5
  1
ＡＳＰ－２５Ｂ　Ⅰ
 41
0.874486
100
AcDbText
  0
TEXT
  5
4C6
330
1F
100
AcDbEntity
  8
001
 62
     3
370
    30
100
AcDbText
 10
266.9
 20
29.5
 30
0.0
 40
3.5
  1
２０１１，１，２６
 41
0.666667
100
AcDbText
  0
LINE
  5
4C7
330
1F
100
AcDbEntity
  8
001
370
    30
100
AcDbLine
 10
217.162439
 20
208.296129
 30
0.0
 11
229.962439
 21
208.296129
 31
0.0
  0
ARC
  5
4C8
330
1F
100
AcDbEntity
  8
001
370
    30
100
AcDbCircle
 10
229.162439
 20
206.496129
 30
0.0
 40
0.7999999999999972
100
AcDbArc
 50
0.0
 51
90.0
  0
ARC
  5
4C9
330
1F
100
AcDbEntity
  8
001
370
    30
100
AcDbCircle
 10
229.962439
 20
206.296129
 30
0.0
 40
2.0
100
AcDbArc
 50
0.0
 51
90.0
  0
LINE
  5
4CA
330
1F
100
AcDbEntity
  8
001
370
    30
100
AcDbLine
 10
217.162439
 20
130.296129
 30
0.0
 11
229.962439
 21
130.296129
 31
0.0
  0
ARC
  5
4CB
330
1F
100
AcDbEntity
  8
001
370
    30
100
AcDbCircle
 10
229.162439
 20
132.096129
 30
0.0
 40
0.7999999999999998
100
AcDbArc
 50
270.0
 51
0.0
  0
ARC
  5
4CC
330
1F
100
AcDbEntity
  8
001
370
    30
100
AcDbCircle
 10
229.962439
 20
132.296129
 30
0.0
 40
2.0
100
AcDbArc
 50
270.0
 51
0.0
  0
LINE
  5
4CD
330
1F
100
AcDbEntity
  8
001
370
    30
100
AcDbLine
 10
231.962439
 20
146.296129
 30
0.0
 11
230.962439
 21
146.296129
 31
0.0
  0
LINE
  5
4CE
330
1F
100
AcDbEntity
  8
001
370
    30
100
AcDbLine
 10
230.962439
 20
144.296129
 30
0.0
 11
229.962439
 21
144.296129
 31
0.0
  0
LINE
  5
4CF
330
1F
100
AcDbEntity
  8
001
370
    30
100
AcDbLine
 10
218.962439
 20
131.296129
 30
0.0
 11
216.962439
 21
130.76023
 31
0.0
  0
LINE
  5
4D0
330
1F
100
AcDbEntity
  8
001
370
    30
100
AcDbLine
 10
217.162439
 20
130.296129
 30
0.0
 11
216.962439
 21
130.496129
 31
0.0
  0
LINE
  5
4D1
330
1F
100
AcDbEntity
  8
001
370
    30
100
AcDbLine
 10
217.162439
 20
208.296129
 30
0.0
 11
216.962439
 21
208.096129
 31
0.0
  0
LINE
  5
4D2
330
1F
100
AcDbEntity
  8
001
370
    30
100
AcDbLine
 10
218.962439
 20
207.296129
 30
0.0
 11
216.962439
 21
207.832027
 31
0.0
  0
LINE
  5
4D3
330
1F
100
AcDbEntity
  8
001
370
    30
100
AcDbLine
 10
229.162439
 20
207.296129
 30
0.0
 11
218.962439
 21
207.296129
 31
0.0
  0
LINE
  5
4D4
330
1F
100
AcDbEntity
  8
001
370
    30
100
AcDbLine
 10
194.962439
 20
187.296129
 30
0.0
 11
163.462439
 21
187.296129
 31
0.0
  0
LINE
  5
4D5
330
1F
100
AcDbEntity
  8
001
370
    30
100
AcDbLine
 10
196.092704
 20
187.646129
 30
0.0
 11
210.26226
 21
187.646129
 31
0.0
  0
ARC
  5
4D6
330
1F
100
AcDbEntity
  8
001
370
    30
100
AcDbCircle
 10
196.092704
 20
185.646129
 30
0.0
 40
2.000000000000001
100
AcDbArc
 50
90.0
 51
124.411509
  0
ARC
  5
4D7
330
1F
100
AcDbEntity
  8
001
370
    30
100
AcDbCircle
 10
229.462439
 20
191.539351
 30
0.0
 40
0.5
100
AcDbArc
 50
280.0
 51
0.0
  0
LINE
  5
4D8
330
1F
100
AcDbEntity
  8
001
370
    30
100
AcDbLine
 10
196.092704
 20
150.946129
 30
0.0
 11
210.26226
 21
150.946129
 31
0.0
  0
ARC
  5
4D9
330
1F
100
AcDbEntity
  8
001
370
    30
100
AcDbCircle
 10
196.092704
 20
152.946129
 30
0.0
 40
2.0
100
AcDbArc
 50
235.588491
 51
270.0
  0
ARC
  5
4DA
330
1F
100
AcDbEntity
  8
001
370
    30
100
AcDbCircle
 10
229.462439
 20
147.052906
 30
0.0
 40
0.4999999999999984
100
AcDbArc
 50
0.0
 51
80.0
  0
LINE
  5
4DB
330
1F
100
AcDbEntity
  8
001
370
    30
100
AcDbLine
 10
163.462439
 20
187.296129
 30
0.0
 11
162.462439
 21
187.873479
 31
0.0
  0
LINE
  5
4DC
330
1F
100
AcDbEntity
  8
001
370
    30
100
AcDbLine
 10
165.462439
 20
199.296129
 30
0.0
 11
162.462439
 21
198.492281
 31
0.0
  0
LINE
  5
4DD
330
1F
100
AcDbEntity
  8
001
370
    30
100
AcDbLine
 10
163.462439
 20
151.296129
 30
0.0
 11
162.462439
 21
150.718778
 31
0.0
  0
LINE
  5
4DE
330
1F
100
AcDbEntity
  8
001
370
    30
100
AcDbLine
 10
165.462439
 20
139.296129
 30
0.0
 11
162.462439
 21
140.099976
 31
0.0
  0
LINE
  5
4DF
330
1F
100
AcDbEntity
  8
001
370
    30
100
AcDbLine
 10
178.462439
 20
195.796129
 30
0.0
 11
178.462439
 21
189.796129
 31
0.0
  0
LINE
  5
4E0
330
1F
100
AcDbEntity
  8
001
 62
     6
370
    30
100
AcDbLine
 10
179.462439
 20
139.321129
 30
0.0
 11
179.462439
 21
139.296129
 31
0.0
  0
LINE
  5
4E1
330
1F
100
AcDbEntity
  8
001
370
    30
100
AcDbLine
 10
127.962439
 20
226.796129
 30
0.0
 11
126.962439
 21
225.796129
 31
0.0
  0
LINE
  5
4E2
330
1F
100
AcDbEntity
  8
001
370
    30
100
AcDbLine
 10
126.962439
 20
221.796129
 30
0.0
 11
127.462439
 21
221.296129
 31
0.0
  0
LINE
  5
4E3
330
1F
100
AcDbEntity
  8
001
370
    30
100
AcDbLine
 10
127.462439
 20
212.296129
 30
0.0
 11
126.962439
 21
211.796129
 31
0.0
  0
LINE
  5
4E4
330
1F
100
AcDbEntity
  8
001
370
    30
100
AcDbLine
 10
211.962439
 20
207.796129
 30
0.0
 11
211.962439
 21
207.596129
 31
0.0
  0
LINE
  5
4E5
330
1F
100
AcDbEntity
  8
001
370
    30
100
AcDbLine
 10
211.462439
 20
208.296129
 30
0.0
 11
211.962439
 21
207.796129
 31
0.0
  0
LINE
  5
4E6
330
1F
100
AcDbEntity
  8
001
370
    30
100
AcDbLine
 10
214.220819
 20
206.796129
 30
0.0
 11
212.762439
 21
206.796129
 31
0.0
  0
ARC
  5
4E7
330
1F
100
AcDbEntity
  8
001
370
    30
100
AcDbCircle
 10
212.762439
 20
207.596129
 30
0.0
 40
0.7999999999999972
100
AcDbArc
 50
180.0
 51
270.0
  0
ARC
  5
4E8
330
1F
100
AcDbEntity
  8
001
370
    30
100
AcDbCircle
 10
214.220819
 20
207.596129
 30
0.0
 40
0.7999999999999993
100
AcDbArc
 50
270.0
 51
337.975687
  0
LINE
  5
4E9
330
1F
100
AcDbEntity
  8
001
370
    30
100
AcDbLine
 10
127.962439
 20
111.796129
 30
0.0
 11
126.962439
 21
112.796129
 31
0.0
  0
LINE
  5
4EA
330
1F
100
AcDbEntity
  8
001
370
    30
100
AcDbLine
 10
211.962439
 20
131.396129
 30
0.0
 11
211.962439
 21
130.796129
 31
0.0
  0
LINE
  5
4EB
330
1F
100
AcDbEntity
  8
001
370
    30
100
AcDbLine
 10
211.462439
 20
130.296129
 30
0.0
 11
211.962439
 21
130.796129
 31
0.0
  0
LINE
  5
4EC
330
1F
100
AcDbEntity
  8
001
370
    30
100
AcDbLine
 10
212.362439
 20
131.796129
 30
0.0
 11
214.562439
 21
131.796129
 31
0.0
  0
LINE
  5
4ED
330
1F
100
AcDbEntity
  8
001
370
    30
100
AcDbLine
 10
127.462439
 20
209.296129
 30
0.0
 11
126.962439
 21
209.796129
 31
0.0
  0
LINE
  5
4EE
330
1F
100
AcDbEntity
  8
001
370
    30
100
AcDbLine
 10
172.255332
 20
138.589022
 30
0.0
 11
172.962439
 21
139.296129
 31
0.0
  0
ARC
  5
4EF
330
1F
100
AcDbEntity
  8
001
370
    30
100
AcDbCircle
 10
171.548225
 20
139.296129
 30
0.0
 40
1.0
100
AcDbArc
 50
270.0
 51
315.0
  0
LINE
  5
4F0
330
1F
100
AcDbEntity
  8
001
370
    30
100
AcDbLine
 10
172.255332
 20
200.003235
 30
0.0
 11
172.962439
 21
199.296129
 31
0.0
  0
ARC
  5
4F1
330
1F
100
AcDbEntity
  8
001
370
    30
100
AcDbCircle
 10
171.548225
 20
199.296129
 30
0.0
 40
1.0
100
AcDbArc
 50
45.0
 51
90.0
  0
LINE
  5
4F2
330
1F
100
AcDbEntity
  8
001
370
    30
100
AcDbLine
 10
144.962439
 20
185.796129
 30
0.0
 11
147.127503
 21
184.546129
 31
0.0
  0
LINE
  5
4F3
330
1F
100
AcDbEntity
  8
001
370
    30
100
AcDbLine
 10
171.548225
 20
200.296129
 30
0.0
 11
160.462439
 21
200.296129
 31
0.0
  0
ARC
  5
4F4
330
1F
100
AcDbEntity
  8
001
370
    30
100
AcDbCircle
 10
144.662439
 20
208.996129
 30
0.0
 40
0.8000000000000114
100
AcDbArc
 50
0.0
 51
90.0
  0
LINE
  5
4F5
330
1F
100
AcDbEntity
  8
001
370
    30
100
AcDbLine
 10
141.79381
 20
209.796129
 30
0.0
 11
144.662439
 21
209.796129
 31
0.0
  0
LINE
  5
4F6
330
1F
100
AcDbEntity
  8
001
370
    30
100
AcDbLine
 10
141.228124
 20
209.561814
 30
0.0
 11
140.962439
 21
209.296129
 31
0.0
  0
ARC
  5
4F7
330
1F
100
AcDbEntity
  8
001
370
    30
100
AcDbCircle
 10
141.79381
 20
208.996129
 30
0.0
 40
0.8
100
AcDbArc
 50
90.0
 51
135.0
  0
LINE
  5
4F8
330
1F
100
AcDbEntity
  8
001
370
    30
100
AcDbLine
 10
145.228124
 20
207.561814
 30
0.0
 11
144.962439
 21
207.296129
 31
0.0
  0
LINE
  5
4F9
330
1F
100
AcDbEntity
  8
001
370
    30
100
AcDbLine
 10
145.462439
 20
208.127499
 30
0.0
 11
145.462439
 21
208.996129
 31
0.0
  0
ARC
  5
4FA
330
1F
100
AcDbEntity
  8
001
370
    30
100
AcDbCircle
 10
144.662439
 20
208.127499
 30
0.0
 40
0.8
100
AcDbArc
 50
315.0
 51
0.0
  0
LINE
  5
4FB
330
1F
100
AcDbEntity
  8
001
370
    30
100
AcDbLine
 10
127.462439
 20
129.296129
 30
0.0
 11
126.962439
 21
128.796129
 31
0.0
  0
LINE
  5
4FC
330
1F
100
AcDbEntity
  8
001
370
    30
100
AcDbLine
 10
159.755332
 20
141.089022
 30
0.0
 11
159.962439
 21
141.296129
 31
0.0
  0
LINE
  5
4FD
330
1F
100
AcDbEntity
  8
001
370
    30
100
AcDbLine
 10
144.962439
 20
152.796129
 30
0.0
 11
147.127503
 21
154.046129
 31
0.0
  0
ARC
  5
4FE
330
1F
100
AcDbEntity
  8
001
370
    30
100
AcDbCircle
 10
144.662439
 20
129.596129
 30
0.0
 40
0.8000000000000114
100
AcDbArc
 50
270.0
 51
0.0
  0
LINE
  5
4FF
330
1F
100
AcDbEntity
  8
001
370
    30
100
AcDbLine
 10
141.79381
 20
128.796129
 30
0.0
 11
144.662439
 21
128.796129
 31
0.0
  0
LINE
  5
500
330
1F
100
AcDbEntity
  8
001
370
    30
100
AcDbLine
 10
141.228124
 20
129.030443
 30
0.0
 11
140.962439
 21
129.296129
 31
0.0
  0
ARC
  5
501
330
1F
100
AcDbEntity
  8
001
370
    30
100
AcDbCircle
 10
141.79381
 20
129.596129
 30
0.0
 40
0.8
100
AcDbArc
 50
225.0
 51
270.0
  0
LINE
  5
502
330
1F
100
AcDbEntity
  8
001
370
    30
100
AcDbLine
 10
145.228124
 20
131.030443
 30
0.0
 11
144.962439
 21
131.296129
 31
0.0
  0
LINE
  5
503
330
1F
100
AcDbEntity
  8
001
370
    30
100
AcDbLine
 10
145.462439
 20
130.464758
 30
0.0
 11
145.462439
 21
129.596129
 31
0.0
  0
ARC
  5
504
330
1F
100
AcDbEntity
  8
001
370
    30
100
AcDbCircle
 10
144.662439
 20
130.464758
 30
0.0
 40
0.8
100
AcDbArc
 50
0.0
 51
45.0
  0
ARC
  5
505
330
1F
100
AcDbEntity
  8
001
370
    30
100
AcDbCircle
 10
160.462439
 20
140.381915
 30
0.0
 40
1.0
100
AcDbArc
 50
135.0
 51
180.0
  0
ARC
  5
506
330
1F
100
AcDbEntity
  8
001
370
    30
100
AcDbCircle
 10
160.462439
 20
139.296129
 30
0.0
 40
1.0
100
AcDbArc
 50
180.0
 51
270.0
  0
LINE
  5
507
330
1F
100
AcDbEntity
  8
001
370
    30
100
AcDbLine
 10
159.462439
 20
139.296129
 30
0.0
 11
159.462439
 21
140.381915
 31
0.0
  0
LINE
  5
508
330
1F
100
AcDbEntity
  8
001
370
    30
100
AcDbLine
 10
127.962439
 20
226.796129
 30
0.0
 11
178.962439
 21
226.796129
 31
0.0
  0
LINE
  5
509
330
1F
100
AcDbEntity
  8
001
370
    30
100
AcDbLine
 10
179.962439
 20
225.796129
 30
0.0
 11
179.962439
 21
210.296129
 31
0.0
  0
LINE
  5
50A
330
1F
100
AcDbEntity
  8
001
370
    30
100
AcDbLine
 10
170.462439
 20
221.296129
 30
0.0
 11
127.462439
 21
221.296129
 31
0.0
  0
LINE
  5
50B
330
1F
100
AcDbEntity
  8
001
370
    30
100
AcDbLine
 10
179.462439
 20
223.796129
 30
0.0
 11
170.962439
 21
223.796129
 31
0.0
  0
LINE
  5
50C
330
1F
100
AcDbEntity
  8
001
370
    30
100
AcDbLine
 10
170.962439
 20
223.796129
 30
0.0
 11
170.962439
 21
209.796129
 31
0.0
  0
LINE
  5
50D
330
1F
100
AcDbEntity
  8
001
370
    30
100
AcDbLine
 10
170.462439
 20
221.296129
 30
0.0
 11
170.962439
 21
221.796129
 31
0.0
  0
LINE
  5
50E
330
1F
100
AcDbEntity
  8
001
370
    30
100
AcDbLine
 10
179.962439
 20
224.296129
 30
0.0
 11
179.462439
 21
223.796129
 31
0.0
  0
LINE
  5
50F
330
1F
100
AcDbEntity
  8
001
370
    30
100
AcDbLine
 10
179.462439
 20
223.796129
 30
0.0
 11
179.462439
 21
211.39123
 31
0.0
  0
LINE
  5
510
330
1F
100
AcDbEntity
  8
001
370
    30
100
AcDbLine
 10
170.462439
 20
212.296129
 30
0.0
 11
170.962439
 21
211.796129
 31
0.0
  0
LINE
  5
511
330
1F
100
AcDbEntity
  8
001
370
    30
100
AcDbLine
 10
178.962439
 20
226.796129
 30
0.0
 11
179.962439
 21
225.796129
 31
0.0
  0
ARC
  5
512
330
1F
100
AcDbEntity
  8
001
370
    30
100
AcDbCircle
 10
181.462439
 20
209.796129
 30
0.0
 40
2.000000000000003
100
AcDbArc
 50
138.590378
 51
311.409622
  0
LINE
  5
513
330
1F
100
AcDbEntity
  8
001
370
    30
100
AcDbLine
 10
179.462439
 20
209.796129
 30
0.0
 11
170.962439
 21
209.796129
 31
0.0
  0
LINE
  5
514
330
1F
100
AcDbEntity
  8
001
370
    30
100
AcDbLine
 10
211.462439
 20
208.296129
 30
0.0
 11
182.785315
 21
208.296129
 31
0.0
  0
LINE
  5
515
330
1F
100
AcDbEntity
  8
001
370
    30
100
AcDbLine
 10
211.462439
 20
130.296129
 30
0.0
 11
182.785315
 21
130.296129
 31
0.0
  0
ARC
  5
516
330
1F
100
AcDbEntity
  8
001
370
    30
100
AcDbCircle
 10
181.462439
 20
128.796129
 30
0.0
 40
2.000000000000003
100
AcDbArc
 50
48.590378
 51
221.409622
  0
LINE
  5
517
330
1F
100
AcDbEntity
  8
001
370
    30
100
AcDbLine
 10
127.962439
 20
111.796129
 30
0.0
 11
178.962439
 21
111.796129
 31
0.0
  0
LINE
  5
518
330
1F
100
AcDbEntity
  8
001
370
    30
100
AcDbLine
 10
178.962439
 20
111.796129
 30
0.0
 11
179.962439
 21
112.796129
 31
0.0
  0
LINE
  5
519
330
1F
100
AcDbEntity
  8
001
370
    30
100
AcDbLine
 10
225.962439
 20
207.296129
 30
0.0
 11
214.962439
 21
207.296129
 31
0.0
  0
LINE
  5
51A
330
1F
100
AcDbEntity
  8
001
370
    30
100
AcDbLine
 10
229.162439
 20
131.296129
 30
0.0
 11
214.962439
 21
131.296129
 31
0.0
  0
LINE
  5
51B
330
1F
100
AcDbEntity
  8
001
370
    30
100
AcDbLine
 10
179.962439
 20
112.796129
 30
0.0
 11
179.962439
 21
128.796129
 31
0.0
  0
LINE
  5
51C
330
1F
100
AcDbEntity
  8
001
370
    30
100
AcDbLine
 10
214.962439
 20
131.396129
 30
0.0
 11
214.962439
 21
131.296129
 31
0.0
  0
ARC
  5
51D
330
1F
100
AcDbEntity
  8
001
370
    30
100
AcDbCircle
 10
214.562439
 20
131.396129
 30
0.0
 40
0.4
100
AcDbArc
 50
0.0
 51
90.0
  0
ARC
  5
51E
330
1F
100
AcDbEntity
  8
001
370
    30
100
AcDbCircle
 10
212.362439
 20
131.396129
 30
0.0
 40
0.4
100
AcDbArc
 50
90.0
 51
180.0
  0
LINE
  5
51F
330
1F
100
AcDbEntity
  8
001
370
    30
100
AcDbLine
 10
159.962439
 20
185.700829
 30
0.0
 11
157.962439
 21
184.546129
 31
0.0
  0
LINE
  5
520
330
1F
100
AcDbEntity
  8
001
370
    30
100
AcDbLine
 10
159.962439
 20
152.891428
 30
0.0
 11
157.962439
 21
154.046129
 31
0.0
  0
ARC
  5
521
330
1F
100
AcDbEntity
  8
001
370
    30
100
AcDbCircle
 10
160.462439
 20
199.296129
 30
0.0
 40
1.0
100
AcDbArc
 50
90.0
 51
180.0
  0
LINE
  5
522
330
1F
100
AcDbEntity
  8
001
370
    30
100
AcDbLine
 10
144.462439
 20
156.046129
 30
0.0
 11
144.462439
 21
182.546129
 31
0.0
  0
LINE
  5
523
330
1F
100
AcDbEntity
  8
001
370
    30
100
AcDbLine
 10
122.462439
 20
209.296129
 30
0.0
 11
121.962439
 21
208.796129
 31
0.0
  0
LINE
  5
524
330
1F
100
AcDbEntity
  8
001
370
    30
100
AcDbLine
 10
136.662439
 20
198.796129
 30
0.0
 11
122.962439
 21
198.796129
 31
0.0
  0
LINE
  5
525
330
1F
100
AcDbEntity
  8
001
370
    30
100
AcDbLine
 10
134.962439
 20
198.796129
 30
0.0
 11
134.962439
 21
199.296129
 31
0.0
  0
LINE
  5
526
330
1F
100
AcDbEntity
  8
001
370
    30
100
AcDbLine
 10
122.962439
 20
198.796129
 30
0.0
 11
121.962439
 21
199.796129
 31
0.0
  0
LINE
  5
527
330
1F
100
AcDbEntity
  8
001
370
    30
100
AcDbLine
 10
122.462439
 20
129.296129
 30
0.0
 11
121.962439
 21
129.796129
 31
0.0
  0
LINE
  5
528
330
1F
100
AcDbEntity
  8
001
370
    30
100
AcDbLine
 10
136.662439
 20
139.796129
 30
0.0
 11
122.962439
 21
139.796129
 31
0.0
  0
LINE
  5
529
330
1F
100
AcDbEntity
  8
001
370
    30
100
AcDbLine
 10
122.962439
 20
139.796129
 30
0.0
 11
121.962439
 21
138.796129
 31
0.0
  0
LINE
  5
52A
330
1F
100
AcDbEntity
  8
001
370
    30
100
AcDbLine
 10
144.462439
 20
156.046129
 30
0.0
 11
144.962439
 21
155.546129
 31
0.0
  0
LINE
  5
52B
330
1F
100
AcDbEntity
  8
001
370
    30
100
AcDbLine
 10
144.462439
 20
182.546129
 30
0.0
 11
144.962439
 21
183.046129
 31
0.0
  0
ARC
  5
52C
330
1F
100
AcDbEntity
  8
001
370
    30
100
AcDbCircle
 10
136.562439
 20
185.196129
 30
0.0
 40
0.4
100
AcDbArc
 50
270.0
 51
0.0
  0
ARC
  5
52D
330
1F
100
AcDbEntity
  8
001
370
    30
100
AcDbCircle
 10
136.562439
 20
153.396129
 30
0.0
 40
0.4
100
AcDbArc
 50
0.0
 51
90.0
  0
LINE
  5
52E
330
1F
100
AcDbEntity
  8
001
370
    30
100
AcDbLine
 10
137.462439
 20
140.596129
 30
0.0
 11
137.462439
 21
148.054509
 31
0.0
  0
ARC
  5
52F
330
1F
100
AcDbEntity
  8
001
370
    30
100
AcDbCircle
 10
136.662439
 20
148.054509
 30
0.0
 40
0.8
100
AcDbArc
 50
0.0
 51
67.975687
  0
LINE
  5
530
330
1F
100
AcDbEntity
  8
001
370
    30
100
AcDbLine
 10
136.962439
 20
153.396129
 30
0.0
 11
136.962439
 21
148.796129
 31
0.0
  0
LINE
  5
531
330
1F
100
AcDbEntity
  8
001
370
    30
100
AcDbLine
 10
134.962439
 20
199.296129
 30
0.0
 11
159.462439
 21
199.296129
 31
0.0
  0
LINE
  5
532
330
1F
100
AcDbEntity
  8
001
370
    30
100
AcDbLine
 10
136.962439
 20
187.296129
 30
0.0
 11
159.962439
 21
187.296129
 31
0.0
  0
ARC
  5
533
330
1F
100
AcDbEntity
  8
001
370
    30
100
AcDbCircle
 10
136.662439
 20
140.596129
 30
0.0
 40
0.8
100
AcDbArc
 50
270.0
 51
0.0
  0
LINE
  5
534
330
1F
100
AcDbEntity
  8
001
370
    30
100
AcDbLine
 10
143.962439
 20
129.796129
 30
0.0
 11
144.962439
 21
130.796129
 31
0.0
  0
ARC
  5
535
330
1F
100
AcDbEntity
  8
001
370
    30
100
AcDbCircle
 10
142.204059
 20
128.996129
 30
0.0
 40
0.8
100
AcDbArc
 50
90.0
 51
157.975687
  0
LINE
  5
536
330
1F
100
AcDbEntity
  8
001
370
    30
100
AcDbLine
 10
142.204059
 20
129.796129
 30
0.0
 11
143.962439
 21
129.796129
 31
0.0
  0
LINE
  5
537
330
1F
100
AcDbEntity
  8
001
370
    30
100
AcDbLine
 10
141.462439
 20
129.296129
 30
0.0
 11
122.462439
 21
129.296129
 31
0.0
  0
LINE
  5
538
330
1F
100
AcDbEntity
  8
001
370
    30
100
AcDbLine
 10
143.962439
 20
208.796129
 30
0.0
 11
144.962439
 21
207.796129
 31
0.0
  0
ARC
  5
539
330
1F
100
AcDbEntity
  8
001
370
    30
100
AcDbCircle
 10
142.204059
 20
209.596129
 30
0.0
 40
0.8
100
AcDbArc
 50
202.024313
 51
270.0
  0
LINE
  5
53A
330
1F
100
AcDbEntity
  8
001
370
    30
100
AcDbLine
 10
142.204059
 20
208.796129
 30
0.0
 11
143.962439
 21
208.796129
 31
0.0
  0
LINE
  5
53B
330
1F
100
AcDbEntity
  8
001
370
    30
100
AcDbLine
 10
141.462439
 20
209.296129
 30
0.0
 11
122.462439
 21
209.296129
 31
0.0
  0
LINE
  5
53C
330
1F
100
AcDbEntity
  8
001
370
    30
100
AcDbLine
 10
110.962439
 20
189.296129
 30
0.0
 11
110.962439
 21
149.296129
 31
0.0
  0
LINE
  5
53D
330
1F
100
AcDbEntity
  8
001
370
    30
100
AcDbLine
 10
124.962439
 20
185.746129
 30
0.0
 11
124.962439
 21
152.846129
 31
0.0
  0
LINE
  5
53E
330
1F
100
AcDbEntity
  8
001
370
    30
100
AcDbLine
 10
125.262439
 20
184.796129
 30
0.0
 11
125.262439
 21
153.796129
 31
0.0
  0
LINE
  5
53F
330
1F
100
AcDbEntity
  8
001
370
    30
100
AcDbLine
 10
113.127503
 20
185.546129
 30
0.0
 11
113.127503
 21
153.046129
 31
0.0
  0
LINE
  5
540
330
1F
100
AcDbEntity
  8
001
370
    30
100
AcDbLine
 10
121.962439
 20
152.046129
 30
0.0
 11
124.162439
 21
152.046129
 31
0.0
  0
ARC
  5
541
330
1F
100
AcDbEntity
  8
001
370
    30
100
AcDbCircle
 10
124.162439
 20
152.846129
 30
0.0
 40
0.7999999999999972
100
AcDbArc
 50
270.0
 51
0.0
  0
LINE
  5
542
330
1F
100
AcDbEntity
  8
001
370
    30
100
AcDbLine
 10
124.962439
 20
153.496129
 30
0.0
 11
125.262439
 21
153.796129
 31
0.0
  0
LINE
  5
543
330
1F
100
AcDbEntity
  8
001
370
    30
100
AcDbLine
 10
121.962439
 20
152.046129
 30
0.0
 11
120.962439
 21
153.046129
 31
0.0
  0
LINE
  5
544
330
1F
100
AcDbEntity
  8
001
370
    30
100
AcDbLine
 10
111.962439
 20
148.296129
 30
0.0
 11
110.962439
 21
149.296129
 31
0.0
  0
LINE
  5
545
330
1F
100
AcDbEntity
  8
001
370
    30
100
AcDbLine
 10
122.662439
 20
148.296129
 30
0.0
 11
111.962439
 21
148.296129
 31
0.0
  0
LINE
  5
546
330
1F
100
AcDbEntity
  8
001
370
    30
100
AcDbLine
 10
135.862439
 20
187.796129
 30
0.0
 11
161.962439
 21
187.796129
 31
0.0
  0
LINE
  5
547
330
1F
100
AcDbEntity
  8
001
370
    30
100
AcDbLine
 10
161.962439
 20
198.296129
 30
0.0
 11
162.462439
 21
197.796129
 31
0.0
  0
LINE
  5
548
330
1F
100
AcDbEntity
  8
001
370
    30
100
AcDbLine
 10
123.962439
 20
198.296129
 30
0.0
 11
123.462439
 21
197.796129
 31
0.0
  0
LINE
  5
549
330
1F
100
AcDbEntity
  8
001
370
    30
100
AcDbLine
 10
161.962439
 20
198.296129
 30
0.0
 11
123.962439
 21
198.296129
 31
0.0
  0
LINE
  5
54A
330
1F
100
AcDbEntity
  8
001
370
    30
100
AcDbLine
 10
123.462439
 20
147.496129
 30
0.0
 11
123.462439
 21
140.796129
 31
0.0
  0
LINE
  5
54B
330
1F
100
AcDbEntity
  8
001
370
    30
100
AcDbLine
 10
123.962439
 20
140.296129
 30
0.0
 11
123.462439
 21
140.796129
 31
0.0
  0
LINE
  5
54C
330
1F
100
AcDbEntity
  8
001
370
    30
100
AcDbLine
 10
123.962439
 20
140.296129
 30
0.0
 11
135.462439
 21
140.296129
 31
0.0
  0
ARC
  5
54D
330
1F
100
AcDbEntity
  8
001
370
    30
100
AcDbCircle
 10
122.662439
 20
147.496129
 30
0.0
 40
0.8
100
AcDbArc
 50
0.0
 51
90.0
  0
LINE
  5
54E
330
1F
100
AcDbEntity
  8
001
370
    30
100
AcDbLine
 10
121.962439
 20
186.546129
 30
0.0
 11
124.162439
 21
186.546129
 31
0.0
  0
ARC
  5
54F
330
1F
100
AcDbEntity
  8
001
370
    30
100
AcDbCircle
 10
124.162439
 20
185.746129
 30
0.0
 40
0.7999999999999972
100
AcDbArc
 50
0.0
 51
90.0
  0
LINE
  5
550
330
1F
100
AcDbEntity
  8
001
370
    30
100
AcDbLine
 10
124.962439
 20
185.096129
 30
0.0
 11
125.262439
 21
184.796129
 31
0.0
  0
LINE
  5
551
330
1F
100
AcDbEntity
  8
001
370
    30
100
AcDbLine
 10
121.962439
 20
186.546129
 30
0.0
 11
120.962439
 21
185.546129
 31
0.0
  0
LINE
  5
552
330
1F
100
AcDbEntity
  8
001
370
    30
100
AcDbLine
 10
111.962439
 20
190.296129
 30
0.0
 11
110.962439
 21
189.296129
 31
0.0
  0
LINE
  5
553
330
1F
100
AcDbEntity
  8
001
370
    30
100
AcDbLine
 10
122.662439
 20
190.296129
 30
0.0
 11
111.962439
 21
190.296129
 31
0.0
  0
ARC
  5
554
330
1F
100
AcDbEntity
  8
001
370
    30
100
AcDbCircle
 10
122.662439
 20
191.096129
 30
0.0
 40
0.8
100
AcDbArc
 50
270.0
 51
0.0
  0
LINE
  5
555
330
1F
100
AcDbEntity
  8
001
370
    30
100
AcDbLine
 10
123.462439
 20
191.096129
 30
0.0
 11
123.462439
 21
197.796129
 31
0.0
  0
LINE
  5
556
330
1F
100
AcDbEntity
  8
001
370
    30
100
AcDbLine
 10
130.462439
 20
198.296129
 30
0.0
 11
130.462439
 21
187.296129
 31
0.0
  0
LINE
  5
557
330
1F
100
AcDbEntity
  8
001
370
    30
100
AcDbLine
 10
130.462439
 20
196.296129
 30
0.0
 11
162.962439
 21
196.296129
 31
0.0
  0
LINE
  5
558
330
1F
100
AcDbEntity
  8
001
370
    30
100
AcDbLine
 10
130.462439
 20
189.296129
 30
0.0
 11
162.962439
 21
189.296129
 31
0.0
  0
LINE
  5
559
330
1F
100
AcDbEntity
  8
001
370
    30
100
AcDbLine
 10
110.962439
 20
187.296129
 30
0.0
 11
130.462439
 21
187.296129
 31
0.0
  0
LINE
  5
55A
330
1F
100
AcDbEntity
  8
001
  6
CENTER
 62
     3
370
     9
100
AcDbLine
 10
122.818293
 20
192.796129
 30
0.0
 11
183.56677
 21
192.796129
 31
0.0
  0
LINE
  5
55B
330
1F
100
AcDbEntity
  8
001
370
    30
100
AcDbLine
 10
136.562439
 20
153.796129
 30
0.0
 11
125.262439
 21
153.796129
 31
0.0
  0
LINE
  5
55C
330
1F
100
AcDbEntity
  8
001
370
    30
100
AcDbLine
 10
136.562439
 20
184.796129
 30
0.0
 11
125.262439
 21
184.796129
 31
0.0
  0
LINE
  5
55D
330
1F
100
AcDbEntity
  8
001
370
    30
100
AcDbLine
 10
113.127503
 20
185.546129
 30
0.0
 11
110.962439
 21
186.796129
 31
0.0
  0
LINE
  5
55E
330
1F
100
AcDbEntity
  8
001
370
    30
100
AcDbLine
 10
113.127503
 20
185.546129
 30
0.0
 11
120.962439
 21
185.546129
 31
0.0
  0
LINE
  5
55F
330
1F
100
AcDbEntity
  8
001
 62
     3
370
     9
100
AcDbLine
 10
111.828464
 20
186.296129
 30
0.0
 11
121.712439
 21
186.296129
 31
0.0
  0
LINE
  5
560
330
1F
100
AcDbEntity
  8
001
370
    30
100
AcDbLine
 10
113.127503
 20
153.046129
 30
0.0
 11
110.962439
 21
151.796129
 31
0.0
  0
LINE
  5
561
330
1F
100
AcDbEntity
  8
001
370
    30
100
AcDbLine
 10
113.127503
 20
153.046129
 30
0.0
 11
120.962439
 21
153.046129
 31
0.0
  0
LINE
  5
562
330
1F
100
AcDbEntity
  8
001
 62
     3
370
     9
100
AcDbLine
 10
111.828464
 20
152.296129
 30
0.0
 11
121.712439
 21
152.296129
 31
0.0
  0
LINE
  5
563
330
1F
100
AcDbEntity
  8
001
370
    30
100
AcDbLine
 10
135.462439
 20
186.696129
 30
0.0
 11
135.462439
 21
187.396129
 31
0.0
  0
ARC
  5
564
330
1F
100
AcDbEntity
  8
001
370
    30
100
AcDbCircle
 10
135.862439
 20
187.396129
 30
0.0
 40
0.4
100
AcDbArc
 50
90.0
 51
180.0
  0
ARC
  5
565
330
1F
100
AcDbEntity
  8
001
370
    30
100
AcDbCircle
 10
135.862439
 20
186.696129
 30
0.0
 40
0.4
100
AcDbArc
 50
180.0
 51
270.0
  0
LINE
  5
566
330
1F
100
AcDbEntity
  8
001
370
    30
100
AcDbLine
 10
135.862439
 20
186.296129
 30
0.0
 11
135.962439
 21
186.296129
 31
0.0
  0
ARC
  5
567
330
1F
100
AcDbEntity
  8
001
370
    30
100
AcDbCircle
 10
135.862439
 20
151.896129
 30
0.0
 40
0.4
100
AcDbArc
 50
90.0
 51
180.0
  0
LINE
  5
568
330
1F
100
AcDbEntity
  8
001
370
    30
100
AcDbLine
 10
135.862439
 20
152.296129
 30
0.0
 11
135.962439
 21
152.296129
 31
0.0
  0
LINE
  5
569
330
1F
100
AcDbEntity
  8
001
370
    30
100
AcDbLine
 10
135.462439
 20
151.896129
 30
0.0
 11
135.462439
 21
140.296129
 31
0.0
  0
LINE
  5
56A
330
1F
100
AcDbEntity
  8
001
370
    30
100
AcDbLine
 10
161.962439
 20
187.796129
 30
0.0
 11
162.462439
 21
188.084804
 31
0.0
  0
LINE
  5
56B
330
1F
100
AcDbEntity
  8
001
370
    30
100
AcDbLine
 10
135.462439
 20
184.796129
 30
0.0
 11
135.962439
 21
185.296129
 31
0.0
  0
LINE
  5
56C
330
1F
100
AcDbEntity
  8
001
370
    30
100
AcDbLine
 10
135.462439
 20
153.796129
 30
0.0
 11
135.962439
 21
153.296129
 31
0.0
  0
LINE
  5
56D
330
1F
100
AcDbEntity
  8
001
370
    30
100
AcDbLine
 10
167.012439
 20
152.796129
 30
0.0
 11
169.912439
 21
152.796129
 31
0.0
  0
LINE
  5
56E
330
1F
100
AcDbEntity
  8
001
370
    30
100
AcDbLine
 10
170.212439
 20
149.796129
 30
0.0
 11
170.212439
 21
152.496129
 31
0.0
  0
LINE
  5
56F
330
1F
100
AcDbEntity
  8
001
370
    30
100
AcDbLine
 10
166.712439
 20
149.796129
 30
0.0
 11
166.712439
 21
152.496129
 31
0.0
  0
LINE
  5
570
330
1F
100
AcDbEntity
  8
001
370
    30
100
AcDbLine
 10
169.912439
 20
152.796129
 30
0.0
 11
170.212439
 21
152.496129
 31
0.0
  0
LINE
  5
571
330
1F
100
AcDbEntity
  8
001
370
    30
100
AcDbLine
 10
167.012439
 20
152.796129
 30
0.0
 11
166.712439
 21
152.496129
 31
0.0
  0
LINE
  5
572
330
1F
100
AcDbEntity
  8
001
370
    30
100
AcDbLine
 10
170.212439
 20
152.496129
 30
0.0
 11
166.712439
 21
152.496129
 31
0.0
  0
LINE
  5
573
330
1F
100
AcDbEntity
  8
001
370
    30
100
AcDbLine
 10
166.712439
 20
149.796129
 30
0.0
 11
170.212439
 21
149.796129
 31
0.0
  0
LINE
  5
574
330
1F
100
AcDbEntity
  8
001
370
    30
100
AcDbLine
 10
166.712439
 20
149.796129
 30
0.0
 11
166.212439
 21
149.296129
 31
0.0
  0
LINE
  5
575
330
1F
100
AcDbEntity
  8
001
370
    30
100
AcDbLine
 10
170.212439
 20
149.796129
 30
0.0
 11
170.712439
 21
149.296129
 31
0.0
  0
LINE
  5
576
330
1F
100
AcDbEntity
  8
001
370
    30
100
AcDbLine
 10
166.212439
 20
149.296129
 30
0.0
 11
170.712439
 21
149.296129
 31
0.0
  0
LINE
  5
577
330
1F
100
AcDbEntity
  8
001
370
    30
100
AcDbLine
 10
121.962439
 20
186.546129
 30
0.0
 11
121.962439
 21
152.046129
 31
0.0
  0
LINE
  5
578
330
1F
100
AcDbEntity
  8
001
370
    30
100
AcDbLine
 10
120.962439
 20
185.546129
 30
0.0
 11
120.962439
 21
153.046129
 31
0.0
  0
LINE
  5
579
330
1F
100
AcDbEntity
  8
001
370
    30
100
AcDbLine
 10
170.462439
 20
212.296129
 30
0.0
 11
127.462439
 21
212.296129
 31
0.0
  0
LINE
  5
57A
330
1F
100
AcDbEntity
  8
001
370
    30
100
AcDbLine
 10
126.962439
 20
112.796129
 30
0.0
 11
126.962439
 21
129.296129
 31
0.0
  0
ARC
  5
57B
330
1F
100
AcDbEntity
  8
001
370
    30
100
AcDbCircle
 10
136.662439
 20
197.996129
 30
0.0
 40
0.8
100
AcDbArc
 50
22.024313
 51
90.0
  0
LINE
  5
57C
330
1F
100
AcDbEntity
  8
001
370
    30
100
AcDbLine
 10
136.962439
 20
187.796129
 30
0.0
 11
136.962439
 21
185.196129
 31
0.0
  0
LINE
  5
57D
330
1F
100
AcDbEntity
  8
001
370
    30
100
AcDbLine
 10
144.962439
 20
187.796129
 30
0.0
 11
144.962439
 21
130.796129
 31
0.0
  0
LINE
  5
57E
330
1F
100
AcDbEntity
  8
001
370
    30
100
AcDbLine
 10
159.462439
 20
199.296129
 30
0.0
 11
159.462439
 21
198.296129
 31
0.0
  0
LINE
  5
57F
330
1F
100
AcDbEntity
  8
001
370
    30
100
AcDbLine
 10
122.962439
 20
198.796129
 30
0.0
 11
122.962439
 21
196.820577
 31
0.0
  0
LINE
  5
580
330
1F
100
AcDbEntity
  8
001
370
    30
100
AcDbLine
 10
121.962439
 20
196.820577
 30
0.0
 11
121.962439
 21
208.796129
 31
0.0
  0
LINE
  5
581
330
1F
100
AcDbEntity
  8
001
370
    30
100
AcDbLine
 10
135.962439
 20
186.296129
 30
0.0
 11
135.962439
 21
184.796129
 31
0.0
  0
LINE
  5
582
330
1F
100
AcDbEntity
  8
001
370
    30
100
AcDbLine
 10
135.962439
 20
153.796129
 30
0.0
 11
135.962439
 21
152.296129
 31
0.0
  0
LINE
  5
583
330
1F
100
AcDbEntity
  8
001
370
    30
100
AcDbLine
 10
216.962439
 20
208.096129
 30
0.0
 11
216.962439
 21
207.296129
 31
0.0
  0
LINE
  5
584
330
1F
100
AcDbEntity
  8
001
370
    30
100
AcDbLine
 10
216.962439
 20
131.296129
 30
0.0
 11
216.962439
 21
130.496129
 31
0.0
  0
LINE
  5
585
330
1F
100
AcDbEntity
  8
001
370
    30
100
AcDbLine
 10
171.548225
 20
138.296129
 30
0.0
 11
170.712439
 21
138.296129
 31
0.0
  0
LINE
  5
586
330
1F
100
AcDbEntity
  8
001
370
    30
100
AcDbLine
 10
166.212439
 20
138.296129
 30
0.0
 11
160.462439
 21
138.296129
 31
0.0
  0
LINE
  5
587
330
1F
100
AcDbEntity
  8
001
370
    30
100
AcDbLine
 10
166.212439
 20
139.296129
 30
0.0
 11
165.462439
 21
139.296129
 31
0.0
  0
LINE
  5
588
330
1F
100
AcDbEntity
  8
001
370
    30
100
AcDbLine
 10
194.962439
 20
151.296129
 30
0.0
 11
170.212439
 21
151.296129
 31
0.0
  0
LINE
  5
589
330
1F
100
AcDbEntity
  8
001
370
    30
100
AcDbLine
 10
166.712439
 20
151.296129
 30
0.0
 11
163.462439
 21
151.296129
 31
0.0
  0
LINE
  5
58A
330
1F
100
AcDbEntity
  8
001
370
    30
100
AcDbLine
 10
232.962439
 20
147.796129
 30
0.0
 11
232.962439
 21
190.796129
 31
0.0
  0
LINE
  5
58B
330
1F
100
AcDbEntity
  8
001
370
    30
100
AcDbLine
 10
145.962439
 20
182.296129
 30
0.0
 11
203.701244
 21
182.296129
 31
0.0
  0
LINE
  5
58C
330
1F
100
AcDbEntity
  8
001
370
    30
100
AcDbLine
 10
178.962439
 20
187.296129
 30
0.0
 11
180.790866
 21
185.467701
 31
0.0
  0
LINE
  5
58D
330
1F
100
AcDbEntity
  8
001
370
    30
100
AcDbLine
 10
210.962439
 20
187.769589
 30
0.0
 11
208.660552
 21
185.467701
 31
0.0
  0
LINE
  5
58E
330
1F
100
AcDbEntity
  8
001
370
    30
100
AcDbLine
 10
183.619293
 20
184.296129
 30
0.0
 11
205.832124
 21
184.296129
 31
0.0
  0
ARC
  5
58F
330
1F
100
AcDbEntity
  8
001
370
    30
100
AcDbCircle
 10
183.619293
 20
188.296129
 30
0.0
 40
4.0
100
AcDbArc
 50
225.0
 51
270.0
  0
ARC
  5
590
330
1F
100
AcDbEntity
  8
001
370
    30
100
AcDbCircle
 10
205.832124
 20
188.296129
 30
0.0
 40
3.999999999999995
100
AcDbArc
 50
270.0
 51
315.0
  0
LINE
  5
591
330
1F
100
AcDbEntity
  8
001
370
    30
100
AcDbLine
 10
205.99555
 20
181.572737
 30
0.0
 11
209.246883
 21
179.296129
 31
0.0
  0
ARC
  5
592
330
1F
100
AcDbEntity
  8
001
370
    30
100
AcDbCircle
 10
203.701244
 20
178.296129
 30
0.0
 40
4.0
100
AcDbArc
 50
55.0
 51
90.0
  0
LINE
  5
593
330
1F
100
AcDbEntity
  8
001
370
    30
100
AcDbLine
 10
232.462439
 20
191.296129
 30
0.0
 11
230.962439
 21
191.296129
 31
0.0
  0
LINE
  5
594
330
1F
100
AcDbEntity
  8
001
370
    30
100
AcDbLine
 10
209.246883
 20
179.296129
 30
0.0
 11
232.462439
 21
179.296129
 31
0.0
  0
LINE
  5
595
330
1F
100
AcDbEntity
  8
001
370
    30
100
AcDbLine
 10
145.962439
 20
156.296129
 30
0.0
 11
203.701244
 21
156.296129
 31
0.0
  0
LINE
  5
596
330
1F
100
AcDbEntity
  8
001
370
    30
100
AcDbLine
 10
178.962439
 20
151.296129
 30
0.0
 11
180.790866
 21
153.124556
 31
0.0
  0
LINE
  5
597
330
1F
100
AcDbEntity
  8
001
370
    30
100
AcDbLine
 10
210.962439
 20
150.822668
 30
0.0
 11
208.660552
 21
153.124556
 31
0.0
  0
LINE
  5
598
330
1F
100
AcDbEntity
  8
001
370
    30
100
AcDbLine
 10
183.619293
 20
154.296129
 30
0.0
 11
205.832124
 21
154.296129
 31
0.0
  0
ARC
  5
599
330
1F
100
AcDbEntity
  8
001
370
    30
100
AcDbCircle
 10
183.619293
 20
150.296129
 30
0.0
 40
4.000000000000002
100
AcDbArc
 50
90.0
 51
135.0
  0
ARC
  5
59A
330
1F
100
AcDbEntity
  8
001
370
    30
100
AcDbCircle
 10
205.832124
 20
150.296129
 30
0.0
 40
4.0
100
AcDbArc
 50
45.0
 51
90.0
  0
LINE
  5
59B
330
1F
100
AcDbEntity
  8
001
370
    30
100
AcDbLine
 10
205.99555
 20
157.01952
 30
0.0
 11
209.246883
 21
159.296129
 31
0.0
  0
ARC
  5
59C
330
1F
100
AcDbEntity
  8
001
370
    30
100
AcDbCircle
 10
203.701244
 20
160.296129
 30
0.0
 40
4.0
100
AcDbArc
 50
270.0
 51
305.0
  0
LINE
  5
59D
330
1F
100
AcDbEntity
  8
001
370
    30
100
AcDbLine
 10
232.462439
 20
147.296129
 30
0.0
 11
230.962439
 21
147.296129
 31
0.0
  0
LINE
  5
59E
330
1F
100
AcDbEntity
  8
001
370
    30
100
AcDbLine
 10
209.246883
 20
159.296129
 30
0.0
 11
232.462439
 21
159.296129
 31
0.0
  0
LINE
  5
59F
330
1F
100
AcDbEntity
  8
001
370
    30
100
AcDbLine
 10
232.462439
 20
179.296129
 30
0.0
 11
232.962439
 21
179.796129
 31
0.0
  0
LINE
  5
5A0
330
1F
100
AcDbEntity
  8
001
370
    30
100
AcDbLine
 10
232.462439
 20
159.296129
 30
0.0
 11
232.962439
 21
158.796129
 31
0.0
  0
LINE
  5
5A1
330
1F
100
AcDbEntity
  8
001
370
    30
100
AcDbLine
 10
232.462439
 20
179.296129
 30
0.0
 11
232.462439
 21
159.296129
 31
0.0
  0
LINE
  5
5A2
330
1F
100
AcDbEntity
  8
001
  6
CENTER
 62
     3
370
     9
100
AcDbLine
 10
184.962439
 20
180.657679
 30
0.0
 11
184.962439
 21
186.145666
 31
0.0
  0
LINE
  5
5A3
330
1F
100
AcDbEntity
  8
001
370
    30
100
AcDbLine
 10
182.462439
 20
182.296129
 30
0.0
 11
182.462439
 21
184.46707
 31
0.0
  0
LINE
  5
5A4
330
1F
100
AcDbEntity
  8
001
370
    30
100
AcDbLine
 10
187.462439
 20
182.296129
 30
0.0
 11
187.462439
 21
184.296129
 31
0.0
  0
LINE
  5
5A5
330
1F
100
AcDbEntity
  8
001
370
    30
100
AcDbLine
 10
232.462439
 20
191.296129
 30
0.0
 11
232.962439
 21
190.796129
 31
0.0
  0
LINE
  5
5A6
330
1F
100
AcDbEntity
  8
001
370
    30
100
AcDbLine
 10
232.962439
 20
147.796129
 30
0.0
 11
232.462439
 21
147.296129
 31
0.0
  0
LINE
  5
5A7
330
1F
100
AcDbEntity
  8
001
  6
CENTER
 62
     3
370
     9
100
AcDbLine
 10
106.761096
 20
169.296129
 30
0.0
 11
236.148068
 21
169.296129
 31
0.0
  0
LINE
  5
5A8
330
1F
100
AcDbEntity
  8
001
370
    30
100
AcDbLine
 10
162.162439
 20
154.546129
 30
0.0
 11
159.962439
 21
154.546129
 31
0.0
  0
LINE
  5
5A9
330
1F
100
AcDbEntity
  8
001
370
    30
100
AcDbLine
 10
162.962439
 20
151.796129
 30
0.0
 11
162.962439
 21
153.746129
 31
0.0
  0
LINE
  5
5AA
330
1F
100
AcDbEntity
  8
001
370
    30
100
AcDbLine
 10
163.462439
 20
151.296129
 30
0.0
 11
162.962439
 21
151.796129
 31
0.0
  0
ARC
  5
5AB
330
1F
100
AcDbEntity
  8
001
370
    30
100
AcDbCircle
 10
162.162439
 20
153.746129
 30
0.0
 40
0.7999999999999972
100
AcDbArc
 50
0.0
 51
90.0
  0
LINE
  5
5AC
330
1F
100
AcDbEntity
  8
001
370
    30
100
AcDbLine
 10
162.162439
 20
184.046129
 30
0.0
 11
159.962439
 21
184.046129
 31
0.0
  0
LINE
  5
5AD
330
1F
100
AcDbEntity
  8
001
370
    30
100
AcDbLine
 10
162.962439
 20
186.796129
 30
0.0
 11
162.962439
 21
184.846129
 31
0.0
  0
LINE
  5
5AE
330
1F
100
AcDbEntity
  8
001
370
    30
100
AcDbLine
 10
163.462439
 20
187.296129
 30
0.0
 11
162.962439
 21
186.796129
 31
0.0
  0
ARC
  5
5AF
330
1F
100
AcDbEntity
  8
001
370
    30
100
AcDbCircle
 10
162.162439
 20
184.846129
 30
0.0
 40
0.7999999999999972
100
AcDbArc
 50
270.0
 51
0.0
  0
LINE
  5
5B0
330
1F
100
AcDbEntity
  8
001
370
    30
100
AcDbLine
 10
158.712439
 20
185.296129
 30
0.0
 11
146.962439
 21
185.296129
 31
0.0
  0
LINE
  5
5B1
330
1F
100
AcDbEntity
  8
001
 62
     3
370
     9
100
AcDbLine
 10
159.462439
 20
184.546129
 30
0.0
 11
145.663401
 21
184.546129
 31
0.0
  0
LINE
  5
5B2
330
1F
100
AcDbEntity
  8
001
370
    30
100
AcDbLine
 10
146.962439
 20
185.296129
 30
0.0
 11
144.962439
 21
184.141428
 31
0.0
  0
LINE
  5
5B3
330
1F
100
AcDbEntity
  8
001
370
    30
100
AcDbLine
 10
159.962439
 20
184.046129
 30
0.0
 11
158.712439
 21
185.296129
 31
0.0
  0
LINE
  5
5B4
330
1F
100
AcDbEntity
  8
001
370
    30
100
AcDbLine
 10
162.962439
 20
153.296129
 30
0.0
 11
171.462439
 21
153.296129
 31
0.0
  0
ARC
  5
5B5
330
1F
100
AcDbEntity
  8
001
370
    30
100
AcDbCircle
 10
171.462439
 20
145.796129
 30
0.0
 40
7.500000000000002
100
AcDbArc
 50
47.166572
 51
90.0
  0
LINE
  5
5B6
330
1F
100
AcDbEntity
  8
001
370
    30
100
AcDbLine
 10
158.712439
 20
153.296129
 30
0.0
 11
146.962439
 21
153.296129
 31
0.0
  0
LINE
  5
5B7
330
1F
100
AcDbEntity
  8
001
 62
     3
370
     9
100
AcDbLine
 10
159.462439
 20
154.046129
 30
0.0
 11
145.663401
 21
154.046129
 31
0.0
  0
LINE
  5
5B8
330
1F
100
AcDbEntity
  8
001
370
    30
100
AcDbLine
 10
146.962439
 20
153.296129
 30
0.0
 11
144.962439
 21
154.450829
 31
0.0
  0
LINE
  5
5B9
330
1F
100
AcDbEntity
  8
001
370
    30
100
AcDbLine
 10
145.962439
 20
156.296129
 30
0.0
 11
144.974282
 21
155.725616
 31
0.0
  0
LINE
  5
5BA
330
1F
100
AcDbEntity
  8
001
370
    30
100
AcDbLine
 10
159.962439
 20
154.546129
 30
0.0
 11
158.712439
 21
153.296129
 31
0.0
  0
LINE
  5
5BB
330
1F
100
AcDbEntity
  8
001
370
    30
100
AcDbLine
 10
145.962439
 20
182.296129
 30
0.0
 11
144.974282
 21
182.866641
 31
0.0
  0
LINE
  5
5BC
330
1F
100
AcDbEntity
  8
001
370
    30
100
AcDbLine
 10
145.962439
 20
156.296129
 30
0.0
 11
145.962439
 21
182.296129
 31
0.0
  0
LINE
  5
5BD
330
1F
100
AcDbEntity
  8
001
370
    30
100
AcDbLine
 10
209.246883
 20
179.296129
 30
0.0
 11
209.246883
 21
159.296129
 31
0.0
  0
LINE
  5
5BE
330
1F
100
AcDbEntity
  8
001
370
    30
100
AcDbLine
 10
204.962439
 20
181.572737
 30
0.0
 11
204.962439
 21
157.01952
 31
0.0
  0
LINE
  5
5BF
330
1F
100
AcDbEntity
  8
001
370
    30
100
AcDbLine
 10
229.904521
 20
191.121129
 30
0.0
 11
230.055489
 21
191.121129
 31
0.0
  0
LINE
  5
5C0
330
1F
100
AcDbEntity
  8
001
370
    30
100
AcDbLine
 10
210.26226
 20
150.946129
 30
0.0
 11
230.962439
 21
147.296129
 31
0.0
  0
LINE
  5
5C1
330
1F
100
AcDbEntity
  8
001
370
    30
100
AcDbLine
 10
210.26226
 20
187.646129
 30
0.0
 11
230.962439
 21
191.296129
 31
0.0
  0
LINE
  5
5C2
330
1F
100
AcDbEntity
  8
001
 62
     3
370
     9
100
AcDbLine
 10
145.828464
 20
185.296129
 30
0.0
 11
146.962439
 21
185.296129
 31
0.0
  0
LINE
  5
5C3
330
1F
100
AcDbEntity
  8
001
 62
     3
370
     9
100
AcDbLine
 10
158.712439
 20
185.296129
 30
0.0
 11
159.261477
 21
185.296129
 31
0.0
  0
LINE
  5
5C4
330
1F
100
AcDbEntity
  8
001
 62
     3
370
     9
100
AcDbLine
 10
145.828464
 20
153.296129
 30
0.0
 11
146.962439
 21
153.296129
 31
0.0
  0
LINE
  5
5C5
330
1F
100
AcDbEntity
  8
001
 62
     3
370
     9
100
AcDbLine
 10
158.712439
 20
153.296129
 30
0.0
 11
159.261477
 21
153.296129
 31
0.0
  0
LINE
  5
5C6
330
1F
100
AcDbEntity
  8
001
370
    30
100
AcDbLine
 10
159.962439
 20
187.796129
 30
0.0
 11
159.962439
 21
184.046129
 31
0.0
  0
LINE
  5
5C7
330
1F
100
AcDbEntity
  8
001
370
    30
100
AcDbLine
 10
159.962439
 20
154.546129
 30
0.0
 11
159.962439
 21
141.296129
 31
0.0
  0
LINE
  5
5C8
330
1F
100
AcDbEntity
  8
001
370
    30
100
AcDbLine
 10
162.462439
 20
151.296129
 30
0.0
 11
162.462439
 21
140.099976
 31
0.0
  0
LINE
  5
5C9
330
1F
100
AcDbEntity
  8
001
370
    30
100
AcDbLine
 10
194.962439
 20
187.296129
 30
0.0
 11
194.962439
 21
185.587584
 31
0.0
  0
LINE
  5
5CA
330
1F
100
AcDbEntity
  8
001
370
    30
100
AcDbLine
 10
194.962439
 20
151.296129
 30
0.0
 11
194.962439
 21
153.004673
 31
0.0
  0
LINE
  5
5CB
330
1F
100
AcDbEntity
  8
001
370
    30
100
AcDbLine
 10
231.962439
 20
206.296129
 30
0.0
 11
231.962439
 21
191.296129
 31
0.0
  0
LINE
  5
5CC
330
1F
100
AcDbEntity
  8
001
370
    30
100
AcDbLine
 10
231.962439
 20
147.296129
 30
0.0
 11
231.962439
 21
132.296129
 31
0.0
  0
LINE
  5
5CD
330
1F
100
AcDbEntity
  8
001
370
    30
100
AcDbLine
 10
230.962439
 20
144.296129
 30
0.0
 11
230.962439
 21
147.296129
 31
0.0
  0
LINE
  5
5CE
330
1F
100
AcDbEntity
  8
001
370
    30
100
AcDbLine
 10
229.962439
 20
132.096129
 30
0.0
 11
229.962439
 21
147.472456
 31
0.0
  0
LINE
  5
5CF
330
1F
100
AcDbEntity
  8
001
 62
     3
370
     9
100
AcDbLine
 10
230.526005
 20
144.296129
 30
0.0
 11
230.962439
 21
144.732562
 31
0.0
  0
LINE
  5
5D0
330
1F
100
AcDbEntity
  8
001
 62
     3
370
     9
100
AcDbLine
 10
229.962439
 20
144.439669
 30
0.0
 11
230.962439
 21
145.439669
 31
0.0
  0
LINE
  5
5D1
330
1F
100
AcDbEntity
  8
001
 62
     3
370
     9
100
AcDbLine
 10
229.962439
 20
145.146776
 30
0.0
 11
230.962439
 21
146.146776
 31
0.0
  0
LINE
  5
5D2
330
1F
100
AcDbEntity
  8
001
 62
     3
370
     9
100
AcDbLine
 10
229.962439
 20
145.853883
 30
0.0
 11
230.962439
 21
146.853883
 31
0.0
  0
LINE
  5
5D3
330
1F
100
AcDbEntity
  8
001
 62
     3
370
     9
100
AcDbLine
 10
229.962439
 20
146.560989
 30
0.0
 11
230.73728
 21
147.33583
 31
0.0
  0
LINE
  5
5D4
330
1F
100
AcDbEntity
  8
001
 62
     3
370
     9
100
AcDbLine
 10
229.962439
 20
147.268096
 30
0.0
 11
230.136166
 21
147.441823
 31
0.0
  0
LINE
  5
5D5
330
1F
100
AcDbEntity
  8
001
370
    30
100
AcDbLine
 10
126.962439
 20
209.296129
 30
0.0
 11
126.962439
 21
212.796129
 31
0.0
  0
LINE
  5
5D6
330
1F
100
AcDbEntity
  8
001
370
    30
100
AcDbLine
 10
126.962439
 20
220.796129
 30
0.0
 11
126.962439
 21
225.796129
 31
0.0
  0
LINE
  5
5D7
330
1F
100
AcDbEntity
  8
001
370
    30
100
AcDbLine
 10
127.462439
 20
221.296129
 30
0.0
 11
127.462439
 21
220.796129
 31
0.0
  0
LINE
  5
5D8
330
1F
100
AcDbEntity
  8
001
370
    30
100
AcDbLine
 10
127.462439
 20
212.796129
 30
0.0
 11
127.462439
 21
212.296129
 31
0.0
  0
LINE
  5
5D9
330
1F
100
AcDbEntity
  8
001
370
    30
100
AcDbLine
 10
170.462439
 20
212.296129
 30
0.0
 11
170.462439
 21
212.796129
 31
0.0
  0
LINE
  5
5DA
330
1F
100
AcDbEntity
  8
001
370
    30
100
AcDbLine
 10
170.462439
 20
220.796129
 30
0.0
 11
170.462439
 21
221.296129
 31
0.0
  0
LINE
  5
5DB
330
1F
100
AcDbEntity
  8
001
370
    30
100
AcDbLine
 10
181.462439
 20
195.296129
 30
0.0
 11
182.905815
 21
192.796129
 31
0.0
  0
LINE
  5
5DC
330
1F
100
AcDbEntity
  8
001
370
    30
100
AcDbLine
 10
181.462439
 20
190.296129
 30
0.0
 11
182.905815
 21
192.796129
 31
0.0
  0
LINE
  5
5DD
330
1F
100
AcDbEntity
  8
001
370
    30
100
AcDbLine
 10
181.462439
 20
195.296129
 30
0.0
 11
181.462439
 21
190.296129
 31
0.0
  0
LINE
  5
5DE
330
1F
100
AcDbEntity
  8
001
370
    30
100
AcDbLine
 10
162.962439
 20
196.296129
 30
0.0
 11
163.539789
 21
195.296129
 31
0.0
  0
LINE
  5
5DF
330
1F
100
AcDbEntity
  8
001
370
    30
100
AcDbLine
 10
162.962439
 20
189.296129
 30
0.0
 11
163.539789
 21
190.296129
 31
0.0
  0
LINE
  5
5E0
330
1F
100
AcDbEntity
  8
001
370
    30
100
AcDbLine
 10
175.262439
 20
195.296129
 30
0.0
 11
181.462439
 21
195.296129
 31
0.0
  0
LINE
  5
5E1
330
1F
100
AcDbEntity
  8
001
370
    30
100
AcDbLine
 10
175.262439
 20
190.296129
 30
0.0
 11
181.462439
 21
190.296129
 31
0.0
  0
LINE
  5
5E2
330
1F
100
AcDbEntity
  8
001
 62
     3
370
     9
100
AcDbLine
 10
174.762439
 20
195.796129
 30
0.0
 11
178.462439
 21
195.796129
 31
0.0
  0
LINE
  5
5E3
330
1F
100
AcDbEntity
  8
001
 62
     3
370
     9
100
AcDbLine
 10
174.762439
 20
189.796129
 30
0.0
 11
178.462439
 21
189.796129
 31
0.0
  0
LINE
  5
5E4
330
1F
100
AcDbEntity
  8
001
370
    30
100
AcDbLine
 10
162.962439
 20
196.296129
 30
0.0
 11
162.962439
 21
195.796129
 31
0.0
  0
LINE
  5
5E5
330
1F
100
AcDbEntity
  8
001
370
    30
100
AcDbLine
 10
162.962439
 20
189.796129
 30
0.0
 11
162.962439
 21
189.296129
 31
0.0
  0
LINE
  5
5E6
330
1F
100
AcDbEntity
  8
001
370
    30
100
AcDbLine
 10
162.462439
 20
198.492281
 30
0.0
 11
162.462439
 21
195.796129
 31
0.0
  0
LINE
  5
5E7
330
1F
100
AcDbEntity
  8
001
370
    30
100
AcDbLine
 10
162.462439
 20
189.796129
 30
0.0
 11
162.462439
 21
187.296129
 31
0.0
  0
CIRCLE
  5
5E8
330
1F
100
AcDbEntity
  8
001
370
    30
100
AcDbCircle
 10
328.22234
 20
169.296129
 30
0.0
 40
38.99999999999989
  0
CIRCLE
  5
5E9
330
1F
100
AcDbEntity
  8
001
370
    30
100
AcDbCircle
 10
328.22234
 20
169.296129
 30
0.0
 40
57.49999999999989
  0
LINE
  5
5EA
330
1F
100
AcDbEntity
  8
001
  6
CENTER
 62
     3
370
     9
100
AcDbLine
 10
268.72234
 20
169.296129
 30
0.0
 11
387.72234
 21
169.296129
 31
0.0
  0
LINE
  5
5EB
330
1F
100
AcDbEntity
  8
001
  6
CENTER
 62
     3
370
     9
100
AcDbLine
 10
328.22234
 20
109.796129
 30
0.0
 11
328.22234
 21
228.796129
 31
0.0
  0
CIRCLE
  5
5EC
330
1F
100
AcDbEntity
  8
001
370
    30
100
AcDbCircle
 10
328.22234
 20
216.796129
 30
0.0
 40
7.0
  0
CIRCLE
  5
5ED
330
1F
100
AcDbEntity
  8
001
370
    30
100
AcDbCircle
 10
287.086133
 20
193.046129
 30
0.0
 40
7.0
  0
CIRCLE
  5
5EE
330
1F
100
AcDbEntity
  8
001
370
    30
100
AcDbCircle
 10
287.086133
 20
145.546129
 30
0.0
 40
7.0
  0
CIRCLE
  5
5EF
330
1F
100
AcDbEntity
  8
001
370
    30
100
AcDbCircle
 10
328.22234
 20
121.796129
 30
0.0
 40
7.0
  0
CIRCLE
  5
5F0
330
1F
100
AcDbEntity
  8
001
370
    30
100
AcDbCircle
 10
369.358547
 20
145.546129
 30
0.0
 40
7.0
  0
CIRCLE
  5
5F1
330
1F
100
AcDbEntity
  8
001
370
    30
100
AcDbCircle
 10
369.358547
 20
193.046129
 30
0.0
 40
7.0
  0
ARC
  5
5F2
330
1F
100
AcDbEntity
  8
001
  6
CENTER
 62
     3
370
     9
100
AcDbCircle
 10
328.22234
 20
169.296129
 30
0.0
 40
47.49999999999989
100
AcDbArc
 50
140.106968
 51
159.893032
  0
ARC
  5
5F3
330
1F
100
AcDbEntity
  8
001
  6
CENTER
 62
     3
370
     9
100
AcDbCircle
 10
328.22234
 20
169.296129
 30
0.0
 40
47.49999999999989
100
AcDbArc
 50
260.106968
 51
279.893032
  0
ARC
  5
5F4
330
1F
100
AcDbEntity
  8
001
  6
CENTER
 62
     3
370
     9
100
AcDbCircle
 10
328.22234
 20
169.296129
 30
0.0
 40
47.49999999999989
100
AcDbArc
 50
320.106968
 51
339.893032
  0
ARC
  5
5F5
330
1F
100
AcDbEntity
  8
001
  6
CENTER
 62
     3
370
     9
100
AcDbCircle
 10
328.22234
 20
169.296129
 30
0.0
 40
47.49999999999989
100
AcDbArc
 50
80.106968
 51
99.893032
  0
ARC
  5
5F6
330
1F
100
AcDbEntity
  8
001
  6
CENTER
 62
     3
370
     9
100
AcDbCircle
 10
328.22234
 20
169.296129
 30
0.0
 40
47.49999999999989
100
AcDbArc
 50
191.650948
 51
219.893032
  0
ARC
  5
5F7
330
1F
100
AcDbEntity
  8
001
  6
CENTER
 62
     3
370
     9
100
AcDbCircle
 10
328.22234
 20
169.296129
 30
0.0
 40
47.49999999999989
100
AcDbArc
 50
9.929884
 51
39.893032
  0
LINE
  5
5F8
330
1F
100
AcDbEntity
  8
001
  6
CENTER
 62
     3
370
     9
100
AcDbLine
 10
361.131305
 20
188.296129
 30
0.0
 11
376.45255
 21
197.141853
 31
0.0
  0
LINE
  5
5F9
330
1F
100
AcDbEntity
  8
001
  6
CENTER
 62
     3
370
     9
100
AcDbLine
 10
295.313375
 20
188.296129
 30
0.0
 11
279.99213
 21
197.141853
 31
0.0
  0
LINE
  5
5FA
330
1F
100
AcDbEntity
  8
001
  6
CENTER
 62
     3
370
     9
100
AcDbLine
 10
295.313375
 20
150.296129
 30
0.0
 11
279.99213
 21
141.450404
 31
0.0
  0
LINE
  5
5FB
330
1F
100
AcDbEntity
  8
001
  6
CENTER
 62
     3
370
     9
100
AcDbLine
 10
361.131305
 20
150.296129
 30
0.0
 11
376.45255
 21
141.450404
 31
0.0
  0
ARC
  5
5FC
330
1F
100
AcDbEntity
  8
001
370
    30
100
AcDbCircle
 10
339.72234
 20
189.214713
 30
0.0
 40
1.0
100
AcDbArc
 50
328.754341
 51
151.245659
  0
LINE
  5
5FD
330
1F
100
AcDbEntity
  8
001
  6
CENTER
 62
     3
370
     9
100
AcDbLine
 10
339.132358
 20
188.192833
 30
0.0
 11
340.566116
 21
190.676176
 31
0.0
  0
ARC
  5
5FE
330
1F
100
AcDbEntity
  8
001
  6
CENTER
 62
     3
370
     9
100
AcDbCircle
 10
328.22234
 20
169.296129
 30
0.0
 40
23.0
100
AcDbArc
 50
57.508683
 51
62.491317
  0
ARC
  5
5FF
330
1F
100
AcDbEntity
  8
001
370
    30
100
AcDbCircle
 10
328.22234
 20
169.296129
 30
0.0
 40
23.0
100
AcDbArc
 50
62.491317
 51
57.508683
  0
CIRCLE
  5
600
330
1F
100
AcDbEntity
  8
001
370
    30
100
AcDbCircle
 10
328.22234
 20
169.296129
 30
0.0
 40
22.0
  0
LINE
  5
601
330
1F
100
AcDbEntity
  8
001
  6
CENTER
 62
     3
370
     9
100
AcDbLine
 10
320.88658
 20
182.002037
 30
0.0
 11
317.720156
 21
187.486444
 31
0.0
  0
ARC
  5
602
330
1F
100
AcDbEntity
  8
001
  6
CENTER
 62
     3
370
     9
100
AcDbCircle
 10
328.22234
 20
169.296129
 30
0.0
 40
17.5
100
AcDbArc
 50
348.499411
 51
13.474829
  0
CIRCLE
  5
603
330
1F
100
AcDbEntity
  8
001
370
    30
100
AcDbCircle
 10
345.72234
 20
169.296129
 30
0.0
 40
2.0
  0
ARC
  5
604
330
1F
100
AcDbEntity
  8
001
  6
CENTER
 62
     3
370
     9
100
AcDbCircle
 10
328.22234
 20
169.296129
 30
0.0
 40
17.5
100
AcDbArc
 50
108.499411
 51
133.474829
  0
CIRCLE
  5
605
330
1F
100
AcDbEntity
  8
001
370
    30
100
AcDbCircle
 10
319.47234
 20
184.451573
 30
0.0
 40
2.0
  0
ARC
  5
606
330
1F
100
AcDbEntity
  8
001
  6
CENTER
 62
     3
370
     9
100
AcDbCircle
 10
328.22234
 20
169.296129
 30
0.0
 40
17.5
100
AcDbArc
 50
228.499411
 51
253.474829
  0
CIRCLE
  5
607
330
1F
100
AcDbEntity
  8
001
370
    30
100
AcDbCircle
 10
319.47234
 20
154.140684
 30
0.0
 40
2.0
  0
LINE
  5
608
330
1F
100
AcDbEntity
  8
001
  6
CENTER
 62
     3
370
     9
100
AcDbLine
 10
320.88658
 20
156.59022
 30
0.0
 11
317.720156
 21
151.105813
 31
0.0
  0
LINE
  5
609
330
1F
100
AcDbEntity
  8
001
370
    30
100
AcDbLine
 10
306.245079
 20
168.296129
 30
0.0
 11
318.272466
 21
168.296129
 31
0.0
  0
LINE
  5
60A
330
1F
100
AcDbEntity
  8
001
370
    30
100
AcDbLine
 10
306.245079
 20
170.296129
 30
0.0
 11
318.272466
 21
170.296129
 31
0.0
  0
LINE
  5
60B
330
1F
100
AcDbEntity
  8
001
370
    30
100
AcDbLine
 10
340.076996
 20
150.763262
 30
0.0
 11
334.063303
 21
161.179285
 31
0.0
  0
LINE
  5
60C
330
1F
100
AcDbEntity
  8
001
370
    30
100
AcDbLine
 10
338.344945
 20
149.763262
 30
0.0
 11
332.331252
 21
160.179285
 31
0.0
  0
LINE
  5
60D
330
1F
100
AcDbEntity
  8
001
370
    30
100
AcDbLine
 10
338.344945
 20
188.828995
 30
0.0
 11
332.331252
 21
178.412973
 31
0.0
  0
LINE
  5
60E
330
1F
100
AcDbEntity
  8
001
370
    30
100
AcDbLine
 10
340.076996
 20
187.828995
 30
0.0
 11
334.063303
 21
177.412973
 31
0.0
  0
ARC
  5
60F
330
1F
100
AcDbEntity
  8
001
370
    30
100
AcDbCircle
 10
328.22234
 20
169.296129
 30
0.0
 40
10.0
100
AcDbArc
 50
65.73917
 51
174.26083
  0
ARC
  5
610
330
1F
100
AcDbEntity
  8
001
370
    30
100
AcDbCircle
 10
328.22234
 20
169.296129
 30
0.0
 40
10.00000000000001
100
AcDbArc
 50
185.73917
 51
294.26083
  0
ARC
  5
611
330
1F
100
AcDbEntity
  8
001
370
    30
100
AcDbCircle
 10
328.22234
 20
169.296129
 30
0.0
 40
15.0
100
AcDbArc
 50
56.177446
 51
63.822554
  0
ARC
  5
612
330
1F
100
AcDbEntity
  8
001
370
    30
100
AcDbCircle
 10
328.22234
 20
169.296129
 30
0.0
 40
17.99999999999999
100
AcDbArc
 50
56.815261
 51
63.184739
  0
ARC
  5
613
330
1F
100
AcDbEntity
  8
001
370
    30
100
AcDbCircle
 10
328.22234
 20
169.296129
 30
0.0
 40
13.0
100
AcDbArc
 50
55.588274
 51
64.411726
  0
ARC
  5
614
330
1F
100
AcDbEntity
  8
001
370
    30
100
AcDbCircle
 10
328.22234
 20
169.296129
 30
0.0
 40
15.0
100
AcDbArc
 50
176.177446
 51
183.822554
  0
ARC
  5
615
330
1F
100
AcDbEntity
  8
001
370
    30
100
AcDbCircle
 10
328.22234
 20
169.296129
 30
0.0
 40
18.0
100
AcDbArc
 50
176.815261
 51
183.184739
  0
ARC
  5
616
330
1F
100
AcDbEntity
  8
001
370
    30
100
AcDbCircle
 10
328.22234
 20
169.296129
 30
0.0
 40
13.0
100
AcDbArc
 50
175.588274
 51
184.411726
  0
ARC
  5
617
330
1F
100
AcDbEntity
  8
001
370
    30
100
AcDbCircle
 10
328.22234
 20
169.296129
 30
0.0
 40
15.0
100
AcDbArc
 50
296.177446
 51
303.822554
  0
ARC
  5
618
330
1F
100
AcDbEntity
  8
001
370
    30
100
AcDbCircle
 10
328.22234
 20
169.296129
 30
0.0
 40
18.0
100
AcDbArc
 50
296.815261
 51
303.184739
  0
ARC
  5
619
330
1F
100
AcDbEntity
  8
001
370
    30
100
AcDbCircle
 10
328.22234
 20
169.296129
 30
0.0
 40
13.0
100
AcDbArc
 50
295.588274
 51
304.411726
  0
ARC
  5
61A
330
1F
100
AcDbEntity
  8
001
370
    30
100
AcDbCircle
 10
328.22234
 20
169.296129
 30
0.0
 40
10.0
100
AcDbArc
 50
305.73917
 51
54.26083
  0
LINE
  5
61B
330
1F
100
AcDbEntity
  8
001
  6
CENTER
 62
     3
370
     9
100
AcDbLine
 10
332.521385
 20
161.849965
 30
0.0
 11
340.259328
 21
148.447454
 31
0.0
  0
LINE
  5
61C
330
1F
100
AcDbEntity
  8
001
  6
CENTER
 62
     3
370
     9
100
AcDbLine
 10
340.574932
 20
190.691446
 30
0.0
 11
332.334046
 21
176.417812
 31
0.0
  0
LINE
  5
61D
330
1F
100
AcDbEntity
  8
001
370
    30
100
AcDbLine
 10
126.962439
 20
184.296129
 30
0.0
 11
126.962439
 21
154.296129
 31
0.0
  0
LINE
  5
61E
330
1F
100
AcDbEntity
  8
001
370
    30
100
AcDbLine
 10
128.962439
 20
182.546129
 30
0.0
 11
128.962439
 21
156.046129
 31
0.0
  0
LINE
  5
61F
330
1F
100
AcDbEntity
  8
001
370
    30
100
AcDbLine
 10
144.462439
 20
182.546129
 30
0.0
 11
128.962439
 21
182.546129
 31
0.0
  0
LINE
  5
620
330
1F
100
AcDbEntity
  8
001
370
    30
100
AcDbLine
 10
128.962439
 20
182.546129
 30
0.0
 11
126.962439
 21
183.700829
 31
0.0
  0
LINE
  5
621
330
1F
100
AcDbEntity
  8
001
370
    30
100
AcDbLine
 10
127.462439
 20
184.796129
 30
0.0
 11
126.962439
 21
184.296129
 31
0.0
  0
LINE
  5
622
330
1F
100
AcDbEntity
  8
001
370
    30
100
AcDbLine
 10
144.462439
 20
156.046129
 30
0.0
 11
128.962439
 21
156.046129
 31
0.0
  0
LINE
  5
623
330
1F
100
AcDbEntity
  8
001
370
    30
100
AcDbLine
 10
128.962439
 20
156.046129
 30
0.0
 11
126.962439
 21
154.891428
 31
0.0
  0
LINE
  5
624
330
1F
100
AcDbEntity
  8
001
370
    30
100
AcDbLine
 10
127.462439
 20
153.796129
 30
0.0
 11
126.962439
 21
154.296129
 31
0.0
  0
LINE
  5
625
330
1F
100
AcDbEntity
  8
001
370
    30
100
AcDbLine
 10
229.962439
 20
191.119802
 30
0.0
 11
229.962439
 21
206.496129
 31
0.0
  0
LINE
  5
626
330
1F
100
AcDbEntity
  8
001
370
    30
100
AcDbLine
 10
144.962439
 20
207.796129
 30
0.0
 11
144.962439
 21
198.296129
 31
0.0
  0
LINE
  5
627
330
1F
100
AcDbEntity
  8
001
370
    30
100
AcDbLine
 10
180.719778
 20
139.296129
 30
0.0
 11
170.712439
 21
139.296129
 31
0.0
  0
LINE
  5
628
330
1F
100
AcDbEntity
  8
001
370
    30
100
AcDbLine
 10
180.719778
 20
199.296129
 30
0.0
 11
165.462439
 21
199.296129
 31
0.0
  0
LINE
  5
629
330
1F
100
AcDbEntity
  8
001
370
    30
100
AcDbLine
 10
173.962439
 20
112.296129
 30
0.0
 11
173.962439
 21
118.796129
 31
0.0
  0
LINE
  5
62A
330
1F
100
AcDbEntity
  8
001
370
    30
100
AcDbLine
 10
162.962439
 20
112.296129
 30
0.0
 11
162.962439
 21
118.796129
 31
0.0
  0
LINE
  5
62B
330
1F
100
AcDbEntity
  8
001
370
    30
100
AcDbLine
 10
173.962439
 20
118.796129
 30
0.0
 11
162.962439
 21
118.796129
 31
0.0
  0
LINE
  5
62C
330
1F
100
AcDbEntity
  8
001
370
    30
100
AcDbLine
 10
174.462439
 20
111.796129
 30
0.0
 11
173.962439
 21
112.296129
 31
0.0
  0
LINE
  5
62D
330
1F
100
AcDbEntity
  8
001
370
    30
100
AcDbLine
 10
171.962439
 20
118.796129
 30
0.0
 11
170.962439
 21
119.796129
 31
0.0
  0
LINE
  5
62E
330
1F
100
AcDbEntity
  8
001
370
    30
100
AcDbLine
 10
164.962439
 20
118.796129
 30
0.0
 11
165.962439
 21
119.796129
 31
0.0
  0
LINE
  5
62F
330
1F
100
AcDbEntity
  8
001
370
    30
100
AcDbLine
 10
162.962439
 20
112.296129
 30
0.0
 11
162.462439
 21
111.796129
 31
0.0
  0
LINE
  5
630
330
1F
100
AcDbEntity
  8
001
370
    30
100
AcDbLine
 10
173.962439
 20
112.296129
 30
0.0
 11
162.962439
 21
112.296129
 31
0.0
  0
LINE
  5
631
330
1F
100
AcDbEntity
  8
001
370
    30
100
AcDbLine
 10
165.962439
 20
131.796129
 30
0.0
 11
166.212439
 21
131.940466
 31
0.0
  0
LINE
  5
632
330
1F
100
AcDbEntity
  8
001
370
    30
100
AcDbLine
 10
170.962439
 20
131.796129
 30
0.0
 11
170.712439
 21
131.940466
 31
0.0
  0
LINE
  5
633
330
1F
100
AcDbEntity
  8
001
370
    30
100
AcDbLine
 10
163.462439
 20
113.396129
 30
0.0
 11
163.462439
 21
118.796129
 31
0.0
  0
LINE
  5
634
330
1F
100
AcDbEntity
  8
001
370
    30
100
AcDbLine
 10
173.462439
 20
113.396129
 30
0.0
 11
173.462439
 21
118.796129
 31
0.0
  0
LINE
  5
635
330
1F
100
AcDbEntity
  8
001
370
    30
100
AcDbLine
 10
172.423209
 20
112.796129
 30
0.0
 11
164.501669
 21
112.796129
 31
0.0
  0
LINE
  5
636
330
1F
100
AcDbEntity
  8
001
370
    30
100
AcDbLine
 10
170.712439
 20
120.296129
 30
0.0
 11
166.212439
 21
120.296129
 31
0.0
  0
LINE
  5
637
330
1F
100
AcDbEntity
  8
001
370
    30
100
AcDbLine
 10
170.712439
 20
119.196129
 30
0.0
 11
170.712439
 21
120.296129
 31
0.0
  0
LINE
  5
638
330
1F
100
AcDbEntity
  8
001
370
    30
100
AcDbLine
 10
166.212439
 20
119.196129
 30
0.0
 11
166.212439
 21
120.296129
 31
0.0
  0
LINE
  5
639
330
1F
100
AcDbEntity
  8
001
370
    30
100
AcDbLine
 10
170.712439
 20
120.296129
 30
0.0
 11
171.462439
 21
121.046129
 31
0.0
  0
LINE
  5
63A
330
1F
100
AcDbEntity
  8
001
370
    30
100
AcDbLine
 10
166.212439
 20
120.296129
 30
0.0
 11
165.462439
 21
121.046129
 31
0.0
  0
LINE
  5
63B
330
1F
100
AcDbEntity
  8
001
370
    30
100
AcDbLine
 10
171.462439
 20
121.046129
 30
0.0
 11
165.462439
 21
121.046129
 31
0.0
  0
LINE
  5
63C
330
1F
100
AcDbEntity
  8
001
370
    30
100
AcDbLine
 10
163.462439
 20
113.396129
 30
0.0
 11
164.501669
 21
112.796129
 31
0.0
  0
LINE
  5
63D
330
1F
100
AcDbEntity
  8
001
370
    30
100
AcDbLine
 10
173.462439
 20
113.396129
 30
0.0
 11
172.423209
 21
112.796129
 31
0.0
  0
LINE
  5
63E
330
1F
100
AcDbEntity
  8
001
370
    30
100
AcDbLine
 10
173.462439
 20
113.396129
 30
0.0
 11
163.462439
 21
113.396129
 31
0.0
  0
LINE
  5
63F
330
1F
100
AcDbEntity
  8
001
370
    30
100
AcDbLine
 10
166.212439
 20
127.296129
 30
0.0
 11
170.212439
 21
127.296129
 31
0.0
  0
LINE
  5
640
330
1F
100
AcDbEntity
  8
001
370
    30
100
AcDbLine
 10
170.712439
 20
127.296129
 30
0.0
 11
166.712439
 21
127.296129
 31
0.0
  0
LINE
  5
641
330
1F
100
AcDbEntity
  8
001
370
    30
100
AcDbLine
 10
171.462439
 20
121.046129
 30
0.0
 11
171.462439
 21
126.546129
 31
0.0
  0
LINE
  5
642
330
1F
100
AcDbEntity
  8
001
370
    30
100
AcDbLine
 10
165.462439
 20
126.546129
 30
0.0
 11
165.462439
 21
121.046129
 31
0.0
  0
LINE
  5
643
330
1F
100
AcDbEntity
  8
001
 62
     3
370
     9
100
AcDbLine
 10
165.962439
 20
120.546129
 30
0.0
 11
165.962439
 21
127.046129
 31
0.0
  0
LINE
  5
644
330
1F
100
AcDbEntity
  8
001
 62
     3
370
     9
100
AcDbLine
 10
170.962439
 20
127.046129
 30
0.0
 11
170.962439
 21
120.546128
 31
0.0
  0
LINE
  5
645
330
1F
100
AcDbEntity
  8
001
370
    30
100
AcDbLine
 10
171.462439
 20
126.546129
 30
0.0
 11
165.462439
 21
126.546129
 31
0.0
  0
LINE
  5
646
330
1F
100
AcDbEntity
  8
001
370
    30
100
AcDbLine
 10
170.712439
 20
127.296129
 30
0.0
 11
170.712439
 21
149.296129
 31
0.0
  0
LINE
  5
647
330
1F
100
AcDbEntity
  8
001
370
    30
100
AcDbLine
 10
166.212439
 20
127.296129
 30
0.0
 11
166.212439
 21
149.296129
 31
0.0
  0
LINE
  5
648
330
1F
100
AcDbEntity
  8
001
370
    30
100
AcDbLine
 10
165.462439
 20
126.546129
 30
0.0
 11
166.212439
 21
127.296129
 31
0.0
  0
LINE
  5
649
330
1F
100
AcDbEntity
  8
001
370
    30
100
AcDbLine
 10
171.462439
 20
126.546129
 30
0.0
 11
170.712439
 21
127.296129
 31
0.0
  0
ARC
  5
64A
330
1F
100
AcDbEntity
  8
001
370
    30
100
AcDbCircle
 10
171.112439
 20
119.196129
 30
0.0
 40
0.4
100
AcDbArc
 50
180.0
 51
270.0
  0
ARC
  5
64B
330
1F
100
AcDbEntity
  8
001
370
    30
100
AcDbCircle
 10
165.812439
 20
119.196129
 30
0.0
 40
0.4
100
AcDbArc
 50
270.0
 51
0.0
  0
LINE
  5
64C
330
1F
100
AcDbEntity
  8
001
 62
     3
370
     9
100
AcDbLine
 10
165.462439
 20
119.296128
 30
0.0
 11
165.462439
 21
121.046129
 31
0.0
  0
LINE
  5
64D
330
1F
100
AcDbEntity
  8
001
 62
     3
370
     9
100
AcDbLine
 10
165.462439
 20
126.546129
 30
0.0
 11
165.462439
 21
128.796129
 31
0.0
  0
LINE
  5
64E
330
1F
100
AcDbEntity
  8
001
370
    30
100
AcDbLine
 10
165.962439
 20
119.796129
 30
0.0
 11
165.962439
 21
120.546128
 31
0.0
  0
LINE
  5
64F
330
1F
100
AcDbEntity
  8
001
370
    30
100
AcDbLine
 10
165.962439
 20
127.046129
 30
0.0
 11
165.962439
 21
131.796129
 31
0.0
  0
LINE
  5
650
330
1F
100
AcDbEntity
  8
001
370
    30
100
AcDbLine
 10
170.962439
 20
119.796129
 30
0.0
 11
170.962439
 21
120.546128
 31
0.0
  0
LINE
  5
651
330
1F
100
AcDbEntity
  8
001
370
    30
100
AcDbLine
 10
170.962439
 20
127.046129
 30
0.0
 11
170.962439
 21
131.796129
 31
0.0
  0
LINE
  5
652
330
1F
100
AcDbEntity
  8
001
 62
     3
370
     9
100
AcDbLine
 10
171.462439
 20
128.796129
 30
0.0
 11
171.462439
 21
126.546129
 31
0.0
  0
LINE
  5
653
330
1F
100
AcDbEntity
  8
001
 62
     3
370
     9
100
AcDbLine
 10
171.462439
 20
121.046129
 30
0.0
 11
171.462439
 21
119.296128
 31
0.0
  0
LINE
  5
654
330
1F
100
AcDbEntity
  8
001
370
    30
100
AcDbLine
 10
165.962439
 20
119.796129
 30
0.0
 11
166.212439
 21
119.796129
 31
0.0
  0
LINE
  5
655
330
1F
100
AcDbEntity
  8
001
370
    30
100
AcDbLine
 10
170.712439
 20
119.796129
 30
0.0
 11
170.962439
 21
119.796129
 31
0.0
  0
LINE
  5
656
330
1F
100
AcDbEntity
  8
001
370
    30
100
AcDbLine
 10
165.462439
 20
128.796129
 30
0.0
 11
166.212439
 21
128.796129
 31
0.0
  0
LINE
  5
657
330
1F
100
AcDbEntity
  8
001
370
    30
100
AcDbLine
 10
170.712439
 20
128.796129
 30
0.0
 11
171.462439
 21
128.796129
 31
0.0
  0
LINE
  5
658
330
1F
100
AcDbEntity
  8
001
370
    30
100
AcDbLine
 10
165.962439
 20
131.796129
 30
0.0
 11
166.212439
 21
131.796129
 31
0.0
  0
LINE
  5
659
330
1F
100
AcDbEntity
  8
001
370
    30
100
AcDbLine
 10
170.712439
 20
131.796129
 30
0.0
 11
170.962439
 21
131.796129
 31
0.0
  0
LINE
  5
65A
330
1F
100
AcDbEntity
  8
001
  6
CENTER
 62
     3
370
     9
100
AcDbLine
 10
168.462439
 20
110.008314
 30
0.0
 11
168.462439
 21
153.457657
 31
0.0
  0
LINE
  5
65B
330
1F
100
AcDbEntity
  8
001
  6
PHANTOM
 62
     3
370
     9
100
AcDbLine
 10
120.462439
 20
147.496129
 30
0.0
 11
120.462439
 21
140.796129
 31
0.0
  0
LINE
  5
65C
330
1F
100
AcDbEntity
  8
001
  6
PHANTOM
 62
     3
370
     9
100
AcDbLine
 10
120.962439
 20
140.296129
 30
0.0
 11
120.462439
 21
140.796129
 31
0.0
  0
LINE
  5
65D
330
1F
100
AcDbEntity
  8
001
  6
PHANTOM
 62
     3
370
     9
100
AcDbLine
 10
122.482347
 20
140.296129
 30
0.0
 11
120.962439
 21
140.296129
 31
0.0
  0
LINE
  5
65E
330
1F
100
AcDbEntity
  8
001
370
    30
100
AcDbLine
 10
122.962439
 20
139.796129
 30
0.0
 11
122.962439
 21
140.08594
 31
0.0
  0
LINE
  5
65F
330
1F
100
AcDbEntity
  8
001
370
    30
100
AcDbLine
 10
121.962439
 20
140.08594
 30
0.0
 11
121.962439
 21
129.796129
 31
0.0
  0
ENDSEC
  0
SECTION
  2
OBJECTS
  0
DICTIONARY
  5
C
330
0
100
AcDbDictionary
281
     1
  3
ACAD_GROUP
350
D
  3
ACAD_LAYOUT
350
1A
  3
ACAD_MLEADERSTYLE
350
662
  3
ACAD_MLINESTYLE
350
17
  3
ACAD_PLOTSETTINGS
350
19
  3
ACAD_PLOTSTYLENAME
350
E
  3
ACAD_SCALELIST
350
47
  3
ACAD_VISUALSTYLE
350
2A
  3
AcDbVariableDictionary
350
660
  0
DICTIONARY
  5
D
102
{ACAD_REACTORS
330
C
102
}
330
C
100
AcDbDictionary
281
     1
  0
DICTIONARY
  5
1A
102
{ACAD_REACTORS
330
C
102
}
330
C
100
AcDbDictionary
281
     1
  3
Layout1
350
1E
  3
Layout2
350
26
  3
Model
350
22
  0
DICTIONARY
  5
662
102
{ACAD_REACTORS
330
C
102
}
330
C
100
AcDbDictionary
281
     1
  0
DICTIONARY
  5
17
102
{ACAD_REACTORS
330
C
102
}
330
C
100
AcDbDictionary
281
     1
  3
Standard
350
18
  0
DICTIONARY
  5
19
102
{ACAD_REACTORS
330
C
102
}
330
C
100
AcDbDictionary
281
     1
  0
ACDBDICTIONARYWDFLT
  5
E
102
{ACAD_REACTORS
330
C
102
}
330
C
100
AcDbDictionary
281
     1
  3
Normal
350
F
100
AcDbDictionaryWithDefault
340
F
  0
DICTIONARY
  5
47
102
{ACAD_REACTORS
330
C
102
}
330
C
100
AcDbDictionary
281
     1
  3
A0
350
48
  3
A1
350
49
  3
A2
350
4A
  3
A3
350
4B
  3
A4
350
4C
  3
A5
350
4D
  3
A6
350
4E
  3
A7
350
4F
  3
A8
350
50
  3
A9
350
51
  3
B0
350
52
  3
B1
350
53
  3
B2
350
54
  3
B3
350
55
  3
B4
350
56
  3
B5
350
57
  3
B6
350
58
  3
B7
350
59
  3
B8
350
5A
  3
B9
350
5B
  3
C0
350
5C
  3
C1
350
5D
  3
C2
350
5E
  3
C3
350
5F
  3
C4
350
60
  3
C5
350
61
  3
C6
350
62
  3
C7
350
63
  3
C8
350
64
  3
C9
350
65
  3
D0
350
66
  3
D1
350
67
  3
D2
350
68
  0
DICTIONARY
  5
2A
102
{ACAD_REACTORS
330
C
102
}
330
C
100
AcDbDictionary
281
     1
  3
2dWireframe
350
2F
  3
3D Hidden
350
31
  3
3dWireframe
350
30
  3
Basic
350
32
  3
Brighten
350
36
  3
ColorChange
350
3A
  3
Conceptual
350
34
  3
Dim
350
35
  3
Facepattern
350
39
  3
Flat
350
2B
  3
FlatWithEdges
350
2C
  3
Gouraud
350
2D
  3
GouraudWithEdges
350
2E
  3
Linepattern
350
38
  3
Realistic
350
33
  3
Thicken
350
37
  0
DICTIONARY
  5
660
102
{ACAD_REACTORS
330
C
102
}
330
C
100
AcDbDictionary
281
     1
  3
CANNOSCALE
350
665
  3
PSOLHEIGHT
350
664
  3
PSOLWIDTH
350
663
  0
LAYOUT
  5
1E
102
{ACAD_REACTORS
330
1A
102
}
330
1A
100
AcDbPlotSettings
  1

  2
none_device
  4

  6

 40
0.0
 41
0.0
 42
0.0
 43
0.0
 44
0.0
 45
0.0
 46
0.0
 47
0.0
 48
0.0
 49
0.0
140
0.0
141
0.0
142
1.0
143
1.0
 70
   688
 72
     0
 73
     0
 74
     5
  7

 75
    16
147
1.0
148
0.0
149
0.0
100
AcDbLayout
  1
Layout1
 70
     1
 71
     1
 10
0.0
 20
0.0
 11
12.0
 21
9.0
 12
0.0
 22
0.0
 32
0.0
 14
1.000000E+20
 24
1.000000E+20
 34
0.0
 15
-1.000000E+20
 25
-1.000000E+20
 35
0.0
146
0.0
 13
0.0
 23
0.0
 33
0.0
 16
1.0
 26
0.0
 36
0.0
 17
0.0
 27
1.0
 37
0.0
 76
     0
330
1B
  0
LAYOUT
  5
26
102
{ACAD_REACTORS
330
1A
102
}
330
1A
100
AcDbPlotSettings
  1

  2
none_device
  4

  6

 40
0.0
 41
0.0
 42
0.0
 43
0.0
 44
0.0
 45
0.0
 46
0.0
 47
0.0
 48
0.0
 49
0.0
140
0.0
141
0.0
142
1.0
143
1.0
 70
   688
 72
     0
 73
     0
 74
     5
  7

 75
    16
147
1.0
148
0.0
149
0.0
100
AcDbLayout
  1
Layout2
 70
     1
 71
     2
 10
0.0
 20
0.0
 11
0.0
 21
0.0
 12
0.0
 22
0.0
 32
0.0
 14
0.0
 24
0.0
 34
0.0
 15
0.0
 25
0.0
 35
0.0
146
0.0
 13
0.0
 23
0.0
 33
0.0
 16
1.0
 26
0.0
 36
0.0
 17
0.0
 27
1.0
 37
0.0
 76
     0
330
23
  0
LAYOUT
  5
22
102
{ACAD_REACTORS
330
1A
102
}
330
1A
100
AcDbPlotSettings
  1

  2
none_device
  4

  6

 40
0.0
 41
0.0
 42
0.0
 43
0.0
 44
0.0
 45
0.0
 46
0.0
 47
0.0
 48
0.0
 49
0.0
140
0.0
141
0.0
142
1.0
143
1.0
 70
  1712
 72
     0
 73
     0
 74
     0
  7

 75
     0
147
1.0
148
0.0
149
0.0
100
AcDbLayout
  1
Model
 70
     1
 71
     0
 10
0.0
 20
0.0
 11
12.0
 21
9.0
 12
0.0
 22
0.0
 32
0.0
 14
0.0
 24
0.0
 34
0.0
 15
420.0
 25
297.0
 35
0.0
146
0.0
 13
0.0
 23
0.0
 33
0.0
 16
1.0
 26
0.0
 36
0.0
 17
0.0
 27
1.0
 37
0.0
 76
     0
330
1F
331
29
  0
MLINESTYLE
  5
18
102
{ACAD_REACTORS
330
17
102
}
330
17
100
AcDbMlineStyle
  2
Standard
 70
     0
  3

 62
   256
 51
90.0
 52
90.0
 71
     2
 49
0.5
 62
   256
  6
BYLAYER
 49
-0.5
 62
   256
  6
BYLAYER
  0
ACDBPLACEHOLDER
  5
F
102
{ACAD_REACTORS
330
E
102
}
330
E
  0
SCALE
  5
48
102
{ACAD_REACTORS
330
47
102
}
330
47
100
AcDbScale
 70
     0
300
1:1
140
1.0
141
1.0
290
     1
  0
SCALE
  5
49
102
{ACAD_REACTORS
330
47
102
}
330
47
100
AcDbScale
 70
     0
300
1:2
140
1.0
141
2.0
290
     0
  0
SCALE
  5
4A
102
{ACAD_REACTORS
330
47
102
}
330
47
100
AcDbScale
 70
     0
300
1:4
140
1.0
141
4.0
290
     0
  0
SCALE
  5
4B
102
{ACAD_REACTORS
330
47
102
}
330
47
100
AcDbScale
 70
     0
300
1:5
140
1.0
141
5.0
290
     0
  0
SCALE
  5
4C
102
{ACAD_REACTORS
330
47
102
}
330
47
100
AcDbScale
 70
     0
300
1:8
140
1.0
141
8.0
290
     0
  0
SCALE
  5
4D
102
{ACAD_REACTORS
330
47
102
}
330
47
100
AcDbScale
 70
     0
300
1:10
140
1.0
141
10.0
290
     0
  0
SCALE
  5
4E
102
{ACAD_REACTORS
330
47
102
}
330
47
100
AcDbScale
 70
     0
300
1:16
140
1.0
141
16.0
290
     0
  0
SCALE
  5
4F
102
{ACAD_REACTORS
330
47
102
}
330
47
100
AcDbScale
 70
     0
300
1:20
140
1.0
141
20.0
290
     0
  0
SCALE
  5
50
102
{ACAD_REACTORS
330
47
102
}
330
47
100
AcDbScale
 70
     0
300
1:30
140
1.0
141
30.0
290
     0
  0
SCALE
  5
51
102
{ACAD_REACTORS
330
47
102
}
330
47
100
AcDbScale
 70
     0
300
1:40
140
1.0
141
40.0
290
     0
  0
SCALE
  5
52
102
{ACAD_REACTORS
330
47
102
}
330
47
100
AcDbScale
 70
     0
300
1:50
140
1.0
141
50.0
290
     0
  0
SCALE
  5
53
102
{ACAD_REACTORS
330
47
102
}
330
47
100
AcDbScale
 70
     0
300
1:100
140
1.0
141
100.0
290
     0
  0
SCALE
  5
54
102
{ACAD_REACTORS
330
47
102
}
330
47
100
AcDbScale
 70
     0
300
2:1
140
2.0
141
1.0
290
     0
  0
SCALE
  5
55
102
{ACAD_REACTORS
330
47
102
}
330
47
100
AcDbScale
 70
     0
300
4:1
140
4.0
141
1.0
290
     0
  0
SCALE
  5
56
102
{ACAD_REACTORS
330
47
102
}
330
47
100
AcDbScale
 70
     0
300
8:1
140
8.0
141
1.0
290
     0
  0
SCALE
  5
57
102
{ACAD_REACTORS
330
47
102
}
330
47
100
AcDbScale
 70
     0
300
10:1
140
10.0
141
1.0
290
     0
  0
SCALE
  5
58
102
{ACAD_REACTORS
330
47
102
}
330
47
100
AcDbScale
 70
     0
300
100:1
140
100.0
141
1.0
290
     0
  0
SCALE
  5
59
102
{ACAD_REACTORS
330
47
102
}
330
47
100
AcDbScale
 70
     0
300
1/128" = 1'-0"
140
0.007812
141
12.0
290
     0
  0
SCALE
  5
5A
102
{ACAD_REACTORS
330
47
102
}
330
47
100
AcDbScale
 70
     0
300
1/64" = 1'-0"
140
0.015625
141
12.0
290
     0
  0
SCALE
  5
5B
102
{ACAD_REACTORS
330
47
102
}
330
47
100
AcDbScale
 70
     0
300
1/32" = 1'-0"
140
0.03125
141
12.0
290
     0
  0
SCALE
  5
5C
102
{ACAD_REACTORS
330
47
102
}
330
47
100
AcDbScale
 70
     0
300
1/16" = 1'-0"
140
0.0625
141
12.0
290
     0
  0
SCALE
  5
5D
102
{ACAD_REACTORS
330
47
102
}
330
47
100
AcDbScale
 70
     0
300
3/32" = 1'-0"
140
0.09375
141
12.0
290
     0
  0
SCALE
  5
5E
102
{ACAD_REACTORS
330
47
102
}
330
47
100
AcDbScale
 70
     0
300
1/8" = 1'-0"
140
0.125
141
12.0
290
     0
  0
SCALE
  5
5F
102
{ACAD_REACTORS
330
47
102
}
330
47
100
AcDbScale
 70
     0
300
3/16" = 1'-0"
140
0.1875
141
12.0
290
     0
  0
SCALE
  5
60
102
{ACAD_REACTORS
330
47
102
}
330
47
100
AcDbScale
 70
     0
300
1/4" = 1'-0"
140
0.25
141
12.0
290
     0
  0
SCALE
  5
61
102
{ACAD_REACTORS
330
47
102
}
330
47
100
AcDbScale
 70
     0
300
3/8" = 1'-0"
140
0.375
141
12.0
290
     0
  0
SCALE
  5
62
102
{ACAD_REACTORS
330
47
102
}
330
47
100
AcDbScale
 70
     0
300
1/2" = 1'-0"
140
0.5
141
12.0
290
     0
  0
SCALE
  5
63
102
{ACAD_REACTORS
330
47
102
}
330
47
100
AcDbScale
 70
     0
300
3/4" = 1'-0"
140
0.75
141
12.0
290
     0
  0
SCALE
  5
64
102
{ACAD_REACTORS
330
47
102
}
330
47
100
AcDbScale
 70
     0
300
1" = 1'-0"
140
1.0
141
12.0
290
     0
  0
SCALE
  5
65
102
{ACAD_REACTORS
330
47
102
}
330
47
100
AcDbScale
 70
     0
300
1-1/2" = 1'-0"
140
1.5
141
12.0
290
     0
  0
SCALE
  5
66
102
{ACAD_REACTORS
330
47
102
}
330
47
100
AcDbScale
 70
     0
300
3" = 1'-0"
140
3.0
141
12.0
290
     0
  0
SCALE
  5
67
102
{ACAD_REACTORS
330
47
102
}
330
47
100
AcDbScale
 70
     0
300
6" = 1'-0"
140
6.0
141
12.0
290
     0
  0
SCALE
  5
68
102
{ACAD_REACTORS
330
47
102
}
330
47
100
AcDbScale
 70
     0
300
1'-0" = 1'-0"
140
12.0
141
12.0
290
     0
  0
VISUALSTYLE
  5
2F
102
{ACAD_REACTORS
330
2A
102
}
330
2A
100
AcDbVisualStyle
  2
2dWireframe
 70
     4
 71
     0
 72
     2
 73
     0
 90
        0
 40
-0.6
 41
-30.0
 62
     5
 63
     7
 74
     1
 91
        4
 64
     7
 65
   257
 75
     1
175
     1
 42
1.0
 92
        0
 66
   257
 43
1.0
 76
     1
 77
     6
 78
     2
 67
     7
 79
     5
170
     0
171
     0
290
     0
174
     0
 93
        1
 44
0.0
173
     0
291
     0
 45
0.0
1001
ACAD
1000
AcDbSavedByObjectVersion
1070
     0
  0
VISUALSTYLE
  5
31
102
{ACAD_REACTORS
330
2A
102
}
330
2A
100
AcDbVisualStyle
  2
3D Hidden
 70
     6
 71
     1
 72
     2
 73
     2
 90
        0
 40
-0.6
 41
-30.0
 62
     5
 63
     7
 74
     2
 91
        2
 64
     7
 65
   257
 75
     2
175
     1
 42
40.0
 92
        0
 66
   257
 43
1.0
 76
     1
 77
     6
 78
     2
 67
     7
 79
     3
170
     0
171
     0
290
     0
174
     0
 93
        1
 44
0.0
173
     0
291
     0
 45
0.0
1001
ACAD
1000
AcDbSavedByObjectVersion
1070
     0
  0
VISUALSTYLE
  5
30
102
{ACAD_REACTORS
330
2A
102
}
330
2A
100
AcDbVisualStyle
  2
3dWireframe
 70
     5
 71
     0
 72
     2
 73
     0
 90
        0
 40
-0.6
 41
-30.0
 62
     5
 63
     7
 74
     1
 91
        4
 64
     7
 65
   257
 75
     1
175
     1
 42
1.0
 92
        0
 66
   257
 43
1.0
 76
     1
 77
     6
 78
     2
 67
     7
 79
     5
170
     0
171
     0
290
     0
174
     0
 93
        1
 44
0.0
173
     0
291
     0
 45
0.0
1001
ACAD
1000
AcDbSavedByObjectVersion
1070
     0
  0
VISUALSTYLE
  5
32
102
{ACAD_REACTORS
330
2A
102
}
330
2A
100
AcDbVisualStyle
  2
Basic
 70
     7
 71
     1
 72
     0
 73
     1
 90
        0
 40
-0.6
 41
-30.0
 62
     5
 63
     7
 74
     0
 91
        4
 64
     7
 65
   257
 75
     1
175
     1
 42
1.0
 92
        8
 66
     7
 43
1.0
 76
     1
 77
     6
 78
     2
 67
     7
 79
     5
170
     0
171
     0
290
     0
174
     0
 93
        1
 44
0.0
173
     0
291
     1
 45
0.0
1001
ACAD
1000
AcDbSavedByObjectVersion
1070
     0
  0
VISUALSTYLE
  5
36
102
{ACAD_REACTORS
330
2A
102
}
330
2A
100
AcDbVisualStyle
  2
Brighten
 70
    12
 71
     2
 72
     2
 73
     0
 90
        0
 40
-0.6
 41
-30.0
 62
     5
 63
     7
 74
     1
 91
        4
 64
     7
 65
   257
 75
     1
175
     1
 42
1.0
 92
        8
 66
     7
 43
1.0
 76
     1
 77
     6
 78
     2
 67
     7
 79
     5
170
     0
171
     0
290
     0
174
     0
 93
        1
 44
50.0
173
     0
291
     1
 45
0.0
1001
ACAD
1000
AcDbSavedByObjectVersion
1070
     0
  0
VISUALSTYLE
  5
3A
102
{ACAD_REACTORS
330
2A
102
}
330
2A
100
AcDbVisualStyle
  2
ColorChange
 70
    16
 71
     2
 72
     2
 73
     3
 90
        0
 40
-0.6
 41
-30.0
 62
     5
 63
     8
 74
     1
 91
        4
 64
     7
 65
   257
 75
     1
175
     1
 42
1.0
 92
        8
 66
     8
 43
1.0
 76
     1
 77
     6
 78
     2
 67
     7
 79
     5
170
     0
171
     0
290
     0
174
     0
 93
        1
 44
0.0
173
     0
291
     1
 45
0.0
1001
ACAD
1000
AcDbSavedByObjectVersion
1070
     0
  0
VISUALSTYLE
  5
34
102
{ACAD_REACTORS
330
2A
102
}
330
2A
100
AcDbVisualStyle
  2
Conceptual
 70
     9
 71
     3
 72
     2
 73
     0
 90
        0
 40
-0.6
 41
-30.0
 62
     5
 63
     7
 74
     2
 91
        2
 64
     7
 65
   257
 75
     1
175
     1
 42
40.0
 92
        8
 66
     7
 43
1.0
 76
     1
 77
     6
 78
     2
 67
     7
 79
     3
170
     0
171
     0
290
     0
174
     0
 93
        1
 44
0.0
173
     0
291
     0
 45
0.0
1001
ACAD
1000
AcDbSavedByObjectVersion
1070
     0
  0
VISUALSTYLE
  5
35
102
{ACAD_REACTORS
330
2A
102
}
330
2A
100
AcDbVisualStyle
  2
Dim
 70
    11
 71
     2
 72
     2
 73
     0
 90
        0
 40
-0.6
 41
-30.0
 62
     5
 63
     7
 74
     1
 91
        4
 64
     7
 65
   257
 75
     1
175
     1
 42
1.0
 92
        8
 66
     7
 43
1.0
 76
     1
 77
     6
 78
     2
 67
     7
 79
     5
170
     0
171
     0
290
     0
174
     0
 93
        1
 44
-50.0
173
     0
291
     1
 45
0.0
1001
ACAD
1000
AcDbSavedByObjectVersion
1070
     0
  0
VISUALSTYLE
  5
39
102
{ACAD_REACTORS
330
2A
102
}
330
2A
100
AcDbVisualStyle
  2
Facepattern
 70
    15
 71
     2
 72
     2
 73
     0
 90
        0
 40
-0.6
 41
-30.0
 62
     5
 63
     7
 74
     1
 91
        4
 64
     7
 65
   257
 75
     1
175
     1
 42
1.0
 92
        8
 66
     7
 43
1.0
 76
     1
 77
     6
 78
     2
 67
     7
 79
     5
170
     0
171
     0
290
     0
174
     0
 93
        1
 44
0.0
173
     0
291
     1
 45
0.0
1001
ACAD
1000
AcDbSavedByObjectVersion
1070
     0
  0
VISUALSTYLE
  5
2B
102
{ACAD_REACTORS
330
2A
102
}
330
2A
100
AcDbVisualStyle
  2
Flat
 70
     0
 71
     2
 72
     1
 73
     1
 90
        2
 40
-0.6
 41
30.0
 62
     5
 63
     7
 74
     0
 91
        4
 64
     7
 65
   257
 75
     1
175
     1
 42
1.0
 92
        8
 66
     7
 43
1.0
 76
     1
 77
     6
 78
     2
 67
     7
 79
     5
170
     0
171
     0
290
     0
174
     0
 93
       13
 44
0.0
173
     0
291
     1
 45
0.0
1001
ACAD
1000
AcDbSavedByObjectVersion
1070
     0
  0
VISUALSTYLE
  5
2C
102
{ACAD_REACTORS
330
2A
102
}
330
2A
100
AcDbVisualStyle
  2
FlatWithEdges
 70
     1
 71
     2
 72
     1
 73
     1
 90
        2
 40
-0.6
 41
30.0
 62
     5
 63
     7
 74
     1
 91
        4
 64
     7
 65
   257
 75
     1
175
     1
 42
1.0
 92
        0
 66
   257
 43
1.0
 76
     1
 77
     6
 78
     2
 67
     7
 79
     5
170
     0
171
     0
290
     0
174
     0
 93
       13
 44
0.0
173
     0
291
     1
 45
0.0
1001
ACAD
1000
AcDbSavedByObjectVersion
1070
     0
  0
VISUALSTYLE
  5
2D
102
{ACAD_REACTORS
330
2A
102
}
330
2A
100
AcDbVisualStyle
  2
Gouraud
 70
     2
 71
     2
 72
     2
 73
     1
 90
        2
 40
-0.6
 41
30.0
 62
     5
 63
     7
 74
     0
 91
        4
 64
     7
 65
   257
 75
     1
175
     1
 42
1.0
 92
        0
 66
     7
 43
1.0
 76
     1
 77
     6
 78
     2
 67
     7
 79
     5
170
     0
171
     0
290
     0
174
     0
 93
       13
 44
0.0
173
     0
291
     1
 45
0.0
1001
ACAD
1000
AcDbSavedByObjectVersion
1070
     0
  0
VISUALSTYLE
  5
2E
102
{ACAD_REACTORS
330
2A
102
}
330
2A
100
AcDbVisualStyle
  2
GouraudWithEdges
 70
     3
 71
     2
 72
     2
 73
     1
 90
        2
 40
-0.6
 41
30.0
 62
     5
 63
     7
 74
     1
 91
        4
 64
     7
 65
   257
 75
     1
175
     1
 42
1.0
 92
        0
 66
   257
 43
1.0
 76
     1
 77
     6
 78
     2
 67
     7
 79
     5
170
     0
171
     0
290
     0
174
     0
 93
       13
 44
0.0
173
     0
291
     1
 45
0.0
1001
ACAD
1000
AcDbSavedByObjectVersion
1070
     0
  0
VISUALSTYLE
  5
38
102
{ACAD_REACTORS
330
2A
102
}
330
2A
100
AcDbVisualStyle
  2
Linepattern
 70
    14
 71
     2
 72
     2
 73
     0
 90
        0
 40
-0.6
 41
-30.0
 62
     5
 63
     7
 74
     1
 91
        4
 64
     7
 65
   257
 75
     7
175
     7
 42
1.0
 92
        8
 66
     7
 43
1.0
 76
     1
 77
     6
 78
     2
 67
     7
 79
     5
170
     0
171
     0
290
     0
174
     0
 93
        1
 44
0.0
173
     0
291
     1
 45
0.0
1001
ACAD
1000
AcDbSavedByObjectVersion
1070
     0
  0
VISUALSTYLE
  5
33
102
{ACAD_REACTORS
330
2A
102
}
330
2A
100
AcDbVisualStyle
  2
Realistic
 70
     8
 71
     2
 72
     2
 73
     0
 90
        0
 40
-0.6
 41
-30.0
 62
     5
 63
     7
 74
     1
 91
        0
 64
     7
 65
   257
 75
     1
175
     1
 42
1.0
 92
        8
 66
     8
 43
1.0
 76
     1
 77
     6
 78
     2
 67
     7
 79
     5
170
     0
171
     0
290
     0
174
     0
 93
       13
 44
0.0
173
     0
291
     0
 45
0.0
1001
ACAD
1000
AcDbSavedByObjectVersion
1070
     0
  0
VISUALSTYLE
  5
37
102
{ACAD_REACTORS
330
2A
102
}
330
2A
100
AcDbVisualStyle
  2
Thicken
 70
    13
 71
     2
 72
     2
 73
     0
 90
        0
 40
-0.6
 41
-30.0
 62
     5
 63
     7
 74
     1
 91
        4
 64
     7
 65
   257
 75
     1
175
     1
 42
1.0
 92
       12
 66
     7
 43
1.0
 76
     1
 77
     6
 78
     2
 67
     7
 79
     5
170
     0
171
     0
290
     0
174
     0
 93
        1
 44
0.0
173
     0
291
     1
 45
0.0
1001
ACAD
1000
AcDbSavedByObjectVersion
1070
     0
  0
DICTIONARYVAR
  5
665
102
{ACAD_REACTORS
330
660
102
}
330
660
100
DictionaryVariables
280
     0
  1
1:1
  0
DICTIONARYVAR
  5
664
102
{ACAD_REACTORS
330
660
102
}
330
660
100
DictionaryVariables
280
     0
  1
80.000000
  0
DICTIONARYVAR
  5
663
102
{ACAD_REACTORS
330
660
102
}
330
660
100
DictionaryVariables
280
     0
  1
5.000000
  0
ENDSEC
  0
EOF
